<?xml version="1.0" standalone="no"?>
<!DOCTYPE svg PUBLIC "-//W3C//DTD SVG 1.1//EN" "http://www.w3.org/Graphics/SVG/1.1/DTD/svg11.dtd" >
<svg xmlns="http://www.w3.org/2000/svg" xmlns:xlink="http://www.w3.org/1999/xlink" version="1.1">
<metadata>
Created by FontForge 20201107 at Tue Jan  9 13:50:03 2024
 By 
Copyright 2011 Schwartzco Inc dba Commercial Type.
</metadata>
<defs>
<font id="NeueHaasGroteskPro-75Bold" horiz-adv-x="1024" >
  <font-face 
    font-family="Neue Haas Grotesk DispBold"
    font-weight="700"
    font-stretch="normal"
    units-per-em="2048"
    panose-1="2 13 8 4 3 5 2 5 2 3"
    ascent="1675"
    descent="-373"
    x-height="1049"
    cap-height="1464"
    bbox="-371 -539 2556 1915.57"
    underline-thickness="102"
    underline-position="-409"
    unicode-range="U+0020-FB04"
  />
<missing-glyph 
 />
    <glyph glyph-name="f_f" unicode="ff" horiz-adv-x="1335" 
d="M492 0h-334v836h-135v213h135v65q0 137 63 215q117 157 449 119v-236q-97 5 -137.5 -19.5t-40.5 -100.5v-43h288v75q0 134 62 211q115 160 467 123v-235q-111 5 -154 -19.5t-43 -103.5v-51h197v-213h-197v-836h-332v836h-288v-836z" />
    <glyph glyph-name="fi" unicode="fi" horiz-adv-x="1208" 
d="M492 0h-332v836h-137v213h137v75q0 136 61 209q113 162 467 125v-235q-110 5 -153 -19.5t-43 -103.5v-51h196v-213h-196v-836zM1128 0h-333v1049h333v-1049zM1128 1194h-333v270h333v-270z" />
    <glyph glyph-name="fl" unicode="fl" horiz-adv-x="1214" 
d="M492 0h-334v836h-135v213h135v75q0 133 61 209q113 163 469 125v-235q-110 5 -153 -19.5t-43 -103.5v-51h196v-213h-196v-836zM1133 0h-338v1464h338v-1464z" />
    <glyph glyph-name="f_f_i" unicode="ffi" horiz-adv-x="1828" 
d="M492 0h-334v836h-135v213h135v65q0 137 63 215q117 157 449 119v-236q-97 5 -137.5 -19.5t-40.5 -100.5v-43h288v75q0 134 62 211q115 160 467 123v-235q-111 5 -154 -19.5t-43 -103.5v-51h197v-213h-197v-836h-332v836h-288v-836zM1749 0h-334v1049h334v-1049z
M1749 1194h-334v270h334v-270z" />
    <glyph glyph-name="f_f_l" unicode="ffl" horiz-adv-x="1837" 
d="M492 0h-334v836h-135v213h135v65q0 137 63 215q117 157 449 119v-236q-97 5 -137.5 -19.5t-40.5 -100.5v-43h288v75q0 137 62 211q118 160 467 123v-235q-111 5 -154 -19.5t-43 -103.5v-51h197v-213h-197v-836h-332v836h-288v-836zM1755 0h-338v1464h338v-1464z" />
    <glyph glyph-name=".notdef" 
 />
    <glyph glyph-name=".null" horiz-adv-x="0" 
 />
    <glyph glyph-name="nonmarkingreturn" horiz-adv-x="681" 
 />
    <glyph glyph-name="space" unicode=" " horiz-adv-x="317" 
 />
    <glyph glyph-name="exclam" unicode="!" horiz-adv-x="540" 
d="M356 479h-172l-86 639v346h344v-346zM444 0h-348v344h348v-344z" />
    <glyph glyph-name="quotedbl" unicode="&#x22;" horiz-adv-x="870" 
d="M373 913h-289v551h289v-551zM786 913h-288v551h288v-551z" />
    <glyph glyph-name="numbersign" unicode="#" horiz-adv-x="1228" 
d="M395 0h-213l58 354h-191l45 258h189l32 205h-190l45 258h188l56 330h213l-56 -330h211l56 330h213l-56 -330h193l-45 -258h-191l-32 -205h188l-43 -258h-188l-58 -354h-213l58 354h-211zM528 817l-32 -205h211l32 205h-211z" />
    <glyph glyph-name="dollar" unicode="$" horiz-adv-x="1275" 
d="M700 -211h-125v184q-257 17 -397.5 140.5t-144.5 339.5h340q21 -182 202 -209v331q-70 18 -161 46q-56 17 -133 55q-71 32 -115 76q-41 45 -67.5 114t-26.5 152q0 187 136 295t367 119v124h125v-126q223 -17 348.5 -128t135.5 -309h-322q-21 145 -162 172v-299
q257 -58 387 -155q127 -100 127 -295q0 -202 -143 -318q-145 -118 -371 -127v-182zM575 899v270q-79 -7 -123 -42t-44 -89t36 -83t131 -56zM700 539v-295q79 11 125.5 47.5t46.5 97.5q0 58 -38.5 90.5t-133.5 59.5z" />
    <glyph glyph-name="percent" unicode="%" horiz-adv-x="1777" 
d="M293 1022q0 -231 123 -231t123 231q0 238 -123 238t-123 -238zM686 725q-107 -113 -270 -113q-165 0 -269 113q-106 112 -106 297q0 187 106 299q104 113 269 113q168 0 271.5 -113.5t103.5 -298.5q0 -183 -105 -297zM606 0h-190l755 1405h193zM1241 377q0 -234 123 -234
t123 234q0 109 -31.5 172t-91.5 63q-123 0 -123 -235zM1362 -35q-162 0 -268 115q-107 113 -107 297t107 297q103 112 268 112q168 0 272.5 -112t104.5 -297t-105 -299q-107 -113 -272 -113z" />
    <glyph glyph-name="ampersand" unicode="&#x26;" horiz-adv-x="1427" 
d="M565 -25q-243 0 -381.5 118.5t-138.5 312.5q0 149 82 250.5t242 177.5q-113 134 -113 282q0 155 113 256t299 101q179 0 299 -97q114 -94 114 -256q0 -122 -67.5 -203.5t-202.5 -146.5l176 -221q39 92 55 184h289q-21 -220 -160 -418l252 -315h-407l-72 92
q-182 -117 -379 -117zM580 244q109 0 198 63l-248 322q-139 -83 -139 -215q0 -75 53.5 -122.5t135.5 -47.5zM668 942q116 67 116 176q0 48 -30.5 80.5t-77.5 32.5q-49 0 -80 -31.5t-31 -81.5q0 -84 103 -176z" />
    <glyph glyph-name="quotesingle" unicode="'" horiz-adv-x="456" 
d="M373 913h-289v551h289v-551z" />
    <glyph glyph-name="parenleft" unicode="(" horiz-adv-x="698" 
d="M664 -283h-281q-266 403 -266 887q0 269 71.5 516t192.5 424h283q-218 -422 -218 -940q0 -443 218 -887z" />
    <glyph glyph-name="parenright" unicode=")" horiz-adv-x="698" 
d="M315 -283h-280q217 444 217 934q0 475 -217 893h282q265 -398 265 -893q0 -263 -72 -506t-195 -428z" />
    <glyph glyph-name="asterisk" unicode="*" horiz-adv-x="903" 
d="M455 936l-152 -213l-151 111l151 200l-240 80l66 170l227 -80v260h193v-260l227 80l66 -170l-240 -80l152 -200l-148 -111z" />
    <glyph glyph-name="plus" unicode="+" horiz-adv-x="1159" 
d="M723 162h-287v379h-354v268h354v377h287v-377h354v-268h-354v-379z" />
    <glyph glyph-name="comma" unicode="," horiz-adv-x="481" 
d="M70 -367v142q74 20 116.5 79.5t42.5 145.5h-163v344h350v-317q0 -175 -94.5 -279t-251.5 -115z" />
    <glyph glyph-name="hyphen" unicode="-" horiz-adv-x="686" 
d="M623 371h-557v286h557v-286z" />
    <glyph glyph-name="period" unicode="." horiz-adv-x="481" 
d="M416 0h-350v344h350v-344z" />
    <glyph glyph-name="slash" unicode="/" horiz-adv-x="894" 
d="M311 0h-286l546 1464h287z" />
    <glyph glyph-name="zero" unicode="0" horiz-adv-x="1337" 
d="M670 238q264 0 264 462q0 221 -66 343t-198 122q-136 0 -201 -123q-66 -129 -66 -342q0 -214 66 -340q64 -122 201 -122zM668 -33q-276 0 -447 201q-172 199 -172 532q0 336 172 535q169 199 449 199q283 0 452 -199q168 -198 168 -535q0 -332 -170 -532
q-174 -201 -452 -201z" />
    <glyph glyph-name="one" unicode="1" horiz-adv-x="831" 
d="M700 0h-346v897h-301v233q151 5 250 78t123 207h274v-1415z" />
    <glyph glyph-name="two" unicode="2" horiz-adv-x="1189" 
d="M1135 0h-1090q1 157 62.5 270t185.5 217q70 60 203 156q136 98 198 154q92 83 92 174q0 85 -47.5 133.5t-134.5 48.5q-100 0 -151 -63q-61 -70 -64 -207h-323q0 222 96 356q132 193 450 193q244 0 383 -127q138 -126 138 -322q0 -126 -57.5 -218t-176.5 -185
q-57 -41 -176 -129q-138 -100 -199 -164v-2h611v-285z" />
    <glyph glyph-name="three" unicode="3" horiz-adv-x="1226" 
d="M627 -33q-293 0 -443 135q-155 137 -155 383h325q15 -254 258 -254q104 0 161.5 52t57.5 143q0 184 -239 184h-84v240h76q101 0 159 43.5t58 120.5q0 74 -49.5 117t-135.5 43q-103 0 -160 -58t-63 -158h-321q5 217 150.5 345.5t398.5 128.5q237 0 378.5 -106.5
t141.5 -289.5q0 -197 -213 -280v-4q254 -76 254 -344q0 -213 -158 -328q-158 -113 -397 -113z" />
    <glyph glyph-name="four" unicode="4" horiz-adv-x="1269" 
d="M1032 0h-336v311h-653v318l649 788h340v-844h203v-262h-203v-311zM303 578v-5h393v482h-4z" />
    <glyph glyph-name="five" unicode="5" horiz-adv-x="1234" 
d="M621 -33q-251 0 -410.5 118t-183.5 335h338q17 -85 83 -131.5t164 -46.5q103 0 165.5 66t62.5 173q0 105 -63.5 168.5t-166.5 63.5q-132 0 -200 -86h-324l143 776h871v-277h-623l-49 -249h4q93 84 273 84q208 0 346 -132q137 -131 137 -350q0 -232 -156 -370
q-157 -142 -411 -142z" />
    <glyph glyph-name="six" unicode="6" horiz-adv-x="1265" 
d="M668 -33q-301 0 -457 199q-157 201 -160 524q-3 367 170 561q156 181 445 181q213 0 349 -100t169 -275h-330q-40 129 -184 129q-127 0 -198 -92t-79 -263h4q128 134 322 134q206 0 358 -140q148 -139 148 -358q0 -223 -156 -361q-157 -139 -401 -139zM481 293
q68 -68 174 -68t174 68t68 172q0 105 -69 175.5t-173 70.5q-110 0 -176.5 -68.5t-66.5 -177.5q0 -106 69 -172z" />
    <glyph glyph-name="seven" unicode="7" horiz-adv-x="1116" 
d="M590 0h-361q6 178 52 352.5t122 319.5q133 253 308 434v4h-676v293h1038v-266q-203 -206 -336 -500q-138 -299 -147 -637z" />
    <glyph glyph-name="eight" unicode="8" horiz-adv-x="1247" 
d="M627 -33q-264 0 -426 119q-162 116 -162 315q0 118 64 209.5t180 141.5v6q-187 88 -187 282q0 177 144 285q143 107 385 107q244 0 385 -103t141 -282q0 -182 -184 -281v-6q116 -44 179.5 -136t63.5 -214q0 -202 -159 -322q-165 -121 -424 -121zM625 223q109 0 175 55
t66 146q0 94 -64.5 151.5t-174.5 57.5q-109 0 -177.5 -58t-68.5 -151q0 -92 66.5 -146.5t177.5 -54.5zM471 901q55 -49 152 -49q95 0 153 49q56 47 56 123t-56 123q-59 47 -153 47q-96 0 -152 -47q-55 -47 -55 -123t55 -123z" />
    <glyph glyph-name="nine" unicode="9" horiz-adv-x="1263" 
d="M618 -33q-220 0 -360.5 102.5t-171.5 278.5h328q41 -133 196 -133q121 0 183 80q73 88 79 278h-4q-125 -137 -313 -137q-219 0 -365 137q-147 138 -147 359q0 223 160 362q156 138 405 138q267 0 422 -158q184 -178 184 -563q0 -353 -145 -545q-153 -199 -451 -199z
M616 690q109 0 179.5 68t70.5 174q0 107 -69 176q-71 68 -181 68q-108 0 -176 -68q-69 -69 -69 -174q0 -107 67 -175.5t178 -68.5z" />
    <glyph glyph-name="colon" unicode=":" horiz-adv-x="493" 
d="M422 0h-350v344h350v-344zM422 635h-350v344h350v-344z" />
    <glyph glyph-name="semicolon" unicode=";" horiz-adv-x="493" 
d="M76 -367v142q74 20 117 80t43 145h-164v344h350v-317q0 -175 -94.5 -279t-251.5 -115zM422 635h-350v344h350v-344z" />
    <glyph glyph-name="less" unicode="&#x3c;" horiz-adv-x="1028" 
d="M932 432v-305l-844 354v303l844 355v-293l-375 -146l-195 -69v-4q135 -39 195 -60z" />
    <glyph glyph-name="equal" unicode="=" horiz-adv-x="1153" 
d="M1063 287h-959v260h959v-260zM1063 721h-959v260h959v-260z" />
    <glyph glyph-name="greater" unicode="&#x3e;" horiz-adv-x="1028" 
d="M940 481l-844 -354v295l375 145l195 68v4q-120 34 -195 61l-375 136v303l844 -355v-303z" />
    <glyph glyph-name="question" unicode="?" horiz-adv-x="1132" 
d="M686 479h-295q0 144 31 211q26 62 110 131q30 26 89 66q67 45 92 80q26 36 26 94q0 68 -49 110.5t-125 42.5q-95 0 -151 -56t-56 -154h-329q3 221 151 354t400 133q228 0 370 -115q140 -119 140 -303q0 -84 -30.5 -154.5t-70.5 -107.5q-31 -31 -92 -70q-22 -14 -65 -40.5
t-56 -36.5q-24 -16 -51 -46q-39 -48 -39 -139zM709 0h-351v344h351v-344z" />
    <glyph glyph-name="at" unicode="@" horiz-adv-x="1861" 
d="M915 -223q-368 0 -606 221q-237 220 -237 582q0 202 74.5 373t203.5 282q126 109 286 168t333 59q167 4 317.5 -48.5t265 -149.5t182 -245t66.5 -325q0 -249 -113.5 -391.5t-302.5 -142.5q-237 0 -301 166h-4q-95 -160 -272 -160q-155 0 -245.5 108t-90.5 293
q0 218 109 357q107 137 290 137q166 0 228 -148h4l14 125h281l-66 -555q-18 -147 80 -147q81 0 136 90.5t55 263.5q0 288 -169.5 442t-465.5 154q-294 0 -490 -190q-198 -189 -198 -514q0 -282 167 -455q170 -176 472 -176q184 0 364 76l66 -162q-186 -88 -433 -88zM895 387
q81 0 130.5 74.5t49.5 193.5q0 84 -35.5 136.5t-97.5 52.5q-78 0 -126 -76t-48 -193q0 -87 32.5 -137.5t94.5 -50.5z" />
    <glyph glyph-name="A" unicode="A" horiz-adv-x="1427" 
d="M362 0h-364l526 1464h373l528 -1464h-381l-86 264h-512zM643 879l-113 -355h344l-110 355l-57 206h-5q-28 -107 -59 -206z" />
    <glyph glyph-name="B" unicode="B" horiz-adv-x="1374" 
d="M823 0h-723v1464h707q221 0 342 -100q127 -106 127 -281q0 -210 -205 -286v-6q121 -37 191.5 -133.5t70.5 -225.5q0 -215 -149 -328q-131 -104 -361 -104zM459 639v-348h323q88 0 140.5 47t52.5 125q0 83 -54.5 129.5t-142.5 46.5h-319zM459 1178v-293h295q80 0 128 39.5
t48 107.5q0 67 -47 106.5t-127 39.5h-297z" />
    <glyph glyph-name="C" unicode="C" horiz-adv-x="1437" 
d="M764 -33q-320 0 -520 215q-203 212 -203 545q0 332 199 549t522 217q248 0 418 -129q192 -145 219 -403h-363q-14 102 -88.5 166.5t-187.5 64.5q-168 0 -259 -125.5t-91 -339.5q0 -203 96 -334q94 -129 256 -129q118 0 195.5 67t89.5 177h362q-15 -220 -176 -375
q-172 -166 -469 -166z" />
    <glyph glyph-name="D" unicode="D" horiz-adv-x="1443" 
d="M463 1161v-856h213q176 0 268 107.5t92 310.5t-94.5 320.5t-261.5 117.5h-217zM702 0h-602v1464h625q305 0 492 -202q186 -201 186 -539q0 -397 -254 -590q-180 -133 -447 -133z" />
    <glyph glyph-name="E" unicode="E" horiz-adv-x="1286" 
d="M1223 0h-1123v1464h1110v-299h-747v-262h641v-282h-641v-314h760v-307z" />
    <glyph glyph-name="F" unicode="F" horiz-adv-x="1232" 
d="M463 0h-363v1464h1090v-305h-727v-297h608v-293h-608v-569z" />
    <glyph glyph-name="G" unicode="G" horiz-adv-x="1509" 
d="M739 -33q-312 0 -499 205q-197 215 -197 555q0 354 217 571q192 195 502 195q273 0 442.5 -135t206.5 -373h-352q-21 94 -96.5 151.5t-188.5 57.5q-173 0 -267.5 -126.5t-94.5 -340.5q0 -207 100 -336q101 -131 268 -131q131 0 218.5 74t99.5 182v4h-275v266h611v-786
h-254l-21 176h-4q-135 -209 -416 -209z" />
    <glyph glyph-name="H" unicode="H" horiz-adv-x="1439" 
d="M463 0h-363v1464h363v-555h514v555h362v-1464h-362v610h-514v-610z" />
    <glyph glyph-name="I" unicode="I" horiz-adv-x="565" 
d="M465 0h-363v1464h363v-1464z" />
    <glyph glyph-name="J" unicode="J" horiz-adv-x="1116" 
d="M539 -27q-248 0 -380 124t-132 343v129h329v-120q0 -177 160 -177q152 0 152 172v1020h362v-1028q0 -201 -104 -317q-134 -146 -387 -146z" />
    <glyph glyph-name="K" unicode="K" horiz-adv-x="1427" 
d="M463 0h-363v1464h363v-530l504 530h430l-561 -587l594 -877h-422l-422 633l-123 -129v-504z" />
    <glyph glyph-name="L" unicode="L" horiz-adv-x="1157" 
d="M1120 0h-1020v1464h363v-1157h657v-307z" />
    <glyph glyph-name="M" unicode="M" horiz-adv-x="1708" 
d="M426 0h-326v1464h488l178 -641l84 -334h4q63 260 82 334l180 641h492v-1464h-332v737l6 293h-4q-53 -219 -68 -272l-211 -758h-299l-208 756l-68 274h-4q6 -237 6 -295v-735z" />
    <glyph glyph-name="N" unicode="N" horiz-adv-x="1454" 
d="M455 0h-355v1464h365l434 -735l100 -186h5q-1 49 -2 100t-2 81.5t-1 45.5v694h355v-1464h-365l-430 725l-104 197h-4q1 -49 2 -106t1.5 -88t0.5 -46v-682z" />
    <glyph glyph-name="O" unicode="O" horiz-adv-x="1529" 
d="M766 260q168 0 261 127.5t93 341.5t-93 342.5t-261 128.5q-167 0 -261.5 -129t-94.5 -342q0 -207 94 -338q91 -131 262 -131zM1290 180q-200 -215 -526 -215q-327 0 -524 215q-199 214 -199 549t199 549q197 215 524 215q326 0 526 -215q199 -214 199 -549t-199 -549z
" />
    <glyph glyph-name="P" unicode="P" horiz-adv-x="1335" 
d="M469 0h-369v1464h660q258 0 399 -135q148 -139 148 -360q0 -213 -136 -346q-140 -134 -360 -134h-342v-489zM469 1159v-383h268q96 0 150.5 53t54.5 142q0 88 -54.5 138t-150.5 50h-268z" />
    <glyph glyph-name="Q" unicode="Q" horiz-adv-x="1525" 
d="M764 260q70 0 131 25l-133 129l168 174l135 -129q51 108 51 270q0 214 -92 342.5t-260 128.5q-167 0 -260.5 -129t-93.5 -342t93.5 -341t260.5 -128zM1483 59l-168 -178l-185 176q-164 -92 -368 -92q-327 0 -524 215t-197 549t197 549t524 215q326 0 526 -215
q197 -215 197 -549q0 -310 -168 -514z" />
    <glyph glyph-name="R" unicode="R" horiz-adv-x="1374" 
d="M463 0h-363v1464h701q225 0 368 -110q144 -114 144 -312q0 -266 -254 -354v-6q186 -62 213 -268q12 -70 18 -176q3 -98 13 -158q9 -53 30 -62v-18h-352q-29 18 -41 199q-7 98 -14 141q-27 209 -244 209h-219v-549zM463 1178v-361h272q105 0 161 46.5t56 131.5
q0 84 -54 133.5t-155 49.5h-280z" />
    <glyph glyph-name="S" unicode="S" horiz-adv-x="1331" 
d="M684 -35q-299 0 -473 129.5t-180 366.5h364q21 -209 287 -209q104 0 170 39.5t66 114.5q0 49 -40 86t-90 53q-54 18 -167 45q-15 6 -23 6q-162 40 -223 64q-32 13 -68 30q-77 34 -123 78q-47 46 -77.5 117.5t-30.5 154.5q0 225 162 338q158 113 419 113q250 0 410 -115
q159 -116 168 -336h-354q-11 85 -72 131t-164 46q-94 0 -152.5 -38.5t-58.5 -99.5q0 -70 70 -100q65 -32 262 -76q129 -31 204.5 -58.5t153.5 -76.5q160 -103 160 -326q0 -225 -168 -350q-171 -127 -432 -127z" />
    <glyph glyph-name="T" unicode="T" horiz-adv-x="1288" 
d="M823 0h-362v1157h-426v307h1218v-307h-430v-1157z" />
    <glyph glyph-name="U" unicode="U" horiz-adv-x="1404" 
d="M705 -27q-300 0 -457.5 141t-157.5 402v948h363v-960q0 -240 252 -240q119 0 183 65.5t64 180.5v954h363v-948q0 -260 -156 -401.5t-454 -141.5z" />
    <glyph glyph-name="V" unicode="V" horiz-adv-x="1333" 
d="M854 0h-375l-483 1464h377l229 -768l68 -258h4q42 168 67 258l228 768h366z" />
    <glyph glyph-name="W" unicode="W" horiz-adv-x="1925" 
d="M758 0h-357l-401 1464h367l147 -614l68 -363h4q70 344 71 349l138 628h335l138 -624l69 -353h4q46 249 74 367l146 610h364l-401 -1464h-355l-153 702l-51 273h-4q-18 -117 -50 -273z" />
    <glyph glyph-name="X" unicode="X" horiz-adv-x="1415" 
d="M418 0h-412l486 768l-445 696h414l248 -426h4l252 426h393l-434 -692l485 -772h-428l-274 496h-5z" />
    <glyph glyph-name="Y" unicode="Y" horiz-adv-x="1357" 
d="M860 0h-362v541l-496 923h395l189 -379l96 -223h4q60 141 100 223l187 379h383l-496 -923v-541z" />
    <glyph glyph-name="Z" unicode="Z" horiz-adv-x="1327" 
d="M1272 0h-1219v289l633 758l98 108v6q-28 -1 -60.5 -2t-50.5 -1.5t-28 -0.5h-541v307h1141v-284l-614 -738l-119 -131v-6q156 4 162 4h598v-309z" />
    <glyph glyph-name="bracketleft" unicode="[" horiz-adv-x="815" 
d="M748 -283h-629v1827h629v-256h-314v-1315h314v-256z" />
    <glyph glyph-name="backslash" unicode="\" horiz-adv-x="894" 
d="M858 0h-287l-546 1464h286z" />
    <glyph glyph-name="bracketright" unicode="]" horiz-adv-x="815" 
d="M698 -283h-628v256h313v1315h-313v256h628v-1827z" />
    <glyph glyph-name="asciicircum" unicode="^" horiz-adv-x="954" 
d="M301 870h-289l342 594h246l342 -594h-297l-168 308h-2z" />
    <glyph glyph-name="underscore" unicode="_" horiz-adv-x="880" 
d="M887 -346h-893v207h893v-207z" />
    <glyph glyph-name="grave" unicode="`" 
d="M674 1171h-254l-248 304h385z" />
    <glyph glyph-name="a" unicode="a" horiz-adv-x="1107" 
d="M389 -27q-163 0 -260.5 85t-97.5 235q0 153 100.5 228.5t300.5 101.5q156 19 211 42.5t55 73.5q0 113 -143 113q-155 0 -170 -135h-307q6 160 131 260t344 100q225 0 340 -86q133 -95 133 -299v-528q0 -126 37 -150v-14h-324q-18 23 -34 117h-5q-102 -144 -311 -144z
M496 186q94 0 152.5 52t58.5 137v125q-58 -28 -172 -56q-101 -24 -142 -54.5t-41 -86.5q0 -117 144 -117z" />
    <glyph glyph-name="b" unicode="b" horiz-adv-x="1200" 
d="M721 -33q-216 0 -318 166h-4v-133h-319v1464h334v-534h6q107 149 299 149q198 0 325 -157q123 -156 123 -398q0 -258 -120.5 -407.5t-325.5 -149.5zM627 231q96 0 149 77.5t53 217.5q0 139 -54 219t-152 80q-104 0 -162 -82t-58 -219q0 -131 61 -212t163 -81z" />
    <glyph glyph-name="c" unicode="c" horiz-adv-x="1114" 
d="M590 -33q-249 0 -404 158q-153 156 -153 397t151 398t398 157q207 0 340 -109.5t157 -291.5h-321q-34 155 -172 155q-105 0 -160 -80.5t-55 -228.5q0 -144 56 -224.5t159 -80.5q161 0 182 180h319q-6 -187 -141 -307q-138 -123 -356 -123z" />
    <glyph glyph-name="d" unicode="d" horiz-adv-x="1204" 
d="M492 -33q-206 0 -332 150q-127 151 -127 407q0 246 129 402q126 153 330 153q188 0 292 -149h7v534h333v-1464h-319v141h-4q-101 -174 -309 -174zM578 231q102 0 161.5 80.5t59.5 212.5q0 139 -56.5 221t-160.5 82q-98 0 -154.5 -81.5t-56.5 -217.5q0 -137 55.5 -217
t151.5 -80z" />
    <glyph glyph-name="e" unicode="e" horiz-adv-x="1146" 
d="M592 -31q-254 0 -406 158q-153 156 -153 399q0 239 151 396t387 157q216 0 359 -131q187 -172 184 -510h-754q17 -110 77 -169.5t159 -59.5q128 0 174 104h326q-38 -153 -176 -247q-142 -97 -328 -97zM362 637h414q-7 93 -61.5 149t-136.5 56q-179 0 -216 -205z" />
    <glyph glyph-name="f" unicode="f" horiz-adv-x="714" 
d="M492 0h-334v836h-135v213h135v75q0 158 86 244q127 124 444 90v-235q-110 5 -153 -19.5t-43 -103.5v-51h196v-213h-196v-836z" />
    <glyph glyph-name="g" unicode="g" horiz-adv-x="1171" 
d="M567 -362q-221 0 -354 87t-158 250h324q35 -102 184 -102q201 0 201 201v104h-8q-109 -121 -269 -121q-188 0 -321 133t-133 365t123 379q124 145 317 145q194 0 295 -143h4v113h320v-947q0 -220 -140 -348q-131 -116 -385 -116zM565 305q102 0 157.5 71t55.5 191
q0 113 -57.5 186.5t-155.5 73.5q-94 0 -150.5 -71.5t-56.5 -190.5q0 -118 56.5 -189t150.5 -71z" />
    <glyph glyph-name="h" unicode="h" horiz-adv-x="1167" 
d="M414 0h-334v1464h334v-544h6q120 159 311 159q169 0 267 -108.5t98 -288.5v-682h-334v614q0 87 -42.5 137t-121.5 50q-82 0 -133 -61.5t-51 -159.5v-580z" />
    <glyph glyph-name="i" unicode="i" horiz-adv-x="493" 
d="M414 0h-334v1049h334v-1049zM414 1194h-334v270h334v-270z" />
    <glyph glyph-name="j" unicode="j" horiz-adv-x="493" 
d="M92 -352q-100 0 -188 16v232q60 0 81.5 2t49.5 12q27 10 36 32t9 66v1041h334v-1057q0 -179 -80 -262q-82 -82 -242 -82zM414 1194h-334v270h334v-270z" />
    <glyph glyph-name="k" unicode="k" horiz-adv-x="1146" 
d="M410 0h-330v1464h330v-770l311 355h385l-369 -394l412 -655h-387l-252 428l-100 -106v-322z" />
    <glyph glyph-name="l" unicode="l" horiz-adv-x="501" 
d="M420 0h-338v1464h338v-1464z" />
    <glyph glyph-name="m" unicode="m" horiz-adv-x="1779" 
d="M414 0h-334v1049h319v-150h7q107 180 317 180q207 0 295 -184h4q120 184 330 184q171 0 263.5 -105.5t92.5 -291.5v-682h-334v623q0 178 -147 178q-77 0 -121.5 -57.5t-44.5 -155.5v-588h-334v623q0 178 -147 178q-77 0 -121.5 -57.5t-44.5 -155.5v-588z" />
    <glyph glyph-name="n" unicode="n" horiz-adv-x="1167" 
d="M414 0h-334v1049h321v-144h7q119 174 323 174q169 0 267 -108.5t98 -288.5v-682h-334v614q0 87 -42.5 137t-121.5 50q-82 0 -133 -61.5t-51 -159.5v-580z" />
    <glyph glyph-name="o" unicode="o" horiz-adv-x="1185" 
d="M428 291q59 -86 164 -86q107 0 166 86q57 83 57 231t-57 234q-59 86 -166 86q-105 0 -164 -86q-57 -83 -57 -234q0 -148 57 -231zM999 125q-158 -158 -405 -158q-248 0 -406 158q-155 155 -155 397q0 243 155 398q157 157 406 157q248 0 405 -157q154 -157 154 -398
q0 -240 -154 -397z" />
    <glyph glyph-name="p" unicode="p" horiz-adv-x="1204" 
d="M414 -346h-334v1395h319v-127h7q121 157 317 157q206 0 328 -155q120 -156 120 -400q0 -257 -124 -405q-128 -152 -332 -152q-191 0 -297 142h-4v-455zM629 225q96 0 150.5 76.5t54.5 210.5q0 142 -54 220.5t-157 78.5t-161.5 -82t-58.5 -217q0 -130 60.5 -208.5
t165.5 -78.5z" />
    <glyph glyph-name="q" unicode="q" horiz-adv-x="1204" 
d="M1124 -346h-331v457h-7q-99 -144 -290 -144q-201 0 -328 154q-127 151 -127 403q0 244 123 400q122 155 338 155q194 0 299 -164h6v134h317v-1395zM586 231q99 0 158 78t59 207q0 136 -57.5 218.5t-159.5 82.5t-154.5 -79t-52.5 -222q0 -135 54.5 -210t152.5 -75z" />
    <glyph glyph-name="r" unicode="r" horiz-adv-x="784" 
d="M414 0h-334v1049h319v-164h7q107 180 286 180q50 0 66 -8v-287h-8q-157 23 -246.5 -55t-89.5 -244v-471z" />
    <glyph glyph-name="s" unicode="s" horiz-adv-x="1032" 
d="M526 -33q-229 0 -366 100t-144 273h316q18 -156 192 -156q76 0 120 28t44 77q0 37 -25 59t-71 37q-2 1 -80 18q-45 10 -90 15q-73 12 -115.5 23t-93.5 34q-55 24 -88 57q-80 73 -80 211q0 159 129 248q128 88 324 88q218 0 339.5 -88t133.5 -248h-307q-15 123 -168 123
q-67 0 -106.5 -25t-39.5 -71q0 -15 6 -27.5t21.5 -22t29 -16t41.5 -13t45 -10t54 -10t55 -9.5q78 -14 121 -24.5t100 -33.5q67 -31 95 -59q38 -36 62 -96t24 -134q0 -164 -130 -256t-348 -92z" />
    <glyph glyph-name="t" unicode="t" horiz-adv-x="718" 
d="M496 -12q-166 0 -250 67t-84 221v564h-139v209h139v331h325v-331h191v-209h-191v-492q0 -55 29 -78.5t88 -23.5q14 0 43.5 1t30.5 1v-244q-62 -16 -182 -16z" />
    <glyph glyph-name="u" unicode="u" horiz-adv-x="1159" 
d="M440 -31q-176 0 -272 104.5t-96 286.5v689h331v-619q0 -178 158 -178q85 0 134.5 58t49.5 153v586h334v-1049h-319v129h-6q-121 -160 -314 -160z" />
    <glyph glyph-name="v" unicode="v" horiz-adv-x="1073" 
d="M717 0h-361l-362 1049h344l143 -474l58 -210h4q21 84 57 210l145 474h334z" />
    <glyph glyph-name="w" unicode="w" horiz-adv-x="1603" 
d="M627 0h-310l-321 1049h340l115 -435l47 -202h4q14 70 47 209l110 428h283l115 -428l49 -211h4q22 99 49 204l117 435h330l-322 -1049h-313l-123 475l-45 189h-4q-8 -34 -47 -189z" />
    <glyph glyph-name="x" unicode="x" horiz-adv-x="1146" 
d="M379 0h-365l365 551l-330 498h381l156 -271h4l147 271h350l-311 -494l357 -555h-388l-172 313h-4z" />
    <glyph glyph-name="y" unicode="y" horiz-adv-x="1083" 
d="M332 -346h-217v260h114q138 0 138 111q0 55 -64 217l-309 807h352l141 -447l66 -242h4q29 146 61 242l138 447h334l-363 -1063q-65 -186 -149 -258q-89 -74 -246 -74z" />
    <glyph glyph-name="z" unicode="z" horiz-adv-x="1034" 
d="M989 0h-940v248l416 448l90 92v7q-63 -2 -129 -2h-328v256h860v-246l-397 -432l-106 -109v-6q72 2 155 2h379v-258z" />
    <glyph glyph-name="braceleft" unicode="{" horiz-adv-x="815" 
d="M748 -283h-52q-247 0 -360 84q-113 85 -113 314v241q0 79 -40 116t-132 38v246q93 4 132.5 40.5t39.5 112.5v242q0 227 111 309q113 84 362 84h52v-256h-37q-97 0 -134.5 -27.5t-37.5 -109.5v-293q0 -94 -30.5 -142.5t-102.5 -78.5v-6q71 -27 102 -76t31 -143v-299
q0 -80 38 -110t134 -30h37v-256z" />
    <glyph glyph-name="bar" unicode="|" horiz-adv-x="438" 
d="M322 -283h-203v1827h203v-1827z" />
    <glyph glyph-name="braceright" unicode="}" horiz-adv-x="815" 
d="M121 -283h-51v256h36q97 0 135 28t38 110v299q0 96 30 144t103 75v6q-73 30 -103 78t-30 143v293q0 80 -39 109.5t-134 29.5h-36v256h51q246 0 362 -84q111 -86 111 -311v-240q0 -76 39.5 -112.5t130.5 -40.5v-246q-91 -4 -130.5 -41t-39.5 -113v-243q0 -227 -111 -312
q-116 -84 -362 -84z" />
    <glyph glyph-name="asciitilde" unicode="~" horiz-adv-x="907" 
d="M258 489h-209q0 174 70 266.5t186 92.5q71 0 164 -43q85 -43 121 -43q68 0 74 86h208q0 -167 -61.5 -257.5t-179.5 -90.5q-77 0 -168 39q-90 43 -129 43q-67 0 -76 -93z" />
    <glyph glyph-name="uni00A0" unicode="&#xa0;" horiz-adv-x="317" 
 />
    <glyph glyph-name="exclamdown" unicode="&#xa1;" horiz-adv-x="540" 
d="M442 -260h-344v348l86 639h172l86 -639v-348zM444 860h-348v344h348v-344z" />
    <glyph glyph-name="cent" unicode="&#xa2;" horiz-adv-x="1114" 
d="M639 -219h-125v190q-216 21 -350 176q-131 149 -131 375q0 225 131 377q132 153 350 174v144h125v-142q181 -19 295 -125.5t137 -273.5h-311q-27 117 -121 147v-602q113 34 131 176h309q-9 -173 -127 -291q-122 -122 -313 -137v-188zM514 223v600q-154 -50 -154 -301
q0 -249 154 -299z" />
    <glyph glyph-name="sterling" unicode="&#xa3;" horiz-adv-x="1210" 
d="M860 -31q-112 0 -231 51q-127 50 -199 50q-92 0 -217 -90l-166 251q195 127 195 279q0 25 -11 82h-174v190h82q-57 102 -57 213q0 194 143 316q142 121 400 121q241 0 383 -115q160 -130 166 -397h-332q-3 241 -211 241q-89 0 -138 -47.5t-49 -128.5q0 -68 66 -203h276
v-190h-215q2 -6 2 -33q0 -144 -153 -252l4 -6q79 31 147 31q76 0 156 -25q74 -26 127 -26q101 0 188 81l142 -268q-143 -125 -324 -125z" />
    <glyph glyph-name="currency" unicode="&#xa4;" horiz-adv-x="1048" 
d="M336 338l-135 -137l-172 168l131 131q-51 92 -51 215q0 121 51 213l-131 135l172 168l133 -139q87 41 190 41q102 0 189 -41l135 139l172 -168l-135 -135q53 -95 53 -213q0 -121 -51 -213l133 -133l-172 -168l-135 137q-85 -39 -189 -39q-111 0 -188 39zM524 487
q84 0 130 61t46 167t-46 167.5t-130 61.5q-85 0 -133.5 -62t-48.5 -167t48 -166.5t134 -61.5z" />
    <glyph glyph-name="yen" unicode="&#xa5;" horiz-adv-x="1323" 
d="M825 0h-333v262h-347v131h347v117h-347v133h293l-436 762h383l186 -358l88 -197h5q61 142 90 197l184 358h375l-439 -762h295v-133h-344v-117h344v-131h-344v-262z" />
    <glyph glyph-name="brokenbar" unicode="&#xa6;" horiz-adv-x="438" 
d="M322 -283h-203v785h203v-785zM322 786h-203v758h203v-758z" />
    <glyph glyph-name="section" unicode="&#xa7;" horiz-adv-x="1280" 
d="M670 -371q-233 0 -368.5 114t-141.5 312h305q1 -82 51.5 -127t138.5 -45q68 0 110 33.5t42 85.5q0 40 -26 66t-87 53q-25 10 -65 25.5t-72 27.5q-39 13 -92 33q-220 85 -313 172.5t-93 228.5q0 106 63 181.5t179 107.5q-100 81 -100 223q0 154 125 248t321 94
q211 0 336.5 -103t132.5 -288h-289q-15 148 -165 148q-67 0 -103.5 -27.5t-36.5 -73.5q0 -32 20.5 -53.5t69.5 -46.5q17 -11 88 -39q11 -4 56.5 -21.5t64.5 -25.5q76 -31 156 -68q44 -21 125 -76q127 -91 127 -243q0 -217 -228 -285q132 -94 132 -258q0 -175 -125.5 -274
t-337.5 -99zM625 471l184 -82q106 27 106 105q0 28 -15 48t-58 44q-70 36 -72 37q-25 8 -108 43q-139 57 -203 86q-97 -25 -97 -103q0 -47 50 -74q49 -32 213 -104z" />
    <glyph glyph-name="dieresis" unicode="&#xa8;" 
d="M438 1182h-313v262h313v-262zM899 1182h-313v262h313v-262z" />
    <glyph glyph-name="copyright" unicode="&#xa9;" horiz-adv-x="1673" 
d="M844 276q-197 0 -318 130q-123 129 -123 329t123 332q123 129 320 129q146 0 258 -80q120 -88 135 -252h-246q-11 53 -50 86t-99 33q-86 0 -134 -67.5t-48 -180.5q0 -110 51 -179t135 -69q65 0 106 36.5t47 94.5h248q-12 -147 -112 -239q-106 -103 -293 -103zM838 72
q266 0 448 188q180 186 180 467q0 285 -180 471t-448 186q-271 0 -451 -186t-180 -471q0 -281 180 -467q182 -188 451 -188zM838 -35q-318 0 -537 219t-219 543q0 326 219 545t537 219q319 0 536 -217t217 -547q0 -326 -217 -543q-219 -219 -536 -219z" />
    <glyph glyph-name="ordfeminine" unicode="&#xaa;" horiz-adv-x="1044" 
d="M373 463q-144 0 -233 74.5t-89 205.5q0 135 88.5 199.5t270.5 89.5q142 19 188.5 39t46.5 64q0 96 -123 96q-137 0 -149 -117h-281q6 141 118.5 229.5t307.5 88.5q204 0 305 -76q121 -83 121 -262v-465q0 -111 33 -131v-15h-295q-22 40 -31 103h-4q-85 -123 -274 -123z
M465 651q83 0 135.5 44.5t52.5 117.5v111q-49 -25 -153 -50q-89 -19 -123.5 -45t-34.5 -75q0 -103 123 -103z" />
    <glyph glyph-name="guillemotleft" unicode="&#xab;" horiz-adv-x="901" 
d="M406 373v-287l-316 270v320l316 268v-291l-166 -139v-4zM797 373v-287l-310 270v320l310 268v-291l-162 -139v-4z" />
    <glyph glyph-name="logicalnot" unicode="&#xac;" horiz-adv-x="1073" 
d="M961 274h-285v338h-594v269h879v-607z" />
    <glyph glyph-name="uni00AD" unicode="&#xad;" horiz-adv-x="686" 
d="M623 371h-557v286h557v-286z" />
    <glyph glyph-name="registered" unicode="&#xae;" horiz-adv-x="1087" 
d="M483 737h-155v525h258q87 0 142.5 -42t55.5 -114q0 -95 -88 -125v-4q61 -19 76 -90q2 -16 5.5 -56t7.5 -60.5t12 -20.5v-13h-152q-2 0 -4.5 4t-4.5 12.5t-3.5 17.5t-3 22.5t-2.5 23t-2 23t-2 18.5q-9 64 -76 64h-64v-185zM483 1141v-111h78q70 0 70 55q0 56 -70 56h-78z
M262 698q112 -118 283 -118q170 0 282 118q113 116 113 297q0 178 -113 297q-114 117 -282 117q-169 0 -283 -117q-115 -121 -115 -297q0 -179 115 -297zM893 641q-141 -141 -348 -141t-348 141q-144 141 -144 354q0 214 144 355q141 141 348 141t348 -141t141 -355
q0 -213 -141 -354z" />
    <glyph glyph-name="overscore" unicode="&#xaf;" 
d="M811 1202h-586v207h586v-207z" />
    <glyph glyph-name="degree" unicode="&#xb0;" horiz-adv-x="768" 
d="M285 1022q37 -43 100.5 -43t101.5 43q37 40 37 102q0 63 -39.5 106.5t-99.5 43.5q-46 3 -81 -25t-48.5 -68t-7 -85t36.5 -74zM610 907q-94 -88 -225 -88t-225 88t-94 217q0 131 94 219q97 91 225 91t225 -91q95 -89 95 -219q0 -128 -95 -217z" />
    <glyph glyph-name="plusminus" unicode="&#xb1;" horiz-adv-x="1159" 
d="M719 344h-279v289h-358v266h358v287h279v-287h358v-266h-358v-289zM1077 0h-995v254h995v-254z" />
    <glyph glyph-name="twosuperior" unicode="&#xb2;" horiz-adv-x="815" 
d="M743 590h-688q3 183 152 299q51 42 133 94q84 53 106 70q56 47 56 96q0 86 -92 86q-54 0 -85.5 -37t-31.5 -104h-225q0 154 94 239.5t256 85.5q148 0 235.5 -74.5t87.5 -187.5q0 -137 -108 -219q-34 -29 -129 -82q-92 -55 -113 -78v-2h352v-186z" />
    <glyph glyph-name="threesuperior" unicode="&#xb3;" horiz-adv-x="823" 
d="M418 571q-176 0 -272.5 79t-98.5 216h232q6 -123 127 -123q108 0 108 97q0 92 -127 92h-49v155h41q119 0 119 84q0 80 -92 80q-100 0 -109 -102h-225q5 120 97 195t245 75q144 0 233.5 -63t89.5 -170q0 -106 -119 -158v-2q144 -52 144 -199q0 -124 -93.5 -190t-250.5 -66
z" />
    <glyph glyph-name="acute" unicode="&#xb4;" 
d="M604 1171h-254l117 304h385z" />
    <glyph glyph-name="mu" unicode="&#xb5;" horiz-adv-x="1167" 
d="M408 -346h-328v1395h332v-621q0 -178 157 -178q86 0 135.5 57t49.5 154v588h333v-1049h-319v129h-6q-94 -156 -248 -156q-57 0 -102 31h-4v-350z" />
    <glyph glyph-name="paragraph" unicode="&#xb6;" horiz-adv-x="1234" 
d="M782 0h-213v686h-127q-176 0 -281.5 106t-105.5 277q0 182 117 293q114 102 311 102h641v-1464h-211v1268h-131v-1268z" />
    <glyph glyph-name="middot" unicode="&#xb7;" horiz-adv-x="481" 
d="M416 479h-350v344h350v-344z" />
    <glyph glyph-name="cedilla" unicode="&#xb8;" 
d="M465 -395q-129 0 -229 59l40 72q67 -31 142 -31q110 0 110 59q0 56 -77 56q-31 0 -72 -15l-35 50l145 145h129l-114 -96v-4q94 11 155.5 -26.5t61.5 -111.5q0 -71 -71 -114t-185 -43z" />
    <glyph glyph-name="onesuperior" unicode="&#xb9;" horiz-adv-x="571" 
d="M485 590h-247v479h-187v166q203 9 238 176h196v-821z" />
    <glyph glyph-name="ordmasculine" unicode="&#xba;" horiz-adv-x="1067" 
d="M393 743q46 -75 139 -75t142 75q49 73 49 201q0 127 -50 202t-141 75q-89 0 -138.5 -75t-49.5 -202q0 -128 49 -201zM535 457q-222 0 -361 139q-137 137 -137 348q0 213 137 350q138 138 361 138q220 0 358 -138q137 -137 137 -350q0 -211 -137 -348q-139 -139 -358 -139
z" />
    <glyph glyph-name="guillemotright" unicode="&#xbb;" horiz-adv-x="901" 
d="M414 354l-310 -268v291l162 139v4l-162 137v287l310 -270v-320zM811 354l-315 -268v291l166 139v4l-166 137v287l315 -270v-320z" />
    <glyph glyph-name="onequarter" unicode="&#xbc;" horiz-adv-x="1671" 
d="M868 365l392 458h239v-483h119v-170h-119v-170h-239v170h-392v195zM1260 340v250h-3l-210 -248v-2h213zM481 651h-248v479h-186v166q203 9 238 177h196v-822zM362 0h-206l1114 1464h209z" />
    <glyph glyph-name="onehalf" unicode="&#xbd;" horiz-adv-x="1742" 
d="M1669 0h-688q3 183 152 299q34 29 129 90q88 56 102 66q68 50 68 104q0 86 -95 86q-56 0 -87 -37t-31 -104h-226q0 154 94 239.5t256 85.5q149 0 236.5 -73t87.5 -185q0 -132 -111 -221q-40 -34 -129 -84q-89 -53 -114 -78v-2h356v-186zM481 651h-248v479h-186v166
q203 9 238 177h196v-822zM350 0h-207l1114 1464h209z" />
    <glyph glyph-name="threequarters" unicode="&#xbe;" horiz-adv-x="1808" 
d="M418 633q-177 0 -272 78.5t-97 216.5h232q6 -123 127 -123q53 0 81.5 25t28.5 69q0 94 -129 94h-47v156h41q119 0 119 84q0 37 -25 58.5t-69 21.5q-100 0 -109 -103h-225q5 121 97 196t247 75q144 0 231.5 -63t87.5 -171q0 -105 -119 -157v-3q144 -53 144 -198
q0 -124 -93.5 -190t-250.5 -66zM1008 365l391 458h239v-483h119v-170h-119v-170h-239v170h-391v195zM1399 340v250h-2l-211 -248v-2h213zM520 0h-207l1114 1464h209z" />
    <glyph glyph-name="questiondown" unicode="&#xbf;" horiz-adv-x="1120" 
d="M547 -287q-229 0 -371 115q-141 117 -141 305q0 82 30.5 153t71.5 107q27 27 92 72q143 91 170 121q39 48 39 141h297q0 -142 -28 -209q-30 -64 -113 -135q-14 -14 -88 -64q-70 -50 -92 -81q-27 -38 -27 -95q0 -68 49 -110.5t125 -42.5q93 0 149.5 57.5t57.5 155.5h328
q-3 -219 -150 -357q-148 -133 -399 -133zM766 860h-348v344h348v-344z" />
    <glyph glyph-name="Agrave" unicode="&#xc0;" horiz-adv-x="1427" 
d="M362 0h-364l526 1464h373l528 -1464h-381l-86 264h-512zM643 879l-113 -355h344l-110 355l-57 206h-5q-28 -107 -59 -206zM858 1536h-254l-217 266h383z" />
    <glyph glyph-name="Aacute" unicode="&#xc1;" horiz-adv-x="1427" 
d="M362 0h-364l526 1464h373l528 -1464h-381l-86 264h-512zM643 879l-113 -355h344l-110 355l-57 206h-5q-28 -107 -59 -206zM829 1536h-254l89 266h383z" />
    <glyph glyph-name="Acircumflex" unicode="&#xc2;" horiz-adv-x="1427" 
d="M362 0h-364l526 1464h373l528 -1464h-381l-86 264h-512zM643 879l-113 -355h344l-110 355l-57 206h-5q-28 -107 -59 -206zM618 1536h-286l219 256h319l220 -256h-281l-92 111h-4z" />
    <glyph glyph-name="Atilde" unicode="&#xc3;" horiz-adv-x="1427" 
d="M362 0h-364l526 1464h373l528 -1464h-381l-86 264h-512zM643 879l-113 -355h344l-110 355l-57 206h-5q-28 -107 -59 -206zM584 1536q-16 78 -0.5 122t53.5 50l10 6q16 45 80 72q69 29 109 29q19 -67 6.5 -115t-54.5 -55q-9 -9 -16 -9q-13 -42 -76 -69q-67 -31 -112 -31z
M686 1655q12 0 0 4l-4 2q0 -2 4 -6zM737 1698q-8 0 4 -6q-4 4 -4 6z" />
    <glyph glyph-name="Adieresis" unicode="&#xc4;" horiz-adv-x="1427" 
d="M362 0h-364l526 1464h373l528 -1464h-381l-86 264h-512zM643 879l-113 -355h344l-110 355l-57 206h-5q-28 -107 -59 -206zM647 1542h-313v262h313v-262zM1087 1542h-313v262h313v-262z" />
    <glyph glyph-name="Aring" unicode="&#xc5;" horiz-adv-x="1427" 
d="M362 0h-364l526 1464h373l528 -1464h-381l-86 264h-512zM643 879l-113 -355h344l-110 355l-57 206h-5q-28 -107 -59 -206zM651 1653q23 -26 59.5 -26t61.5 26q25 25 25 62t-25 63q-25 25 -61.5 25t-59.5 -25q-25 -26 -25 -63t25 -62zM858 1571q-61 -57 -147.5 -56.5
t-147.5 58.5q-61 59 -61 143t61 142q43 46 107 55t120 -13.5t95 -72.5t35 -113q0 -84 -62 -143z" />
    <glyph glyph-name="AE" unicode="&#xc6;" horiz-adv-x="2037" 
d="M356 0h-358l496 1464h1462v-301h-707v-264h600v-281h-600v-301h729v-317h-1095v258h-443zM733 1163l-211 -653h361v653h-150z" />
    <glyph glyph-name="Ccedilla" unicode="&#xc7;" horiz-adv-x="1437" 
d="M696 -395q-129 0 -229 59l41 72q67 -31 141 -31q111 0 111 59q0 56 -78 56q-32 0 -72 -15l-35 50l115 116q-290 24 -469 236q-180 207 -180 520q0 332 199 549t522 217q248 0 418 -129q192 -145 219 -403h-363q-14 102 -88.5 166.5t-187.5 64.5q-168 0 -259 -125.5
t-91 -339.5q0 -203 96 -334q94 -129 256 -129q118 0 195.5 67t89.5 177h362q-15 -220 -176 -375q-158 -152 -422 -164l-76 -65v-4q94 11 155.5 -26.5t61.5 -111.5q0 -71 -71 -114t-185 -43z" />
    <glyph glyph-name="Egrave" unicode="&#xc8;" horiz-adv-x="1286" 
d="M821 1536h-254l-217 266h383zM1223 0h-1123v1464h1110v-299h-747v-262h641v-282h-641v-314h760v-307z" />
    <glyph glyph-name="Eacute" unicode="&#xc9;" horiz-adv-x="1286" 
d="M793 1536h-254l88 266h383zM1223 0h-1123v1464h1110v-299h-747v-262h641v-282h-641v-314h760v-307z" />
    <glyph glyph-name="Ecircumflex" unicode="&#xca;" horiz-adv-x="1286" 
d="M1223 0h-1123v1464h1110v-299h-747v-262h641v-282h-641v-314h760v-307zM582 1536h-287l219 256h320l219 -256h-281l-92 111h-4z" />
    <glyph glyph-name="Edieresis" unicode="&#xcb;" horiz-adv-x="1286" 
d="M610 1542h-313v262h313v-262zM1051 1542h-314v262h314v-262zM1223 0h-1123v1464h1110v-299h-747v-262h641v-282h-641v-314h760v-307z" />
    <glyph glyph-name="Igrave" unicode="&#xcc;" horiz-adv-x="565" 
d="M465 0h-363v1464h363v-1464zM430 1536h-254l-217 266h383z" />
    <glyph glyph-name="Iacute" unicode="&#xcd;" horiz-adv-x="565" 
d="M465 0h-363v1464h363v-1464zM401 1536h-254l89 266h382z" />
    <glyph glyph-name="Icircumflex" unicode="&#xce;" horiz-adv-x="565" 
d="M465 0h-363v1464h363v-1464zM190 1536h-286l219 256h319l220 -256h-281l-92 111h-4z" />
    <glyph glyph-name="Idieresis" unicode="&#xcf;" horiz-adv-x="565" 
d="M465 0h-363v1464h363v-1464zM219 1542h-313v262h313v-262zM659 1542h-313v262h313v-262z" />
    <glyph glyph-name="Eth" unicode="&#xd0;" horiz-adv-x="1462" 
d="M481 606v-301h213q176 0 268.5 107.5t92.5 310.5t-95 320.5t-262 117.5h-217v-274h320v-281h-320zM721 0h-602v606h-113v281h113v577h624q305 0 492 -202q186 -201 186 -539q0 -363 -215 -557q-181 -166 -485 -166z" />
    <glyph glyph-name="Ntilde" unicode="&#xd1;" horiz-adv-x="1454" 
d="M455 0h-355v1464h365l434 -735l100 -186h5q-1 49 -2 100t-2 81.5t-1 45.5v694h355v-1464h-365l-430 725l-104 197h-4q1 -49 2 -106t1.5 -88t0.5 -46v-682zM614 1536q-17 75 -1 120.5t55 51.5l10 6q16 45 80 72q69 29 108 29q20 -67 7.5 -115t-54.5 -55q-9 -9 -16 -9
q-13 -42 -76 -69q-67 -31 -113 -31zM717 1655q12 0 0 4l-4 2q0 -2 4 -6zM768 1698q-8 0 4 -6q-4 4 -4 6z" />
    <glyph glyph-name="Ograve" unicode="&#xd2;" horiz-adv-x="1529" 
d="M911 1536h-254l-217 266h383zM766 260q168 0 261 127.5t93 341.5t-93 342.5t-261 128.5q-167 0 -261.5 -129t-94.5 -342q0 -207 94 -338q91 -131 262 -131zM1290 180q-200 -215 -526 -215q-327 0 -524 215q-199 214 -199 549t199 549q197 215 524 215q326 0 526 -215
q199 -214 199 -549t-199 -549z" />
    <glyph glyph-name="Oacute" unicode="&#xd3;" horiz-adv-x="1529" 
d="M883 1536h-254l88 266h383zM766 260q168 0 261 127.5t93 341.5t-93 342.5t-261 128.5q-167 0 -261.5 -129t-94.5 -342q0 -207 94 -338q91 -131 262 -131zM1290 180q-200 -215 -526 -215q-327 0 -524 215q-199 214 -199 549t199 549q197 215 524 215q326 0 526 -215
q199 -214 199 -549t-199 -549z" />
    <glyph glyph-name="Ocircumflex" unicode="&#xd4;" horiz-adv-x="1529" 
d="M766 260q168 0 261 127.5t93 341.5t-93 342.5t-261 128.5q-167 0 -261.5 -129t-94.5 -342q0 -207 94 -338q91 -131 262 -131zM1290 180q-200 -215 -526 -215q-327 0 -524 215q-199 214 -199 549t199 549q197 215 524 215q326 0 526 -215q199 -214 199 -549t-199 -549z
M672 1536h-287l219 256h320l219 -256h-281l-92 111h-4z" />
    <glyph glyph-name="Otilde" unicode="&#xd5;" horiz-adv-x="1529" 
d="M1290 180q-200 -215 -526 -215q-327 0 -524 215q-199 214 -199 549t199 549q197 215 524 215q326 0 526 -215q199 -214 199 -549t-199 -549zM766 260q168 0 261 127.5t93 341.5t-93 342.5t-261 128.5q-167 0 -261.5 -129t-94.5 -342q0 -207 94 -338q91 -131 262 -131z
M637 1536q-16 78 -0.5 122t53.5 50l10 6q16 45 80 72q69 29 109 29q20 -67 7.5 -115t-54.5 -55q-9 -9 -17 -9q-13 -43 -75 -69q-67 -31 -113 -31zM739 1655q12 0 0 4l-4 2q0 -2 4 -6zM791 1698q-8 0 4 -6q-4 4 -4 6z" />
    <glyph glyph-name="Odieresis" unicode="&#xd6;" horiz-adv-x="1529" 
d="M700 1542h-313v262h313v-262zM1141 1542h-314v262h314v-262zM766 260q168 0 261 127.5t93 341.5t-93 342.5t-261 128.5q-167 0 -261.5 -129t-94.5 -342q0 -207 94 -338q91 -131 262 -131zM1290 180q-200 -215 -526 -215q-327 0 -524 215q-199 214 -199 549t199 549
q197 215 524 215q326 0 526 -215q199 -214 199 -549t-199 -549z" />
    <glyph glyph-name="multiply" unicode="&#xd7;" horiz-adv-x="1159" 
d="M575 481l-305 -313l-190 182l311 318l-309 317l190 180l301 -309l306 309l188 -180l-309 -317l309 -316l-188 -182z" />
    <glyph glyph-name="Oslash" unicode="&#xd8;" horiz-adv-x="1529" 
d="M317 109l-159 -181l-113 103l164 184q-168 204 -168 514q0 335 199 549q197 215 524 215q262 0 450 -147l156 174l115 -101l-162 -180q166 -205 166 -510q0 -335 -199 -549q-200 -215 -526 -215q-260 0 -447 144zM451 485l548 619q-93 96 -233 96q-167 0 -261.5 -129
t-94.5 -342q0 -141 41 -244zM766 260q168 0 261 127.5t93 341.5q0 140 -39 238l-546 -615q89 -92 231 -92z" />
    <glyph glyph-name="Ugrave" unicode="&#xd9;" horiz-adv-x="1404" 
d="M848 1536h-254l-217 266h383zM705 -27q-300 0 -457.5 141t-157.5 402v948h363v-960q0 -240 252 -240q119 0 183 65.5t64 180.5v954h363v-948q0 -260 -156 -401.5t-454 -141.5z" />
    <glyph glyph-name="Uacute" unicode="&#xda;" horiz-adv-x="1404" 
d="M819 1536h-254l88 266h383zM705 -27q-300 0 -457.5 141t-157.5 402v948h363v-960q0 -240 252 -240q119 0 183 65.5t64 180.5v954h363v-948q0 -260 -156 -401.5t-454 -141.5z" />
    <glyph glyph-name="Ucircumflex" unicode="&#xdb;" horiz-adv-x="1404" 
d="M705 -27q-300 0 -457.5 141t-157.5 402v948h363v-960q0 -240 252 -240q119 0 183 65.5t64 180.5v954h363v-948q0 -260 -156 -401.5t-454 -141.5zM608 1536h-286l219 256h319l219 -256h-280l-92 111h-5z" />
    <glyph glyph-name="Udieresis" unicode="&#xdc;" horiz-adv-x="1404" 
d="M637 1542h-313v262h313v-262zM1077 1542h-313v262h313v-262zM705 -27q-300 0 -457.5 141t-157.5 402v948h363v-960q0 -240 252 -240q119 0 183 65.5t64 180.5v954h363v-948q0 -260 -156 -401.5t-454 -141.5z" />
    <glyph glyph-name="Yacute" unicode="&#xdd;" horiz-adv-x="1357" 
d="M860 0h-362v541l-496 923h395l189 -379l96 -223h4q60 141 100 223l187 379h383l-496 -923v-541zM801 1536h-254l88 266h383z" />
    <glyph glyph-name="Thorn" unicode="&#xde;" horiz-adv-x="1331" 
d="M469 0h-369v1464h369v-202h291q261 -3 399 -138q148 -139 148 -360q0 -211 -136 -344q-138 -135 -360 -135h-342v-285zM469 954v-383h268q96 0 150.5 53t54.5 142q0 88 -54.5 138t-150.5 50h-268z" />
    <glyph glyph-name="germandbls" unicode="&#xdf;" horiz-adv-x="1179" 
d="M678 -18q-95 0 -156 20v242q143 -17 219 45t76 198q0 240 -235 240h-56v191h43q191 6 191 165q0 72 -43.5 115t-118.5 43q-85 0 -134.5 -52t-49.5 -145v-1044h-334v1053q0 204 137 322t375 118q220 0 349.5 -104t129.5 -281q0 -191 -180 -264v-6q122 -38 189 -137.5
t67 -241.5q0 -225 -127.5 -351t-341.5 -126z" />
    <glyph glyph-name="agrave" unicode="&#xe0;" horiz-adv-x="1107" 
d="M389 -27q-163 0 -260.5 85t-97.5 235q0 153 100.5 228.5t300.5 101.5q156 19 211 42.5t55 73.5q0 113 -143 113q-155 0 -170 -135h-307q6 160 131 260t344 100q225 0 340 -86q133 -95 133 -299v-528q0 -126 37 -150v-14h-324q-18 23 -34 117h-5q-102 -144 -311 -144z
M496 186q94 0 152.5 52t58.5 137v125q-58 -28 -172 -56q-101 -24 -142 -54.5t-41 -86.5q0 -117 144 -117zM711 1171h-254l-248 304h385z" />
    <glyph glyph-name="aacute" unicode="&#xe1;" horiz-adv-x="1107" 
d="M389 -27q-163 0 -260.5 85t-97.5 235q0 153 100.5 228.5t300.5 101.5q156 19 211 42.5t55 73.5q0 113 -143 113q-155 0 -170 -135h-307q6 160 131 260t344 100q225 0 340 -86q133 -95 133 -299v-528q0 -126 37 -150v-14h-324q-18 23 -34 117h-5q-102 -144 -311 -144z
M496 186q94 0 152.5 52t58.5 137v125q-58 -28 -172 -56q-101 -24 -142 -54.5t-41 -86.5q0 -117 144 -117zM682 1171h-254l117 304h385z" />
    <glyph glyph-name="acircumflex" unicode="&#xe2;" horiz-adv-x="1107" 
d="M389 -27q-163 0 -260.5 85t-97.5 235q0 153 100.5 228.5t300.5 101.5q156 19 211 42.5t55 73.5q0 113 -143 113q-155 0 -170 -135h-307q6 160 131 260t344 100q225 0 340 -86q133 -95 133 -299v-528q0 -126 37 -150v-14h-324q-18 23 -34 117h-5q-102 -144 -311 -144z
M496 186q94 0 152.5 52t58.5 137v125q-58 -28 -172 -56q-101 -24 -142 -54.5t-41 -86.5q0 -117 144 -117zM471 1176h-287l219 280h320l219 -280h-280l-93 135h-4z" />
    <glyph glyph-name="atilde" unicode="&#xe3;" horiz-adv-x="1107" 
d="M389 -27q-163 0 -260.5 85t-97.5 235q0 153 100.5 228.5t300.5 101.5q156 19 211 42.5t55 73.5q0 113 -143 113q-155 0 -170 -135h-307q6 160 131 260t344 100q225 0 340 -86q133 -95 133 -299v-528q0 -126 37 -150v-14h-324q-18 23 -34 117h-5q-102 -144 -311 -144z
M496 186q94 0 152.5 52t58.5 137v125q-58 -28 -172 -56q-101 -24 -142 -54.5t-41 -86.5q0 -117 144 -117zM395 1169h-172q0 131 58 204t153 73q67 0 135 -39q73 -37 101 -37q52 0 61 72h172q0 -125 -54 -198t-151 -73q-62 0 -135 33q-79 39 -106 39q-53 0 -62 -74z" />
    <glyph glyph-name="adieresis" unicode="&#xe4;" horiz-adv-x="1107" 
d="M389 -27q-163 0 -260.5 85t-97.5 235q0 153 100.5 228.5t300.5 101.5q156 19 211 42.5t55 73.5q0 113 -143 113q-155 0 -170 -135h-307q6 160 131 260t344 100q225 0 340 -86q133 -95 133 -299v-528q0 -126 37 -150v-14h-324q-18 23 -34 117h-5q-102 -144 -311 -144z
M496 186q94 0 152.5 52t58.5 137v125q-58 -28 -172 -56q-101 -24 -142 -54.5t-41 -86.5q0 -117 144 -117zM489 1182h-313v262h313v-262zM950 1182h-313v262h313v-262z" />
    <glyph glyph-name="aring" unicode="&#xe5;" horiz-adv-x="1107" 
d="M389 -27q-163 0 -260.5 85t-97.5 235q0 153 100.5 228.5t300.5 101.5q156 19 211 42.5t55 73.5q0 113 -143 113q-155 0 -170 -135h-307q6 160 131 260t344 100q225 0 340 -86q133 -95 133 -299v-528q0 -126 37 -150v-14h-324q-18 23 -34 117h-5q-102 -144 -311 -144z
M496 186q94 0 152.5 52t58.5 137v125q-58 -28 -172 -56q-101 -24 -142 -54.5t-41 -86.5q0 -117 144 -117zM504 1282q23 -25 59.5 -25t61.5 25t25 62t-25 63q-25 25 -61.5 25t-59.5 -25q-25 -26 -25 -63t25 -62zM711 1202q-61 -58 -147 -58t-148 58t-62 141.5t62 143.5
t147.5 60t147.5 -60q61 -60 61 -143.5t-61 -141.5z" />
    <glyph glyph-name="ae" unicode="&#xe6;" horiz-adv-x="1812" 
d="M430 -29q-185 0 -292 85t-107 237q0 153 100 227.5t303 102.5q156 20 217 43q56 21 56 73q0 113 -148 113q-162 0 -174 -135h-307q6 160 132 260t347 100q249 0 350 -110q130 112 328 112q204 0 342 -114q204 -168 201 -527h-754q37 -229 238 -229q125 0 174 104h323
q-34 -140 -166 -239q-135 -105 -338 -105q-257 0 -403 168q-83 -89 -179 -127.5t-243 -38.5zM496 186q97 0 158 52.5t61 136.5v125q-54 -28 -178 -56q-107 -24 -148 -53t-41 -88q0 -117 148 -117zM1241 842q-178 0 -215 -205h414q-11 94 -64.5 149.5t-134.5 55.5z" />
    <glyph glyph-name="ccedilla" unicode="&#xe7;" horiz-adv-x="1114" 
d="M526 -395q-129 0 -229 59l41 72q67 -31 141 -31q111 0 111 59q0 56 -78 56q-32 0 -72 -15l-34 50l116 116q-222 21 -354 174q-135 153 -135 377q0 241 151 398t398 157q207 0 340 -109.5t157 -291.5h-321q-34 155 -172 155q-105 0 -160 -80.5t-55 -228.5
q0 -144 56 -224.5t159 -80.5q161 0 182 180h319q-6 -173 -126 -293t-318 -135l-78 -65v-4q94 11 155.5 -26.5t61.5 -111.5q0 -71 -71 -114t-185 -43z" />
    <glyph glyph-name="egrave" unicode="&#xe8;" horiz-adv-x="1146" 
d="M592 -31q-254 0 -406 158q-153 156 -153 399q0 239 151 396t387 157q216 0 359 -131q187 -172 184 -510h-754q17 -110 77 -169.5t159 -59.5q128 0 174 104h326q-38 -153 -176 -247q-142 -97 -328 -97zM362 637h414q-7 93 -61.5 149t-136.5 56q-179 0 -216 -205zM721 1171
h-254l-248 304h385z" />
    <glyph glyph-name="eacute" unicode="&#xe9;" horiz-adv-x="1146" 
d="M692 1171h-254l117 304h385zM592 -31q-254 0 -406 158q-153 156 -153 399q0 239 151 396t387 157q216 0 359 -131q187 -172 184 -510h-754q17 -110 77 -169.5t159 -59.5q128 0 174 104h326q-38 -153 -176 -247q-142 -97 -328 -97zM362 637h414q-7 93 -61.5 149t-136.5 56
q-179 0 -216 -205z" />
    <glyph glyph-name="ecircumflex" unicode="&#xea;" horiz-adv-x="1146" 
d="M481 1176h-286l219 280h319l219 -280h-280l-92 135h-5zM592 -31q-254 0 -406 158q-153 156 -153 399q0 239 151 396t387 157q216 0 359 -131q187 -172 184 -510h-754q17 -110 77 -169.5t159 -59.5q128 0 174 104h326q-38 -153 -176 -247q-142 -97 -328 -97zM362 637h414
q-7 93 -61.5 149t-136.5 56q-179 0 -216 -205z" />
    <glyph glyph-name="edieresis" unicode="&#xeb;" horiz-adv-x="1146" 
d="M500 1182h-314v262h314v-262zM961 1182h-314v262h314v-262zM592 -31q-254 0 -406 158q-153 156 -153 399q0 239 151 396t387 157q216 0 359 -131q187 -172 184 -510h-754q17 -110 77 -169.5t159 -59.5q128 0 174 104h326q-38 -153 -176 -247q-142 -97 -328 -97zM362 637
h414q-7 93 -61.5 149t-136.5 56q-179 0 -216 -205z" />
    <glyph glyph-name="igrave" unicode="&#xec;" horiz-adv-x="493" 
d="M414 0h-334v1049h334v-1049zM395 1171h-254l-247 304h385z" />
    <glyph glyph-name="iacute" unicode="&#xed;" horiz-adv-x="493" 
d="M367 1171h-254l116 304h385zM414 0h-334v1049h334v-1049z" />
    <glyph glyph-name="icircumflex" unicode="&#xee;" horiz-adv-x="493" 
d="M414 0h-334v1049h334v-1049zM184 1176h-270l166 280h336l162 -280h-265l-61 127h-4z" />
    <glyph glyph-name="idieresis" unicode="&#xef;" horiz-adv-x="493" 
d="M195 1182h-254v262h254v-262zM553 1182h-252v262h252v-262zM80 0v1049h334v-1049h-334z" />
    <glyph glyph-name="eth" unicode="&#xf0;" horiz-adv-x="1185" 
d="M567 1186l-274 -90l-47 108l223 74q-85 72 -244 186h418q89 -61 123 -88l201 66l49 -109l-152 -49q283 -294 283 -717q0 -355 -232 -512q-128 -88 -321 -88q-251 0 -406 158q-155 155 -155 397q0 236 133 387q133 148 350 148q126 0 215 -86h4q-65 109 -168 215zM428 291
q59 -86 164 -86q107 0 166 86q57 80 57 229q0 150 -57 230q-60 84 -166 84q-104 0 -164 -84q-57 -80 -57 -230q0 -149 57 -229z" />
    <glyph glyph-name="ntilde" unicode="&#xf1;" horiz-adv-x="1167" 
d="M414 0h-334v1049h321v-144h7q119 174 323 174q169 0 267 -108.5t98 -288.5v-682h-334v614q0 87 -42.5 137t-121.5 50q-82 0 -133 -61.5t-51 -159.5v-580zM426 1169h-172q0 131 58 204t153 73q67 0 135 -39q73 -37 100 -37q53 0 62 72h172q0 -125 -54 -198t-151 -73
q-62 0 -135 33q-79 39 -107 39q-52 0 -61 -74z" />
    <glyph glyph-name="ograve" unicode="&#xf2;" horiz-adv-x="1185" 
d="M428 291q59 -86 164 -86q107 0 166 86q57 83 57 231t-57 234q-59 86 -166 86q-105 0 -164 -86q-57 -83 -57 -234q0 -148 57 -231zM999 125q-158 -158 -405 -158q-248 0 -406 158q-155 155 -155 397q0 243 155 398q157 157 406 157q248 0 405 -157q154 -157 154 -398
q0 -240 -154 -397zM741 1171h-254l-247 304h385z" />
    <glyph glyph-name="oacute" unicode="&#xf3;" horiz-adv-x="1185" 
d="M713 1171h-254l116 304h386zM428 291q59 -86 164 -86q107 0 166 86q57 83 57 231t-57 234q-59 86 -166 86q-105 0 -164 -86q-57 -83 -57 -234q0 -148 57 -231zM999 125q-158 -158 -405 -158q-248 0 -406 158q-155 155 -155 397q0 243 155 398q157 157 406 157
q248 0 405 -157q154 -157 154 -398q0 -240 -154 -397z" />
    <glyph glyph-name="ocircumflex" unicode="&#xf4;" horiz-adv-x="1185" 
d="M502 1176h-287l219 280h320l219 -280h-281l-92 135h-4zM428 291q59 -86 164 -86q107 0 166 86q57 83 57 231t-57 234q-59 86 -166 86q-105 0 -164 -86q-57 -83 -57 -234q0 -148 57 -231zM999 125q-158 -158 -405 -158q-248 0 -406 158q-155 155 -155 397q0 243 155 398
q157 157 406 157q248 0 405 -157q154 -157 154 -398q0 -240 -154 -397z" />
    <glyph glyph-name="otilde" unicode="&#xf5;" horiz-adv-x="1185" 
d="M428 291q59 -86 164 -86q107 0 166 86q57 83 57 231t-57 234q-59 86 -166 86q-105 0 -164 -86q-57 -83 -57 -234q0 -148 57 -231zM999 125q-158 -158 -405 -158q-248 0 -406 158q-155 155 -155 397q0 243 155 398q157 157 406 157q248 0 405 -157q154 -157 154 -398
q0 -240 -154 -397zM426 1169h-172q0 131 58 204t153 73q67 0 135 -39q73 -37 100 -37q53 0 62 72h172q0 -125 -54 -198t-151 -73q-62 0 -135 33q-79 39 -107 39q-52 0 -61 -74z" />
    <glyph glyph-name="odieresis" unicode="&#xf6;" horiz-adv-x="1185" 
d="M520 1182h-313v262h313v-262zM981 1182h-313v262h313v-262zM428 291q59 -86 164 -86q107 0 166 86q57 83 57 231t-57 234q-59 86 -166 86q-105 0 -164 -86q-57 -83 -57 -234q0 -148 57 -231zM999 125q-158 -158 -405 -158q-248 0 -406 158q-155 155 -155 397
q0 243 155 398q157 157 406 157q248 0 405 -157q154 -157 154 -398q0 -240 -154 -397z" />
    <glyph glyph-name="divide" unicode="&#xf7;" horiz-adv-x="1159" 
d="M754 121h-351v305h351v-305zM754 924h-351v305h351v-305zM1077 809v-268h-995v268h995z" />
    <glyph glyph-name="oslash" unicode="&#xf8;" horiz-adv-x="1185" 
d="M266 61l-121 -135l-90 88l117 129q-139 151 -139 379q0 243 155 398q157 157 406 157q184 0 330 -96l118 131l91 -86l-115 -127q135 -153 135 -377q0 -240 -154 -397q-158 -158 -405 -158q-185 0 -328 94zM592 205q105 0 164 85t59 232q0 65 -16 131l-350 -389
q53 -59 143 -59zM389 387l352 389q-60 66 -149 66q-105 0 -163 -85.5t-58 -234.5q0 -76 18 -135z" />
    <glyph glyph-name="ugrave" unicode="&#xf9;" horiz-adv-x="1159" 
d="M440 -31q-176 0 -272 104.5t-96 286.5v689h331v-619q0 -178 158 -178q85 0 134.5 58t49.5 153v586h334v-1049h-319v129h-6q-121 -160 -314 -160zM725 1171h-254l-248 304h385z" />
    <glyph glyph-name="uacute" unicode="&#xfa;" horiz-adv-x="1159" 
d="M696 1171h-254l117 304h385zM440 -31q-176 0 -272 104.5t-96 286.5v689h331v-619q0 -178 158 -178q85 0 134.5 58t49.5 153v586h334v-1049h-319v129h-6q-121 -160 -314 -160z" />
    <glyph glyph-name="ucircumflex" unicode="&#xfb;" horiz-adv-x="1159" 
d="M485 1176h-286l219 280h319l219 -280h-280l-92 135h-4zM440 -31q-176 0 -272 104.5t-96 286.5v689h331v-619q0 -178 158 -178q85 0 134.5 58t49.5 153v586h334v-1049h-319v129h-6q-121 -160 -314 -160z" />
    <glyph glyph-name="udieresis" unicode="&#xfc;" horiz-adv-x="1159" 
d="M504 1182h-314v262h314v-262zM965 1182h-314v262h314v-262zM440 -31q-176 0 -272 104.5t-96 286.5v689h331v-619q0 -178 158 -178q85 0 134.5 58t49.5 153v586h334v-1049h-319v129h-6q-121 -160 -314 -160z" />
    <glyph glyph-name="yacute" unicode="&#xfd;" horiz-adv-x="1083" 
d="M332 -346h-217v260h114q138 0 138 111q0 55 -64 217l-309 807h352l141 -447l66 -242h4q29 146 61 242l138 447h334l-363 -1063q-65 -186 -149 -258q-89 -74 -246 -74zM666 1171h-254l116 304h385z" />
    <glyph glyph-name="thorn" unicode="&#xfe;" horiz-adv-x="1204" 
d="M414 -346h-334v1812h334v-536h6q107 149 303 149q206 0 328 -155q120 -156 120 -400q0 -257 -124 -405q-128 -152 -332 -152q-194 0 -297 142h-4v-455zM629 225q97 0 151 77t54 214q0 142 -54 222.5t-157 80.5t-161.5 -83.5t-58.5 -219.5q0 -132 60.5 -211.5t165.5 -79.5
z" />
    <glyph glyph-name="ydieresis" unicode="&#xff;" horiz-adv-x="1083" 
d="M332 -346h-217v260h114q138 0 138 111q0 55 -64 217l-309 807h352l141 -447l66 -242h4q29 146 61 242l138 447h334l-363 -1063q-65 -186 -149 -258q-89 -74 -246 -74zM473 1182h-313v262h313v-262zM934 1182h-313v262h313v-262z" />
    <glyph glyph-name="Amacron" unicode="&#x100;" horiz-adv-x="1427" 
d="M362 0h-364l526 1464h373l528 -1464h-381l-86 264h-512zM643 879l-113 -355h344l-110 355l-57 206h-5q-28 -107 -59 -206zM1004 1561h-586v206h586v-206z" />
    <glyph glyph-name="amacron" unicode="&#x101;" horiz-adv-x="1107" 
d="M389 -27q-163 0 -260.5 85t-97.5 235q0 153 100.5 228.5t300.5 101.5q156 19 211 42.5t55 73.5q0 113 -143 113q-155 0 -170 -135h-307q6 160 131 260t344 100q225 0 340 -86q133 -95 133 -299v-528q0 -126 37 -150v-14h-324q-18 23 -34 117h-5q-102 -144 -311 -144z
M496 186q94 0 152.5 52t58.5 137v125q-58 -28 -172 -56q-101 -24 -142 -54.5t-41 -86.5q0 -117 144 -117zM856 1202h-586v207h586v-207z" />
    <glyph glyph-name="Abreve" unicode="&#x102;" horiz-adv-x="1427" 
d="M362 0h-364l526 1464h373l528 -1464h-381l-86 264h-512zM643 879l-113 -355h344l-110 355l-57 206h-5q-28 -107 -59 -206zM946 1608q-90 -84 -231 -84q-142 0 -236 82q-95 83 -98 215h188q5 -43 43.5 -70t100.5 -27q59 0 97.5 27.5t43.5 69.5h188q-6 -129 -96 -213z" />
    <glyph glyph-name="abreve" unicode="&#x103;" horiz-adv-x="1107" 
d="M389 -27q-163 0 -260.5 85t-97.5 235q0 153 100.5 228.5t300.5 101.5q156 19 211 42.5t55 73.5q0 113 -143 113q-155 0 -170 -135h-307q6 160 131 260t344 100q225 0 340 -86q133 -95 133 -299v-528q0 -126 37 -150v-14h-324q-18 23 -34 117h-5q-102 -144 -311 -144z
M496 186q94 0 152.5 52t58.5 137v125q-58 -28 -172 -56q-101 -24 -142 -54.5t-41 -86.5q0 -117 144 -117zM799 1243q-90 -84 -232 -84q-141 0 -235 82q-96 84 -99 215h189q5 -43 43 -69.5t100 -26.5q59 0 98 27t44 69h188q-6 -129 -96 -213z" />
    <glyph glyph-name="Aogonek" unicode="&#x104;" horiz-adv-x="1427" 
d="M1288 -362q-246 0 -246 176q0 116 123 186h-121l-86 264h-512l-84 -264h-364l526 1464h373l524 -1452q-110 -70 -110 -141q0 -51 57 -51q26 0 53 10h2v-174q-47 -18 -135 -18zM643 879l-113 -355h344l-110 355l-57 206h-5q-28 -107 -59 -206z" />
    <glyph glyph-name="aogonek" unicode="&#x105;" horiz-adv-x="1107" 
d="M946 -362q-254 0 -254 172q0 122 144 190h-97q-18 23 -34 117h-5q-102 -144 -311 -144q-163 0 -260.5 85t-97.5 235q0 153 100.5 228.5t300.5 101.5q156 19 211 42.5t55 73.5q0 113 -143 113q-155 0 -170 -135h-307q6 160 131 260t344 100q225 0 340 -86
q133 -95 133 -299v-528q0 -126 37 -150v-14q-105 -56 -105 -129q0 -51 58 -51q26 0 53 10h2v-174q-47 -18 -125 -18zM496 186q94 0 152.5 52t58.5 137v125q-58 -28 -172 -56q-101 -24 -142 -54.5t-41 -86.5q0 -117 144 -117z" />
    <glyph glyph-name="Cacute" unicode="&#x106;" horiz-adv-x="1437" 
d="M764 -33q-320 0 -520 215q-203 212 -203 545q0 332 199 549t522 217q248 0 418 -129q192 -145 219 -403h-363q-14 102 -88.5 166.5t-187.5 64.5q-168 0 -259 -125.5t-91 -339.5q0 -203 96 -334q94 -129 256 -129q118 0 195.5 67t89.5 177h362q-15 -220 -176 -375
q-172 -166 -469 -166zM866 1536h-254l88 266h383z" />
    <glyph glyph-name="cacute" unicode="&#x107;" horiz-adv-x="1114" 
d="M694 1171h-254l117 304h385zM590 -33q-249 0 -404 158q-153 156 -153 397t151 398t398 157q207 0 340 -109.5t157 -291.5h-321q-34 155 -172 155q-105 0 -160 -80.5t-55 -228.5q0 -144 56 -224.5t159 -80.5q161 0 182 180h319q-6 -187 -141 -307q-138 -123 -356 -123z
" />
    <glyph glyph-name="Ccircumflex" unicode="&#x108;" horiz-adv-x="1437" 
d="M764 -33q-320 0 -520 215q-203 212 -203 545q0 332 199 549t522 217q248 0 418 -129q192 -145 219 -403h-363q-14 102 -88.5 166.5t-187.5 64.5q-168 0 -259 -125.5t-91 -339.5q0 -203 96 -334q94 -129 256 -129q118 0 195.5 67t89.5 177h362q-15 -220 -176 -375
q-172 -166 -469 -166zM655 1536h-286l219 256h319l219 -256h-280l-92 111h-4z" />
    <glyph glyph-name="ccircumflex" unicode="&#x109;" horiz-adv-x="1114" 
d="M483 1176h-286l219 280h319l219 -280h-280l-92 135h-4zM590 -33q-249 0 -404 158q-153 156 -153 397t151 398t398 157q207 0 340 -109.5t157 -291.5h-321q-34 155 -172 155q-105 0 -160 -80.5t-55 -228.5q0 -144 56 -224.5t159 -80.5q161 0 182 180h319
q-6 -187 -141 -307q-138 -123 -356 -123z" />
    <glyph glyph-name="Cdotaccent" unicode="&#x10a;" horiz-adv-x="1437" 
d="M913 1542h-331v266h331v-266zM764 -33q-320 0 -520 215q-203 212 -203 545q0 332 199 549t522 217q248 0 418 -129q192 -145 219 -403h-363q-14 102 -88.5 166.5t-187.5 64.5q-168 0 -259 -125.5t-91 -339.5q0 -203 96 -334q94 -129 256 -129q118 0 195.5 67t89.5 177
h362q-15 -220 -176 -375q-172 -166 -469 -166z" />
    <glyph glyph-name="cdotaccent" unicode="&#x10b;" horiz-adv-x="1114" 
d="M590 -33q-249 0 -404 158q-153 156 -153 397t151 398t398 157q207 0 340 -109.5t157 -291.5h-321q-34 155 -172 155q-105 0 -160 -80.5t-55 -228.5q0 -144 56 -224.5t159 -80.5q161 0 182 180h319q-6 -187 -141 -307q-138 -123 -356 -123zM741 1194h-331v270h331v-270z
" />
    <glyph glyph-name="Ccaron" unicode="&#x10c;" horiz-adv-x="1437" 
d="M764 -33q-320 0 -520 215q-203 212 -203 545q0 332 199 549t522 217q248 0 418 -129q192 -145 219 -403h-363q-14 102 -88.5 166.5t-187.5 64.5q-168 0 -259 -125.5t-91 -339.5q0 -203 96 -334q94 -129 256 -129q118 0 195.5 67t89.5 177h362q-15 -220 -176 -375
q-172 -166 -469 -166zM907 1536h-321l-217 256h280l92 -111h4l93 111h286z" />
    <glyph glyph-name="ccaron" unicode="&#x10d;" horiz-adv-x="1114" 
d="M737 1169h-321l-217 283h280l92 -135h4l93 135h286zM590 -33q-249 0 -404 158q-153 156 -153 397t151 398t398 157q207 0 340 -109.5t157 -291.5h-321q-34 155 -172 155q-105 0 -160 -80.5t-55 -228.5q0 -144 56 -224.5t159 -80.5q161 0 182 180h319q-6 -187 -141 -307
q-138 -123 -356 -123z" />
    <glyph glyph-name="Dcaron" unicode="&#x10e;" horiz-adv-x="1443" 
d="M823 1536h-321l-217 256h280l92 -111h5l92 111h286zM463 1161v-856h213q176 0 268 107.5t92 310.5t-94.5 320.5t-261.5 117.5h-217zM702 0h-602v1464h625q305 0 492 -202q186 -201 186 -539q0 -397 -254 -590q-180 -133 -447 -133z" />
    <glyph glyph-name="dcaron" unicode="&#x10f;" horiz-adv-x="1204" 
d="M1194 1073v96q119 15 119 88h-117v207h256v-161q0 -215 -258 -230zM492 -33q-206 0 -332 150q-127 151 -127 407q0 246 129 402q126 153 330 153q188 0 292 -149h7v534h333v-1464h-319v141h-4q-101 -174 -309 -174zM578 231q102 0 161.5 80.5t59.5 212.5q0 139 -56.5 221
t-160.5 82q-98 0 -154.5 -81.5t-56.5 -217.5q0 -137 55.5 -217t151.5 -80z" />
    <glyph glyph-name="Dcroat" unicode="&#x110;" horiz-adv-x="1462" 
d="M481 606v-301h213q176 0 268.5 107.5t92.5 310.5t-95 320.5t-262 117.5h-217v-274h320v-281h-320zM721 0h-602v606h-113v281h113v577h624q305 0 492 -202q186 -201 186 -539q0 -399 -258 -592q-174 -131 -442 -131z" />
    <glyph glyph-name="dslash" unicode="&#x111;" horiz-adv-x="1204" 
d="M791 1159h-246v168h246v137h333v-137h105v-168h-105v-1159h-319v141h-4q-101 -174 -309 -174q-206 0 -332 150q-127 151 -127 407q0 246 129 402q126 153 330 153q188 0 292 -149h7v229zM578 231q102 0 161.5 80.5t59.5 212.5q0 139 -56.5 221t-160.5 82
q-98 0 -154.5 -81.5t-56.5 -217.5q0 -137 55.5 -217t151.5 -80z" />
    <glyph glyph-name="Emacron" unicode="&#x112;" horiz-adv-x="1286" 
d="M967 1561h-586v206h586v-206zM1223 0h-1123v1464h1110v-299h-747v-262h641v-282h-641v-314h760v-307z" />
    <glyph glyph-name="emacron" unicode="&#x113;" horiz-adv-x="1146" 
d="M592 -31q-254 0 -406 158q-153 156 -153 399q0 239 151 396t387 157q216 0 359 -131q187 -172 184 -510h-754q17 -110 77 -169.5t159 -59.5q128 0 174 104h326q-38 -153 -176 -247q-142 -97 -328 -97zM362 637h414q-7 93 -61.5 149t-136.5 56q-179 0 -216 -205zM866 1202
h-585v207h585v-207z" />
    <glyph glyph-name="Ebreve" unicode="&#x114;" horiz-adv-x="1286" 
d="M909 1608q-90 -84 -231 -84q-142 0 -236 82q-95 83 -98 215h188q5 -43 43.5 -70t100.5 -27q59 0 97.5 27.5t43.5 69.5h189q-6 -128 -97 -213zM1223 0h-1123v1464h1110v-299h-747v-262h641v-282h-641v-314h760v-307z" />
    <glyph glyph-name="ebreve" unicode="&#x115;" horiz-adv-x="1146" 
d="M592 -31q-254 0 -406 158q-153 156 -153 399q0 239 151 396t387 157q216 0 359 -131q187 -172 184 -510h-754q17 -110 77 -169.5t159 -59.5q128 0 174 104h326q-38 -153 -176 -247q-142 -97 -328 -97zM362 637h414q-7 93 -61.5 149t-136.5 56q-179 0 -216 -205zM807 1243
q-90 -84 -232 -84q-141 0 -235 82q-95 83 -98 215h188q5 -43 43 -69.5t100 -26.5q59 0 98 27t44 69h188q-6 -129 -96 -213z" />
    <glyph glyph-name="Edotaccent" unicode="&#x116;" horiz-adv-x="1286" 
d="M840 1542h-332v266h332v-266zM1223 0h-1123v1464h1110v-299h-747v-262h641v-282h-641v-314h760v-307z" />
    <glyph glyph-name="edotaccent" unicode="&#x117;" horiz-adv-x="1146" 
d="M592 -31q-254 0 -406 158q-153 156 -153 399q0 239 151 396t387 157q216 0 359 -131q187 -172 184 -510h-754q17 -110 77 -169.5t159 -59.5q128 0 174 104h326q-38 -153 -176 -247q-142 -97 -328 -97zM362 637h414q-7 93 -61.5 149t-136.5 56q-179 0 -216 -205zM739 1194
h-331v270h331v-270z" />
    <glyph glyph-name="Eogonek" unicode="&#x118;" horiz-adv-x="1286" 
d="M909 0h-809v1464h1110v-299h-747v-262h641v-282h-641v-314h760v-307h-84q-84 -72 -84 -129q0 -51 57 -51q26 0 53 10h2v-174q-47 -18 -133 -18q-248 0 -248 176q0 116 123 186z" />
    <glyph glyph-name="eogonek" unicode="&#x119;" horiz-adv-x="1146" 
d="M752 -362q-254 0 -254 172q0 93 90 159q-255 3 -404 158q-151 157 -151 399q0 239 151 396t387 157q216 0 359 -131q187 -172 184 -510h-754q17 -110 77 -169.5t159 -59.5q128 0 174 104h326q-29 -130 -144 -229q-64 -50 -102 -88q-19 -16 -41 -41q-45 -42 -45 -84
q0 -51 57 -51q26 0 53 10h3v-174q-46 -18 -125 -18zM362 637h414q-7 93 -61.5 149t-136.5 56q-179 0 -216 -205z" />
    <glyph glyph-name="Ecaron" unicode="&#x11a;" horiz-adv-x="1286" 
d="M836 1536h-322l-217 256h281l92 -111h4l92 111h287zM1223 0h-1123v1464h1110v-299h-747v-262h641v-282h-641v-314h760v-307z" />
    <glyph glyph-name="ecaron" unicode="&#x11b;" horiz-adv-x="1146" 
d="M733 1169h-321l-217 283h280l92 -135h4l93 135h286zM592 -31q-254 0 -406 158q-153 156 -153 399q0 239 151 396t387 157q216 0 359 -131q187 -172 184 -510h-754q17 -110 77 -169.5t159 -59.5q128 0 174 104h326q-38 -153 -176 -247q-142 -97 -328 -97zM362 637h414
q-7 93 -61.5 149t-136.5 56q-179 0 -216 -205z" />
    <glyph glyph-name="Gcircumflex" unicode="&#x11c;" horiz-adv-x="1509" 
d="M739 -33q-312 0 -499 205q-197 215 -197 555q0 354 217 571q192 195 502 195q273 0 442.5 -135t206.5 -373h-352q-21 94 -96.5 151.5t-188.5 57.5q-173 0 -267.5 -126.5t-94.5 -340.5q0 -207 100 -336q101 -131 268 -131q131 0 218.5 74t99.5 182v4h-275v266h611v-786
h-254l-21 176h-4q-135 -209 -416 -209zM657 1536h-286l219 256h319l219 -256h-280l-92 111h-4z" />
    <glyph glyph-name="gcircumflex" unicode="&#x11d;" horiz-adv-x="1171" 
d="M487 1176h-286l219 280h319l219 -280h-280l-92 135h-4zM567 -362q-221 0 -354 87t-158 250h324q35 -102 184 -102q201 0 201 201v104h-8q-109 -121 -269 -121q-188 0 -321 133t-133 365t123 379q124 145 317 145q194 0 295 -143h4v113h320v-947q0 -220 -140 -348
q-131 -116 -385 -116zM565 305q102 0 157.5 71t55.5 191q0 113 -57.5 186.5t-155.5 73.5q-94 0 -150.5 -71.5t-56.5 -190.5q0 -118 56.5 -189t150.5 -71z" />
    <glyph glyph-name="Gbreve" unicode="&#x11e;" horiz-adv-x="1509" 
d="M985 1608q-90 -84 -231 -84q-142 0 -236 82q-95 83 -98 215h188q5 -43 43.5 -70t100.5 -27q59 0 97.5 27.5t43.5 69.5h188q-6 -129 -96 -213zM739 -33q-312 0 -499 205q-197 215 -197 555q0 354 217 571q192 195 502 195q273 0 442.5 -135t206.5 -373h-352
q-21 94 -96.5 151.5t-188.5 57.5q-173 0 -267.5 -126.5t-94.5 -340.5q0 -207 100 -336q101 -131 268 -131q131 0 218.5 74t99.5 182v4h-275v266h611v-786h-254l-21 176h-4q-135 -209 -416 -209z" />
    <glyph glyph-name="gbreve" unicode="&#x11f;" horiz-adv-x="1171" 
d="M567 -362q-221 0 -354 87t-158 250h324q35 -102 184 -102q201 0 201 201v104h-8q-109 -121 -269 -121q-188 0 -321 133t-133 365t123 379q124 145 317 145q194 0 295 -143h4v113h320v-947q0 -220 -140 -348q-131 -116 -385 -116zM565 305q102 0 157.5 71t55.5 191
q0 113 -57.5 186.5t-155.5 73.5q-94 0 -150.5 -71.5t-56.5 -190.5q0 -118 56.5 -189t150.5 -71zM813 1243q-90 -84 -231 -84q-142 0 -236 82q-95 83 -98 215h188q5 -43 43.5 -69.5t100.5 -26.5q59 0 97.5 27t43.5 69h188q-6 -129 -96 -213z" />
    <glyph glyph-name="Gdotaccent" unicode="&#x120;" horiz-adv-x="1509" 
d="M915 1542h-331v266h331v-266zM739 -33q-312 0 -499 205q-197 215 -197 555q0 354 217 571q192 195 502 195q273 0 442.5 -135t206.5 -373h-352q-21 94 -96.5 151.5t-188.5 57.5q-173 0 -267.5 -126.5t-94.5 -340.5q0 -207 100 -336q101 -131 268 -131q131 0 218.5 74
t99.5 182v4h-275v266h611v-786h-254l-21 176h-4q-135 -209 -416 -209z" />
    <glyph glyph-name="gdotaccent" unicode="&#x121;" horiz-adv-x="1171" 
d="M567 -362q-221 0 -354 87t-158 250h324q35 -102 184 -102q201 0 201 201v104h-8q-109 -121 -269 -121q-188 0 -321 133t-133 365t123 379q124 145 317 145q194 0 295 -143h4v113h320v-947q0 -220 -140 -348q-131 -116 -385 -116zM565 305q102 0 157.5 71t55.5 191
q0 113 -57.5 186.5t-155.5 73.5q-94 0 -150.5 -71.5t-56.5 -190.5q0 -118 56.5 -189t150.5 -71zM745 1194h-331v270h331v-270z" />
    <glyph glyph-name="Gcommaaccent" unicode="&#x122;" horiz-adv-x="1509" 
d="M606 -539v99q135 30 135 123h-129v221h281v-178q0 -120 -77 -187t-210 -78zM739 -33q-312 0 -499 205q-197 215 -197 555q0 354 217 571q192 195 502 195q273 0 442.5 -135t206.5 -373h-352q-21 94 -96.5 151.5t-188.5 57.5q-173 0 -267.5 -126.5t-94.5 -340.5
q0 -207 100 -336q101 -131 268 -131q131 0 218.5 74t99.5 182v4h-275v266h611v-786h-254l-21 176h-4q-135 -209 -416 -209z" />
    <glyph glyph-name="gcommaaccent" unicode="&#x123;" horiz-adv-x="1171" 
d="M717 1202h-283v178q0 120 78 187t211 78v-99q-137 -30 -137 -123h131v-221zM567 -362q-221 0 -354 87t-158 250h324q35 -102 184 -102q201 0 201 201v104h-8q-109 -121 -269 -121q-188 0 -321 133t-133 365t123 379q124 145 317 145q194 0 295 -143h4v113h320v-947
q0 -220 -140 -348q-131 -116 -385 -116zM565 305q102 0 157.5 71t55.5 191q0 113 -57.5 186.5t-155.5 73.5q-94 0 -150.5 -71.5t-56.5 -190.5q0 -118 56.5 -189t150.5 -71z" />
    <glyph glyph-name="Hcircumflex" unicode="&#x124;" horiz-adv-x="1439" 
d="M463 0h-363v1464h363v-555h514v555h362v-1464h-362v610h-514v-610zM627 1536h-287l219 256h320l219 -256h-281l-92 111h-4z" />
    <glyph glyph-name="hcircumflex" unicode="&#x125;" horiz-adv-x="1167" 
d="M414 0h-334v1464h334v-544h6q120 159 311 159q169 0 267 -108.5t98 -288.5v-682h-334v614q0 87 -42.5 137t-121.5 50q-82 0 -133 -61.5t-51 -159.5v-580zM496 1536h-287l219 256h320l219 -256h-281l-92 111h-4z" />
    <glyph glyph-name="Hbar" unicode="&#x126;" horiz-adv-x="1439" 
d="M100 1063h-110v176h110v225h363v-225h514v225h362v-225h111v-176h-111v-1063h-362v610h-514v-610h-363v1063zM463 1063v-154h514v154h-514z" />
    <glyph glyph-name="hbar" unicode="&#x127;" horiz-adv-x="1167" 
d="M80 1159h-105v168h105v137h334v-137h248v-168h-248v-239h6q120 159 311 159q169 0 267 -108.5t98 -288.5v-682h-334v614q0 87 -42.5 137t-121.5 50q-82 0 -133 -61.5t-51 -159.5v-580h-334v1159z" />
    <glyph glyph-name="Itilde" unicode="&#x128;" horiz-adv-x="565" 
d="M465 0h-363v1464h363v-1464zM156 1536q-16 78 -0.5 122t53.5 50l10 6q16 45 80 72q69 29 109 29q19 -67 6.5 -115t-54.5 -55q-9 -9 -16 -9q-13 -42 -76 -69q-67 -31 -112 -31zM258 1655q12 0 0 4l-4 2q0 -2 4 -6zM309 1698q-8 0 4 -6q-4 4 -4 6z" />
    <glyph glyph-name="itilde" unicode="&#x129;" horiz-adv-x="493" 
d="M414 0h-334v1049h334v-1049zM106 1169h-167q0 131 52 204t138 73q55 0 125 -37q56 -33 82 -33q45 0 51 66h166q0 -125 -47.5 -198t-134.5 -73q-66 0 -125 33q-72 35 -88 35q-46 0 -52 -70z" />
    <glyph glyph-name="Imacron" unicode="&#x12a;" horiz-adv-x="565" 
d="M465 0h-363v1464h363v-1464zM575 1561h-585v206h585v-206z" />
    <glyph glyph-name="imacron" unicode="&#x12b;" horiz-adv-x="493" 
d="M414 0h-334v1049h334v-1049zM514 1202h-534v207h534v-207z" />
    <glyph glyph-name="Ibreve" unicode="&#x12c;" horiz-adv-x="565" 
d="M465 0h-363v1464h363v-1464zM518 1608q-90 -84 -231 -84q-142 0 -236 82q-95 83 -98 215h188q5 -43 43.5 -70t100.5 -27q59 0 97.5 27.5t43.5 69.5h188q-6 -129 -96 -213z" />
    <glyph glyph-name="ibreve" unicode="&#x12d;" horiz-adv-x="493" 
d="M414 0h-334v1049h334v-1049zM465 1241q-82 -82 -215 -82q-134 0 -219 82q-85 79 -88 215h184q9 -96 121 -96q50 0 81 27t36 69h184q-3 -131 -84 -215z" />
    <glyph glyph-name="Iogonek" unicode="&#x12e;" horiz-adv-x="565" 
d="M342 -362q-252 0 -252 176q0 112 123 186h-111v1464h363v-1454q-107 -70 -107 -139q0 -51 58 -51q26 0 53 10h2v-174q-47 -18 -129 -18z" />
    <glyph glyph-name="iogonek" unicode="&#x12f;" horiz-adv-x="493" 
d="M291 -362q-246 0 -246 172q0 122 141 190h-106v1049h334v-1041q-103 -68 -103 -137q0 -51 56 -51q26 0 53 10h2v-174q-46 -18 -131 -18zM414 1194h-334v270h334v-270z" />
    <glyph glyph-name="Idot" unicode="&#x130;" horiz-adv-x="565" 
d="M465 0h-363v1464h363v-1464zM449 1542h-332v266h332v-266z" />
    <glyph glyph-name="dotlessi" unicode="&#x131;" horiz-adv-x="493" 
d="M414 0h-334v1049h334v-1049z" />
    <glyph glyph-name="IJ" unicode="&#x132;" horiz-adv-x="1667" 
d="M465 0h-363v1464h363v-1464zM1090 -27q-248 0 -380 124t-132 343v129h329v-120q0 -177 160 -177q152 0 152 172v1020h362v-1028q0 -201 -104 -317q-134 -146 -387 -146z" />
    <glyph glyph-name="ij" unicode="&#x133;" horiz-adv-x="985" 
d="M414 0h-334v1049h334v-1049zM414 1194h-334v270h334v-270zM584 -352q-101 0 -189 16v232q61 0 83 2t48 12q27 10 36 32t9 66v1041h334v-1057q0 -179 -80 -262q-82 -82 -241 -82zM905 1194h-334v270h334v-270z" />
    <glyph glyph-name="Jcircumflex" unicode="&#x134;" horiz-adv-x="1116" 
d="M539 -27q-248 0 -380 124t-132 343v129h329v-120q0 -177 160 -177q152 0 152 172v1020h362v-1028q0 -201 -104 -317q-134 -146 -387 -146zM754 1536h-287l219 256h320l219 -256h-281l-92 111h-4z" />
    <glyph glyph-name="jcircumflex" unicode="&#x135;" horiz-adv-x="493" 
d="M184 1176h-270l166 280h336l162 -280h-265l-61 127h-4zM92 -352q-100 0 -188 16v232q60 0 81.5 2t49.5 12q27 10 36 32t9 66v1041h334v-1057q0 -179 -80 -262q-82 -82 -242 -82z" />
    <glyph glyph-name="Kcommaaccent" unicode="&#x136;" horiz-adv-x="1427" 
d="M557 -539v99q135 30 135 123h-129v221h281v-178q0 -120 -77 -187t-210 -78zM463 0h-363v1464h363v-530l504 530h430l-561 -587l594 -877h-422l-422 633l-123 -129v-504z" />
    <glyph glyph-name="kcommaaccent" unicode="&#x137;" horiz-adv-x="1146" 
d="M442 -539v99q136 30 136 123h-129v221h280v-178q0 -120 -77 -187t-210 -78zM410 0h-330v1464h330v-770l311 355h385l-369 -394l412 -655h-387l-252 428l-100 -106v-322z" />
    <glyph glyph-name="Lacute" unicode="&#x139;" horiz-adv-x="1157" 
d="M403 1536h-253l88 266h383zM1120 0h-1020v1464h363v-1157h657v-307z" />
    <glyph glyph-name="lacute" unicode="&#x13a;" horiz-adv-x="501" 
d="M371 1536h-254l88 266h383zM420 0h-338v1464h338v-1464z" />
    <glyph glyph-name="Lcommaaccent" unicode="&#x13b;" horiz-adv-x="1157" 
d="M467 -539v99q135 30 135 123h-129v221h281v-178q0 -120 -77 -187t-210 -78zM1120 0h-1020v1464h363v-1157h657v-307z" />
    <glyph glyph-name="lcommaaccent" unicode="&#x13c;" horiz-adv-x="501" 
d="M109 -539v99q135 30 135 123h-129v221h280v-178q0 -121 -76.5 -187.5t-209.5 -77.5zM420 0h-338v1464h338v-1464z" />
    <glyph glyph-name="Lcaron" unicode="&#x13d;" horiz-adv-x="1157" 
d="M678 1053v100q125 15 125 92h-121v219h268v-170q0 -115 -71.5 -175t-200.5 -66zM1120 0h-1020v1464h363v-1157h657v-307z" />
    <glyph glyph-name="lcaron" unicode="&#x13e;" horiz-adv-x="501" 
d="M492 1073v96q118 15 118 88h-116v207h256v-161q0 -215 -258 -230zM420 0h-338v1464h338v-1464z" />
    <glyph glyph-name="Ldot" unicode="&#x13f;" horiz-adv-x="1157" 
d="M1120 0h-1020v1464h363v-1157h657v-307zM1079 627h-350v344h350v-344z" />
    <glyph glyph-name="ldot" unicode="&#x140;" horiz-adv-x="845" 
d="M420 0h-338v1464h338v-1464zM838 506h-328v338h328v-338z" />
    <glyph glyph-name="Lslash" unicode="&#x141;" horiz-adv-x="1171" 
d="M1137 0h-1020v444l-125 -63v240l125 63v780h362v-590l391 205v-239l-391 -205v-328h658v-307z" />
    <glyph glyph-name="lslash" unicode="&#x142;" horiz-adv-x="565" 
d="M451 0h-338v471l-109 -80v240l109 80v753h338v-503l122 90v-240l-122 -90v-721z" />
    <glyph glyph-name="Nacute" unicode="&#x143;" horiz-adv-x="1454" 
d="M860 1536h-254l88 266h383zM455 0h-355v1464h365l434 -735l100 -186h5q-1 49 -2 100t-2 81.5t-1 45.5v694h355v-1464h-365l-430 725l-104 197h-4q1 -49 2 -106t1.5 -88t0.5 -46v-682z" />
    <glyph glyph-name="nacute" unicode="&#x144;" horiz-adv-x="1167" 
d="M713 1171h-254l116 304h386zM414 0h-334v1049h321v-144h7q119 174 323 174q169 0 267 -108.5t98 -288.5v-682h-334v614q0 87 -42.5 137t-121.5 50q-82 0 -133 -61.5t-51 -159.5v-580z" />
    <glyph glyph-name="Ncommaaccent" unicode="&#x145;" horiz-adv-x="1454" 
d="M578 -537v99q135 30 135 123h-129v221h280v-178q0 -121 -76.5 -187.5t-209.5 -77.5zM455 0h-355v1464h365l434 -735l100 -186h5q-1 49 -2 100t-2 81.5t-1 45.5v694h355v-1464h-365l-430 725l-104 197h-4q1 -49 2 -106t1.5 -88t0.5 -46v-682z" />
    <glyph glyph-name="ncommaaccent" unicode="&#x146;" horiz-adv-x="1167" 
d="M444 -539v99q136 30 136 123h-129v221h280v-178q0 -120 -77 -187t-210 -78zM414 0h-334v1049h321v-144h7q119 174 323 174q169 0 267 -108.5t98 -288.5v-682h-334v614q0 87 -42.5 137t-121.5 50q-82 0 -133 -61.5t-51 -159.5v-580z" />
    <glyph glyph-name="Ncaron" unicode="&#x147;" horiz-adv-x="1454" 
d="M901 1536h-321l-218 256h281l92 -111h4l92 111h287zM455 0h-355v1464h365l434 -735l100 -186h5q-1 49 -2 100t-2 81.5t-1 45.5v694h355v-1464h-365l-430 725l-104 197h-4q1 -49 2 -106t1.5 -88t0.5 -46v-682z" />
    <glyph glyph-name="ncaron" unicode="&#x148;" horiz-adv-x="1167" 
d="M756 1169h-322l-217 283h281l92 -135h4l92 135h287zM414 0h-334v1049h321v-144h7q119 174 323 174q169 0 267 -108.5t98 -288.5v-682h-334v614q0 87 -42.5 137t-121.5 50q-82 0 -133 -61.5t-51 -159.5v-580z" />
    <glyph glyph-name="napostrophe" unicode="&#x149;" horiz-adv-x="1167" 
d="M414 0h-334v1049h321v-144h7q119 174 323 174q169 0 267 -108.5t98 -288.5v-682h-334v614q0 87 -42.5 137t-121.5 50q-82 0 -133 -61.5t-51 -159.5v-580zM-86 1061v100q123 15 123 90h-121v213h264v-168q0 -220 -266 -235z" />
    <glyph glyph-name="Omacron" unicode="&#x14c;" horiz-adv-x="1529" 
d="M1057 1561h-586v206h586v-206zM766 260q168 0 261 127.5t93 341.5t-93 342.5t-261 128.5q-167 0 -261.5 -129t-94.5 -342q0 -207 94 -338q91 -131 262 -131zM1290 180q-200 -215 -526 -215q-327 0 -524 215q-199 214 -199 549t199 549q197 215 524 215q326 0 526 -215
q199 -214 199 -549t-199 -549z" />
    <glyph glyph-name="omacron" unicode="&#x14d;" horiz-adv-x="1185" 
d="M887 1202h-586v207h586v-207zM428 291q59 -86 164 -86q107 0 166 86q57 83 57 231t-57 234q-59 86 -166 86q-105 0 -164 -86q-57 -83 -57 -234q0 -148 57 -231zM999 125q-158 -158 -405 -158q-248 0 -406 158q-155 155 -155 397q0 243 155 398q157 157 406 157
q248 0 405 -157q154 -157 154 -398q0 -240 -154 -397z" />
    <glyph glyph-name="Obreve" unicode="&#x14e;" horiz-adv-x="1529" 
d="M999 1608q-90 -84 -231 -84q-142 0 -236 82q-95 83 -98 215h189q5 -44 43 -70.5t100 -26.5q59 0 97.5 27.5t43.5 69.5h189q-6 -128 -97 -213zM766 260q168 0 261 127.5t93 341.5t-93 342.5t-261 128.5q-167 0 -261.5 -129t-94.5 -342q0 -207 94 -338q91 -131 262 -131z
M1290 180q-200 -215 -526 -215q-327 0 -524 215q-199 214 -199 549t199 549q197 215 524 215q326 0 526 -215q199 -214 199 -549t-199 -549z" />
    <glyph glyph-name="obreve" unicode="&#x14f;" horiz-adv-x="1185" 
d="M428 291q59 -86 164 -86q107 0 166 86q57 83 57 231t-57 234q-59 86 -166 86q-105 0 -164 -86q-57 -83 -57 -234q0 -148 57 -231zM999 125q-158 -158 -405 -158q-248 0 -406 158q-155 155 -155 397q0 243 155 398q157 157 406 157q248 0 405 -157q154 -157 154 -398
q0 -240 -154 -397zM827 1243q-90 -84 -231 -84q-142 0 -236 82q-95 83 -98 215h189q5 -43 43 -69.5t100 -26.5q59 0 97.5 27t43.5 69h189q-6 -128 -97 -213z" />
    <glyph glyph-name="Ohungarumlaut" unicode="&#x150;" horiz-adv-x="1529" 
d="M766 260q168 0 261 127.5t93 341.5t-93 342.5t-261 128.5q-167 0 -261.5 -129t-94.5 -342q0 -207 94 -338q91 -131 262 -131zM1290 180q-200 -215 -526 -215q-327 0 -524 215q-199 214 -199 549t199 549q197 215 524 215q326 0 526 -215q199 -214 199 -549t-199 -549z
M659 1536h-206l92 287h323zM1059 1536h-207l94 287h324z" />
    <glyph glyph-name="ohungarumlaut" unicode="&#x151;" horiz-adv-x="1185" 
d="M489 1171h-206l100 304h324zM889 1171h-207l100 304h324zM428 291q59 -86 164 -86q107 0 166 86q57 83 57 231t-57 234q-59 86 -166 86q-105 0 -164 -86q-57 -83 -57 -234q0 -148 57 -231zM999 125q-158 -158 -405 -158q-248 0 -406 158q-155 155 -155 397q0 243 155 398
q157 157 406 157q248 0 405 -157q154 -157 154 -398q0 -240 -154 -397z" />
    <glyph glyph-name="OE" unicode="&#x152;" horiz-adv-x="2205" 
d="M731 -35q-302 0 -495 217q-195 216 -195 547q0 330 190 547t484 217q225 0 368 -131v102h1039v-301h-699v-264h590v-281h-590v-301h719v-317h-1059v102q-149 -137 -352 -137zM754 260q111 0 190 50.5t117 129.5v574q-94 186 -307 186q-166 0 -254 -131q-90 -134 -90 -340
q0 -204 90 -338q88 -131 254 -131z" />
    <glyph glyph-name="oe" unicode="&#x153;" horiz-adv-x="1921" 
d="M594 -33q-248 0 -406 158q-155 155 -155 397q0 243 155 398q157 157 406 157q239 0 381 -151q144 153 368 153q218 0 361 -131q185 -167 182 -510h-753q37 -229 237 -229q125 0 174 104h324q-34 -146 -174 -247q-142 -97 -330 -97q-241 0 -387 152q-145 -154 -383 -154z
M428 291q59 -86 164 -86q107 0 166 86q57 83 57 231t-57 234q-59 86 -166 86q-105 0 -164 -86q-57 -83 -57 -234q0 -148 57 -231zM1135 637h413q-11 94 -64 149.5t-134 55.5q-178 0 -215 -205z" />
    <glyph glyph-name="Racute" unicode="&#x154;" horiz-adv-x="1374" 
d="M463 0h-363v1464h701q225 0 368 -110q144 -114 144 -312q0 -266 -254 -354v-6q186 -62 213 -268q12 -70 18 -176q3 -98 13 -158q9 -53 30 -62v-18h-352q-29 18 -41 199q-7 98 -14 141q-27 209 -244 209h-219v-549zM463 1178v-361h272q105 0 161 46.5t56 131.5
q0 84 -54 133.5t-155 49.5h-280zM793 1536h-254l88 266h383z" />
    <glyph glyph-name="racute" unicode="&#x155;" horiz-adv-x="784" 
d="M567 1171h-254l117 304h385zM414 0h-334v1049h319v-164h7q107 180 286 180q50 0 66 -8v-287h-8q-157 23 -246.5 -55t-89.5 -244v-471z" />
    <glyph glyph-name="Rcommaaccent" unicode="&#x156;" horiz-adv-x="1374" 
d="M549 -539v99q135 30 135 123h-129v221h281v-178q0 -120 -77 -187t-210 -78zM463 0h-363v1464h701q225 0 368 -110q144 -114 144 -312q0 -266 -254 -354v-6q186 -62 213 -268q12 -70 18 -176q3 -98 13 -158q9 -53 30 -62v-18h-352q-29 18 -41 199q-7 98 -14 141
q-27 209 -244 209h-219v-549zM463 1178v-361h272q105 0 161 46.5t56 131.5q0 84 -54 133.5t-155 49.5h-280z" />
    <glyph glyph-name="rcommaaccent" unicode="&#x157;" horiz-adv-x="784" 
d="M94 -539v99q135 30 135 123h-129v221h281v-178q0 -120 -77 -187t-210 -78zM414 0h-334v1049h319v-164h7q107 180 286 180q50 0 66 -8v-287h-8q-157 23 -246.5 -55t-89.5 -244v-471z" />
    <glyph glyph-name="Rcaron" unicode="&#x158;" horiz-adv-x="1374" 
d="M836 1536h-322l-217 256h281l92 -111h4l92 111h287zM463 0h-363v1464h701q225 0 368 -110q144 -114 144 -312q0 -266 -254 -354v-6q186 -62 213 -268q12 -70 18 -176q3 -98 13 -158q9 -53 30 -62v-18h-352q-29 18 -41 199q-7 98 -14 141q-27 209 -244 209h-219v-549z
M463 1178v-361h272q105 0 161 46.5t56 131.5q0 84 -54 133.5t-155 49.5h-280z" />
    <glyph glyph-name="rcaron" unicode="&#x159;" horiz-adv-x="784" 
d="M608 1169h-321l-217 283h280l92 -135h4l93 135h286zM414 0h-334v1049h319v-164h7q107 180 286 180q50 0 66 -8v-287h-8q-157 23 -246.5 -55t-89.5 -244v-471z" />
    <glyph glyph-name="Sacute" unicode="&#x15a;" horiz-adv-x="1331" 
d="M684 -35q-299 0 -473 129.5t-180 366.5h364q21 -209 287 -209q104 0 170 39.5t66 114.5q0 49 -40 86t-90 53q-54 18 -167 45q-15 6 -23 6q-162 40 -223 64q-32 13 -68 30q-77 34 -123 78q-47 46 -77.5 117.5t-30.5 154.5q0 225 162 338q158 113 419 113q250 0 410 -115
q159 -116 168 -336h-354q-11 85 -72 131t-164 46q-94 0 -152.5 -38.5t-58.5 -99.5q0 -70 70 -100q65 -32 262 -76q129 -31 204.5 -58.5t153.5 -76.5q160 -103 160 -326q0 -225 -168 -350q-171 -127 -432 -127zM778 1536h-254l88 266h383z" />
    <glyph glyph-name="sacute" unicode="&#x15b;" horiz-adv-x="1032" 
d="M633 1171h-254l117 304h385zM526 -33q-229 0 -366 100t-144 273h316q18 -156 192 -156q76 0 120 28t44 77q0 37 -25 59t-71 37q-2 1 -80 18q-45 10 -90 15q-73 12 -115.5 23t-93.5 34q-55 24 -88 57q-80 73 -80 211q0 159 129 248q128 88 324 88q218 0 339.5 -88
t133.5 -248h-307q-15 123 -168 123q-67 0 -106.5 -25t-39.5 -71q0 -15 6 -27.5t21.5 -22t29 -16t41.5 -13t45 -10t54 -10t55 -9.5q78 -14 121 -24.5t100 -33.5q67 -31 95 -59q38 -36 62 -96t24 -134q0 -164 -130 -256t-348 -92z" />
    <glyph glyph-name="Scircumflex" unicode="&#x15c;" horiz-adv-x="1331" 
d="M684 -35q-299 0 -473 129.5t-180 366.5h364q21 -209 287 -209q104 0 170 39.5t66 114.5q0 49 -40 86t-90 53q-54 18 -167 45q-15 6 -23 6q-162 40 -223 64q-32 13 -68 30q-77 34 -123 78q-47 46 -77.5 117.5t-30.5 154.5q0 225 162 338q158 113 419 113q250 0 410 -115
q159 -116 168 -336h-354q-11 85 -72 131t-164 46q-94 0 -152.5 -38.5t-58.5 -99.5q0 -70 70 -100q65 -32 262 -76q129 -31 204.5 -58.5t153.5 -76.5q160 -103 160 -326q0 -225 -168 -350q-171 -127 -432 -127zM567 1536h-286l219 256h319l219 -256h-280l-92 111h-4z" />
    <glyph glyph-name="scircumflex" unicode="&#x15d;" horiz-adv-x="1032" 
d="M422 1176h-287l219 280h320l219 -280h-281l-92 135h-4zM526 -33q-229 0 -366 100t-144 273h316q18 -156 192 -156q76 0 120 28t44 77q0 37 -25 59t-71 37q-2 1 -80 18q-45 10 -90 15q-73 12 -115.5 23t-93.5 34q-55 24 -88 57q-80 73 -80 211q0 159 129 248
q128 88 324 88q218 0 339.5 -88t133.5 -248h-307q-15 123 -168 123q-67 0 -106.5 -25t-39.5 -71q0 -15 6 -27.5t21.5 -22t29 -16t41.5 -13t45 -10t54 -10t55 -9.5q78 -14 121 -24.5t100 -33.5q67 -31 95 -59q38 -36 62 -96t24 -134q0 -164 -130 -256t-348 -92z" />
    <glyph glyph-name="Scedilla" unicode="&#x15e;" horiz-adv-x="1331" 
d="M610 -395q-129 0 -229 59l41 72q67 -31 141 -31q111 0 111 59q0 56 -78 56q-32 0 -72 -15l-35 50l113 114q-265 17 -416 145t-155 347h364q21 -209 287 -209q104 0 170 39.5t66 114.5q0 49 -40 86t-90 53q-54 18 -167 45q-15 6 -23 6q-162 40 -223 64q-32 13 -68 30
q-77 34 -123 78q-47 46 -77.5 117.5t-30.5 154.5q0 225 162 338q158 113 419 113q250 0 410 -115q159 -116 168 -336h-354q-11 85 -72 131t-164 46q-94 0 -152.5 -38.5t-58.5 -99.5q0 -70 70 -100q65 -32 262 -76q129 -31 204.5 -58.5t153.5 -76.5q160 -103 160 -326
q0 -214 -156 -340t-405 -135l-74 -63v-4q94 11 155.5 -26.5t61.5 -111.5q0 -71 -71 -114t-185 -43z" />
    <glyph glyph-name="scedilla" unicode="&#x15f;" horiz-adv-x="1032" 
d="M465 -395q-129 0 -229 59l40 72q67 -31 142 -31q110 0 110 59q0 56 -77 56q-31 0 -72 -15l-35 50l115 114q-203 17 -320 114.5t-123 256.5h316q18 -156 192 -156q76 0 120 28t44 77q0 37 -25 59t-71 37q-2 1 -80 18q-45 10 -90 15q-73 12 -115.5 23t-93.5 34
q-55 24 -88 57q-80 73 -80 211q0 159 129 248q128 88 324 88q218 0 339.5 -88t133.5 -248h-307q-15 123 -168 123q-67 0 -106.5 -25t-39.5 -71q0 -15 6 -27.5t21.5 -22t29 -16t41.5 -13t45 -10t54 -10t55 -9.5q78 -14 121 -24.5t100 -33.5q67 -31 95 -59q38 -36 62 -96
t24 -134q0 -153 -113.5 -243.5t-308.5 -102.5l-78 -65v-4q94 11 155.5 -26.5t61.5 -111.5q0 -71 -71 -114t-185 -43z" />
    <glyph glyph-name="Scaron" unicode="&#x160;" horiz-adv-x="1331" 
d="M684 -35q-299 0 -473 129.5t-180 366.5h364q21 -209 287 -209q104 0 170 39.5t66 114.5q0 49 -40 86t-90 53q-54 18 -167 45q-15 6 -23 6q-162 40 -223 64q-32 13 -68 30q-77 34 -123 78q-47 46 -77.5 117.5t-30.5 154.5q0 225 162 338q158 113 419 113q250 0 410 -115
q159 -116 168 -336h-354q-11 85 -72 131t-164 46q-94 0 -152.5 -38.5t-58.5 -99.5q0 -70 70 -100q65 -32 262 -76q129 -31 204.5 -58.5t153.5 -76.5q160 -103 160 -326q0 -225 -168 -350q-171 -127 -432 -127zM821 1536h-321l-217 256h280l92 -111h4l93 111h286z" />
    <glyph glyph-name="scaron" unicode="&#x161;" horiz-adv-x="1032" 
d="M674 1169h-322l-217 283h281l92 -135h4l92 135h287zM526 -33q-229 0 -366 100t-144 273h316q18 -156 192 -156q76 0 120 28t44 77q0 37 -25 59t-71 37q-2 1 -80 18q-45 10 -90 15q-73 12 -115.5 23t-93.5 34q-55 24 -88 57q-80 73 -80 211q0 159 129 248q128 88 324 88
q218 0 339.5 -88t133.5 -248h-307q-15 123 -168 123q-67 0 -106.5 -25t-39.5 -71q0 -15 6 -27.5t21.5 -22t29 -16t41.5 -13t45 -10t54 -10t55 -9.5q78 -14 121 -24.5t100 -33.5q67 -31 95 -59q38 -36 62 -96t24 -134q0 -164 -130 -256t-348 -92z" />
    <glyph glyph-name="Tcommaaccent" unicode="&#x162;" horiz-adv-x="1288" 
d="M500 -539v99q135 30 135 123h-129v221h280v-178q0 -121 -76.5 -187.5t-209.5 -77.5zM823 0h-362v1157h-426v307h1218v-307h-430v-1157z" />
    <glyph glyph-name="tcommaaccent" unicode="&#x163;" horiz-adv-x="718" 
d="M256 -539v99q135 30 135 123h-129v221h281v-178q0 -120 -77 -187t-210 -78zM496 -12q-166 0 -250 67t-84 221v564h-139v209h139v331h325v-331h191v-209h-191v-492q0 -55 29 -78.5t88 -23.5q14 0 43.5 1t30.5 1v-244q-62 -16 -182 -16z" />
    <glyph glyph-name="Tcaron" unicode="&#x164;" horiz-adv-x="1288" 
d="M805 1536h-322l-217 256h281l92 -111h4l92 111h287zM823 0h-362v1157h-426v307h1218v-307h-430v-1157z" />
    <glyph glyph-name="tcaron" unicode="&#x165;" horiz-adv-x="718" 
d="M162 840h-139v209h139v331h325v-331h191v-209h-191v-492q0 -102 117 -102q10 0 28 0.5t32 1.5h14v-244q-62 -16 -182 -16q-166 0 -250 67t-84 221v564zM559 1092v96q119 15 119 82h-117v194h256v-157q0 -101 -68.5 -155.5t-189.5 -59.5z" />
    <glyph glyph-name="Tbar" unicode="&#x166;" horiz-adv-x="1288" 
d="M461 604h-275v215h275v338h-426v307h1218v-307h-430v-338h279v-215h-279v-604h-362v604z" />
    <glyph glyph-name="tbar" unicode="&#x167;" horiz-adv-x="718" 
d="M162 840h-139v209h139v331h325v-331h191v-209h-191v-125h191v-168h-191v-199q0 -102 117 -102q14 0 43.5 1t30.5 1v-244q-62 -16 -182 -16q-166 0 -250 67t-84 221v271h-142v168h142v125z" />
    <glyph glyph-name="Utilde" unicode="&#x168;" horiz-adv-x="1404" 
d="M705 -27q-300 0 -457.5 141t-157.5 402v948h363v-960q0 -240 252 -240q119 0 183 65.5t64 180.5v954h363v-948q0 -260 -156 -401.5t-454 -141.5zM573 1536q-17 75 -1 120.5t55 51.5l10 6q16 45 80 72q69 29 108 29q20 -67 7.5 -115t-54.5 -55q-9 -9 -16 -9
q-13 -42 -76 -69q-67 -31 -113 -31zM676 1655q12 0 0 4l-4 2q0 -2 4 -6zM727 1698q-8 0 4 -6q-4 4 -4 6z" />
    <glyph glyph-name="utilde" unicode="&#x169;" horiz-adv-x="1159" 
d="M440 -31q-176 0 -272 104.5t-96 286.5v689h331v-619q0 -178 158 -178q85 0 134.5 58t49.5 153v586h334v-1049h-319v129h-6q-121 -160 -314 -160zM410 1169h-172q0 131 58 204t153 73q67 0 135 -39q73 -37 100 -37q52 0 61 72h173q0 -125 -54 -198t-151 -73q-62 0 -135 33
q-79 39 -107 39q-52 0 -61 -74z" />
    <glyph glyph-name="Umacron" unicode="&#x16a;" horiz-adv-x="1404" 
d="M993 1561h-585v206h585v-206zM705 -27q-300 0 -457.5 141t-157.5 402v948h363v-960q0 -240 252 -240q119 0 183 65.5t64 180.5v954h363v-948q0 -260 -156 -401.5t-454 -141.5z" />
    <glyph glyph-name="umacron" unicode="&#x16b;" horiz-adv-x="1159" 
d="M440 -31q-176 0 -272 104.5t-96 286.5v689h331v-619q0 -178 158 -178q85 0 134.5 58t49.5 153v586h334v-1049h-319v129h-6q-121 -160 -314 -160zM870 1202h-585v207h585v-207z" />
    <glyph glyph-name="Ubreve" unicode="&#x16c;" horiz-adv-x="1404" 
d="M936 1608q-90 -84 -231 -84q-142 0 -236 82q-95 83 -98 215h188q5 -44 43 -70.5t100 -26.5q59 0 98 27.5t44 69.5h188q-6 -129 -96 -213zM705 -27q-300 0 -457.5 141t-157.5 402v948h363v-960q0 -240 252 -240q119 0 183 65.5t64 180.5v954h363v-948q0 -260 -156 -401.5
t-454 -141.5z" />
    <glyph glyph-name="ubreve" unicode="&#x16d;" horiz-adv-x="1159" 
d="M440 -31q-176 0 -272 104.5t-96 286.5v689h331v-619q0 -178 158 -178q85 0 134.5 58t49.5 153v586h334v-1049h-319v129h-6q-121 -160 -314 -160zM811 1243q-90 -84 -231 -84q-142 0 -236 82q-95 83 -98 215h188q5 -43 43.5 -69.5t100.5 -26.5q59 0 97.5 27t43.5 69h188
q-6 -129 -96 -213z" />
    <glyph glyph-name="Uring" unicode="&#x16e;" horiz-adv-x="1404" 
d="M705 -27q-300 0 -457.5 141t-157.5 402v948h363v-960q0 -240 252 -240q119 0 183 65.5t64 180.5v954h363v-948q0 -260 -156 -401.5t-454 -141.5zM641 1628q23 -26 59.5 -26t61.5 26q25 25 25 62t-25 63q-25 25 -61.5 25t-59.5 -25q-25 -26 -25 -63t25 -62zM848 1546
q-61 -57 -147.5 -56.5t-147.5 58.5t-61 142t61 143q43 46 107 55t119.5 -13t94.5 -72t35 -113q0 -86 -61 -144z" />
    <glyph glyph-name="uring" unicode="&#x16f;" horiz-adv-x="1159" 
d="M516 1282q23 -25 59.5 -25t61.5 25t25 62t-25 63q-25 25 -61.5 25t-59.5 -25q-25 -26 -25 -63t25 -62zM723 1202q-61 -58 -147.5 -58t-147.5 58q-62 58 -62 141.5t62 143.5q61 60 147.5 60t147.5 -60t61 -143.5t-61 -141.5zM440 -31q-176 0 -272 104.5t-96 286.5v689h331
v-619q0 -178 158 -178q85 0 134.5 58t49.5 153v586h334v-1049h-319v129h-6q-121 -160 -314 -160z" />
    <glyph glyph-name="Uhungarumlaut" unicode="&#x170;" horiz-adv-x="1404" 
d="M705 -27q-300 0 -457.5 141t-157.5 402v948h363v-960q0 -240 252 -240q119 0 183 65.5t64 180.5v954h363v-948q0 -260 -156 -401.5t-454 -141.5zM596 1536h-207l92 287h324zM995 1536h-207l95 287h323z" />
    <glyph glyph-name="uhungarumlaut" unicode="&#x171;" horiz-adv-x="1159" 
d="M440 -31q-176 0 -272 104.5t-96 286.5v689h331v-619q0 -178 158 -178q85 0 134.5 58t49.5 153v586h334v-1049h-319v129h-6q-121 -160 -314 -160zM473 1171h-207l101 304h323zM872 1171h-206l100 304h324z" />
    <glyph glyph-name="Uogonek" unicode="&#x172;" horiz-adv-x="1404" 
d="M817 -362q-252 0 -252 172q0 90 90 165q-277 10 -421 149.5t-144 391.5v948h363v-960q0 -240 252 -240q119 0 183 65.5t64 180.5v954h363v-948q0 -353 -289 -479q-115 -57 -153.5 -89t-38.5 -77q0 -51 57 -51q26 0 53 10h2v-174q-46 -18 -129 -18z" />
    <glyph glyph-name="uogonek" unicode="&#x173;" horiz-adv-x="1159" 
d="M954 -362q-247 0 -247 172q0 122 145 190h-92v129h-6q-121 -160 -314 -160q-176 0 -272 104.5t-96 286.5v689h331v-619q0 -178 158 -178q85 0 134.5 58t49.5 153v586h334v-1037q-106 -72 -106 -141q0 -51 57 -51q26 0 53 10h2v-174q-47 -18 -131 -18z" />
    <glyph glyph-name="Wcircumflex" unicode="&#x174;" horiz-adv-x="1925" 
d="M758 0h-357l-401 1464h367l147 -614l68 -363h4q70 344 71 349l138 628h335l138 -624l69 -353h4q46 249 74 367l146 610h364l-401 -1464h-355l-153 702l-51 273h-4q-18 -117 -50 -273zM870 1536h-286l219 256h319l219 -256h-280l-92 111h-4z" />
    <glyph glyph-name="wcircumflex" unicode="&#x175;" horiz-adv-x="1603" 
d="M709 1176h-287l219 280h320l219 -280h-281l-92 135h-4zM627 0h-310l-321 1049h340l115 -435l47 -202h4q14 70 47 209l110 428h283l115 -428l49 -211h4q22 99 49 204l117 435h330l-322 -1049h-313l-123 475l-45 189h-4q-8 -34 -47 -189z" />
    <glyph glyph-name="Ycircumflex" unicode="&#x176;" horiz-adv-x="1357" 
d="M860 0h-362v541l-496 923h395l189 -379l96 -223h4q60 141 100 223l187 379h383l-496 -923v-541zM590 1536h-287l219 256h320l219 -256h-281l-92 111h-4z" />
    <glyph glyph-name="ycircumflex" unicode="&#x177;" horiz-adv-x="1083" 
d="M332 -346h-217v260h114q138 0 138 111q0 55 -64 217l-309 807h352l141 -447l66 -242h4q29 146 61 242l138 447h334l-363 -1063q-65 -186 -149 -258q-89 -74 -246 -74zM455 1176h-287l219 280h320l219 -280h-281l-92 135h-4z" />
    <glyph glyph-name="Ydieresis" unicode="&#x178;" horiz-adv-x="1357" 
d="M860 0h-362v541l-496 923h395l189 -379l96 -223h4q60 141 100 223l187 379h383l-496 -923v-541zM618 1542h-313v262h313v-262zM1059 1542h-314v262h314v-262z" />
    <glyph glyph-name="Zacute" unicode="&#x179;" horiz-adv-x="1327" 
d="M1272 0h-1219v289l633 758l98 108v6q-28 -1 -60.5 -2t-50.5 -1.5t-28 -0.5h-541v307h1141v-284l-614 -738l-119 -131v-6q156 4 162 4h598v-309zM799 1536h-254l88 266h383z" />
    <glyph glyph-name="zacute" unicode="&#x17a;" horiz-adv-x="1034" 
d="M670 1171h-254l116 304h386zM989 0h-940v248l416 448l90 92v7q-63 -2 -129 -2h-328v256h860v-246l-397 -432l-106 -109v-6q72 2 155 2h379v-258z" />
    <glyph glyph-name="Zdotaccent" unicode="&#x17b;" horiz-adv-x="1327" 
d="M846 1542h-332v266h332v-266zM1272 0h-1219v289l633 758l98 108v6q-28 -1 -60.5 -2t-50.5 -1.5t-28 -0.5h-541v307h1141v-284l-614 -738l-119 -131v-6q156 4 162 4h598v-309z" />
    <glyph glyph-name="zdotaccent" unicode="&#x17c;" horiz-adv-x="1034" 
d="M989 0h-940v248l416 448l90 92v7q-63 -2 -129 -2h-328v256h860v-246l-397 -432l-106 -109v-6q72 2 155 2h379v-258zM717 1194h-332v270h332v-270z" />
    <glyph glyph-name="Zcaron" unicode="&#x17d;" horiz-adv-x="1327" 
d="M842 1536h-322l-217 256h281l92 -111h4l92 111h287zM1272 0h-1219v289l633 758l98 108v6q-28 -1 -60.5 -2t-50.5 -1.5t-28 -0.5h-541v307h1141v-284l-614 -738l-119 -131v-6q156 4 162 4h598v-309z" />
    <glyph glyph-name="zcaron" unicode="&#x17e;" horiz-adv-x="1034" 
d="M713 1169h-322l-217 283h281l92 -135h4l92 135h287zM989 0h-940v248l416 448l90 92v7q-63 -2 -129 -2h-328v256h860v-246l-397 -432l-106 -109v-6q72 2 155 2h379v-258z" />
    <glyph glyph-name="florin" unicode="&#x192;" horiz-adv-x="870" 
d="M-35 -309v217q83 -6 116.5 14.5t43.5 93.5l92 629h-158v209h189l39 264q21 158 112 234q122 105 424 67v-233q-60 4 -101.5 1t-66 -28t-32.5 -78l-33 -227h198v-209h-229l-96 -668q-24 -170 -119 -241q-108 -79 -379 -45z" />
    <glyph glyph-name="AEacute" unicode="&#x1fc;" horiz-adv-x="2037" 
d="M1325 1536h-254l88 266h383zM356 0h-358l496 1464h1462v-301h-707v-264h600v-281h-600v-301h729v-317h-1095v258h-443zM733 1163l-211 -653h361v653h-150z" />
    <glyph glyph-name="aeacute" unicode="&#x1fd;" horiz-adv-x="1812" 
d="M1049 1171h-254l116 304h385zM436 -29q-185 0 -292 85t-107 237q0 153 100 227.5t303 102.5q156 20 217 43q56 21 56 73q0 113 -148 113q-162 0 -174 -135h-307q6 160 132 260t347 100q249 0 350 -110q130 112 328 112q204 0 342 -114q204 -168 201 -527h-754
q37 -229 238 -229q125 0 174 104h323q-34 -140 -166 -239q-135 -105 -337 -105q-258 0 -404 168q-83 -89 -179 -127.5t-243 -38.5zM502 186q97 0 158 52.5t61 136.5v125q-54 -28 -178 -56q-107 -24 -148 -53t-41 -88q0 -117 148 -117zM1247 842q-178 0 -215 -205h414
q-11 94 -64.5 149.5t-134.5 55.5z" />
    <glyph glyph-name="Oslashacute" unicode="&#x1fe;" horiz-adv-x="1529" 
d="M317 109l-159 -181l-113 103l164 184q-168 204 -168 514q0 335 199 549q197 215 524 215q262 0 450 -147l156 174l115 -101l-162 -180q166 -205 166 -510q0 -335 -199 -549q-200 -215 -526 -215q-260 0 -447 144zM451 485l548 619q-93 96 -233 96q-167 0 -261.5 -129
t-94.5 -342q0 -141 41 -244zM766 260q168 0 261 127.5t93 341.5q0 140 -39 238l-546 -615q89 -92 231 -92zM883 1536h-254l88 266h383z" />
    <glyph glyph-name="oslashacute" unicode="&#x1ff;" horiz-adv-x="1185" 
d="M266 61l-121 -135l-90 88l117 129q-139 151 -139 379q0 243 155 398q157 157 406 157q184 0 330 -96l118 131l91 -86l-115 -127q135 -153 135 -377q0 -240 -154 -397q-158 -158 -405 -158q-185 0 -328 94zM592 205q105 0 164 85t59 232q0 65 -16 131l-350 -389
q53 -59 143 -59zM389 387l352 389q-60 66 -149 66q-105 0 -163 -85.5t-58 -234.5q0 -76 18 -135zM713 1171h-254l116 304h386z" />
    <glyph glyph-name="Scommaaccent" unicode="&#x218;" horiz-adv-x="1331" 
d="M516 -539v99q135 30 135 123h-129v221h281v-178q0 -120 -77 -187t-210 -78zM684 -35q-299 0 -473 129.5t-180 366.5h364q21 -209 287 -209q104 0 170 39.5t66 114.5q0 49 -40 86t-90 53q-54 18 -167 45q-15 6 -23 6q-162 40 -223 64q-32 13 -68 30q-77 34 -123 78
q-47 46 -77.5 117.5t-30.5 154.5q0 225 162 338q158 113 419 113q250 0 410 -115q159 -116 168 -336h-354q-11 85 -72 131t-164 46q-94 0 -152.5 -38.5t-58.5 -99.5q0 -70 70 -100q65 -32 262 -76q129 -31 204.5 -58.5t153.5 -76.5q160 -103 160 -326q0 -225 -168 -350
q-171 -127 -432 -127z" />
    <glyph glyph-name="scommaaccent" unicode="&#x219;" horiz-adv-x="1032" 
d="M371 -539v99q135 30 135 123h-129v221h280v-178q0 -121 -76.5 -187.5t-209.5 -77.5zM526 -33q-229 0 -366 100t-144 273h316q18 -156 192 -156q76 0 120 28t44 77q0 37 -25 59t-71 37q-2 1 -80 18q-45 10 -90 15q-73 12 -115.5 23t-93.5 34q-55 24 -88 57q-80 73 -80 211
q0 159 129 248q128 88 324 88q218 0 339.5 -88t133.5 -248h-307q-15 123 -168 123q-67 0 -106.5 -25t-39.5 -71q0 -15 6 -27.5t21.5 -22t29 -16t41.5 -13t45 -10t54 -10t55 -9.5q78 -14 121 -24.5t100 -33.5q67 -31 95 -59q38 -36 62 -96t24 -134q0 -164 -130 -256t-348 -92
z" />
    <glyph glyph-name="uni021A" unicode="&#x21a;" horiz-adv-x="1288" 
d="M500 -539v99q135 30 135 123h-129v221h280v-178q0 -121 -76.5 -187.5t-209.5 -77.5zM823 0h-362v1157h-426v307h1218v-307h-430v-1157z" />
    <glyph glyph-name="uni021B" unicode="&#x21b;" horiz-adv-x="718" 
d="M256 -539v99q135 30 135 123h-129v221h281v-178q0 -120 -77 -187t-210 -78zM496 -12q-166 0 -250 67t-84 221v564h-139v209h139v331h325v-331h191v-209h-191v-492q0 -55 29 -78.5t88 -23.5q14 0 43.5 1t30.5 1v-244q-62 -16 -182 -16z" />
    <glyph glyph-name="uni0237" unicode="&#x237;" horiz-adv-x="493" 
d="M92 -352q-100 0 -188 16v232q60 0 81.5 2t49.5 12q27 10 36 32t9 66v1041h334v-1057q0 -179 -80 -262q-82 -82 -242 -82z" />
    <glyph glyph-name="circumflex" unicode="&#x2c6;" 
d="M420 1176h-287l219 280h320l219 -280h-281l-92 135h-4z" />
    <glyph glyph-name="caron" unicode="&#x2c7;" 
d="M674 1169h-322l-217 283h281l92 -135h4l92 135h287z" />
    <glyph glyph-name="uni02C9" unicode="&#x2c9;" 
d="M811 1212h-586v207h586v-207z" />
    <glyph glyph-name="breve" unicode="&#x2d8;" 
d="M786 1243q-90 -84 -231 -84q-142 0 -236 82q-95 83 -98 215h189q5 -43 43 -69.5t100 -26.5q59 0 97.5 27t43.5 69h189q-6 -128 -97 -213z" />
    <glyph glyph-name="dotaccent" unicode="&#x2d9;" 
d="M678 1194h-332v270h332v-270z" />
    <glyph glyph-name="ring" unicode="&#x2da;" 
d="M453 1282q23 -25 59 -25t61 25t25 62t-25 63q-25 25 -61 25t-59 -25q-25 -26 -25 -63t25 -62zM659 1202q-61 -58 -146.5 -58t-147.5 58q-61 58 -61 141.5t61 143.5t147 60t147 -60t61 -143.5t-61 -141.5z" />
    <glyph glyph-name="ogonek" unicode="&#x2db;" 
d="M502 -362q-254 0 -254 172q0 123 143 190h207q-84 -72 -84 -129q0 -51 57 -51q27 0 54 10h2v-174q-46 -18 -125 -18z" />
    <glyph glyph-name="tilde" unicode="&#x2dc;" 
d="M344 1169h-172q0 131 58 204t153 73q67 0 135 -39q73 -37 100 -37q53 0 62 72h172q0 -125 -54 -198t-151 -73q-62 0 -135 33q-79 39 -106 39q-53 0 -62 -74z" />
    <glyph glyph-name="hungarumlaut" unicode="&#x2dd;" 
d="M403 1171h-206l100 304h324zM803 1171h-207l100 304h324z" />
    <glyph glyph-name="pi" unicode="&#x3c0;" horiz-adv-x="1296" 
d="M1085 -10q-313 0 -313 278v572h-270v-840h-326v840h-145v209h1216v-209h-149v-521q0 -47 17.5 -66.5t58.5 -19.5q18 0 53 5v-234q-57 -14 -142 -14z" />
    <glyph glyph-name="Wgrave" unicode="&#x1e80;" horiz-adv-x="1925" 
d="M1110 1536h-254l-217 266h383zM758 0h-357l-401 1464h367l147 -614l68 -363h4q70 344 71 349l138 628h335l138 -624l69 -353h4q46 249 74 367l146 610h364l-401 -1464h-355l-153 702l-51 273h-4q-18 -117 -50 -273z" />
    <glyph glyph-name="wgrave" unicode="&#x1e81;" horiz-adv-x="1603" 
d="M627 0h-310l-321 1049h340l115 -435l47 -202h4q14 70 47 209l110 428h283l115 -428l49 -211h4q22 99 49 204l117 435h330l-322 -1049h-313l-123 475l-45 189h-4q-8 -34 -47 -189zM948 1171h-254l-248 304h385z" />
    <glyph glyph-name="Wacute" unicode="&#x1e82;" horiz-adv-x="1925" 
d="M1081 1536h-254l88 266h383zM758 0h-357l-401 1464h367l147 -614l68 -363h4q70 344 71 349l138 628h335l138 -624l69 -353h4q46 249 74 367l146 610h364l-401 -1464h-355l-153 702l-51 273h-4q-18 -117 -50 -273z" />
    <glyph glyph-name="wacute" unicode="&#x1e83;" horiz-adv-x="1603" 
d="M920 1171h-254l116 304h385zM627 0h-310l-321 1049h340l115 -435l47 -202h4q14 70 47 209l110 428h283l115 -428l49 -211h4q22 99 49 204l117 435h330l-322 -1049h-313l-123 475l-45 189h-4q-8 -34 -47 -189z" />
    <glyph glyph-name="Wdieresis" unicode="&#x1e84;" horiz-adv-x="1925" 
d="M899 1542h-313v262h313v-262zM1339 1542h-313v262h313v-262zM758 0h-357l-401 1464h367l147 -614l68 -363h4q70 344 71 349l138 628h335l138 -624l69 -353h4q46 249 74 367l146 610h364l-401 -1464h-355l-153 702l-51 273h-4q-18 -117 -50 -273z" />
    <glyph glyph-name="wdieresis" unicode="&#x1e85;" horiz-adv-x="1603" 
d="M727 1182h-313v262h313v-262zM1188 1182h-314v262h314v-262zM627 0h-310l-321 1049h340l115 -435l47 -202h4q14 70 47 209l110 428h283l115 -428l49 -211h4q22 99 49 204l117 435h330l-322 -1049h-313l-123 475l-45 189h-4q-8 -34 -47 -189z" />
    <glyph glyph-name="Ygrave" unicode="&#x1ef2;" horiz-adv-x="1357" 
d="M860 0h-362v541l-496 923h395l189 -379l96 -223h4q60 141 100 223l187 379h383l-496 -923v-541zM829 1536h-254l-217 266h383z" />
    <glyph glyph-name="ygrave" unicode="&#x1ef3;" horiz-adv-x="1083" 
d="M332 -346h-217v260h114q138 0 138 111q0 55 -64 217l-309 807h352l141 -447l66 -242h4q29 146 61 242l138 447h334l-363 -1063q-65 -186 -149 -258q-89 -74 -246 -74zM694 1171h-254l-247 304h385z" />
    <glyph glyph-name="uni2009" unicode="&#x2009;" horiz-adv-x="112" 
 />
    <glyph glyph-name="endash" unicode="&#x2013;" horiz-adv-x="1167" 
d="M1079 379h-991v287h991v-287z" />
    <glyph glyph-name="emdash" unicode="&#x2014;" horiz-adv-x="1910" 
d="M1823 379h-1735v287h1735v-287z" />
    <glyph glyph-name="quoteleft" unicode="&#x2018;" horiz-adv-x="446" 
d="M375 862h-305v268q0 150 88 238q84 87 223 102v-118q-64 -19 -104.5 -69.5t-40.5 -115.5h139v-305z" />
    <glyph glyph-name="quoteright" unicode="&#x2019;" horiz-adv-x="446" 
d="M66 856v119q64 19 104.5 69t40.5 115h-139v305h305v-268q0 -147 -88 -238q-84 -87 -223 -102z" />
    <glyph glyph-name="quotesinglbase" unicode="&#x201a;" horiz-adv-x="446" 
d="M66 -305v121q64 19 104.5 68.5t40.5 115.5h-139v305h305v-268q0 -146 -88 -240q-87 -87 -223 -102z" />
    <glyph glyph-name="quotedblleft" unicode="&#x201c;" horiz-adv-x="876" 
d="M375 862h-305v268q0 150 88 238q84 87 223 102v-118q-64 -19 -104.5 -69.5t-40.5 -115.5h139v-305zM805 862h-305v268q0 150 88 238q84 87 223 102v-118q-64 -19 -104.5 -69.5t-40.5 -115.5h139v-305z" />
    <glyph glyph-name="quotedblright" unicode="&#x201d;" horiz-adv-x="876" 
d="M66 856v119q64 19 104.5 69t40.5 115h-139v305h305v-268q0 -147 -88 -238q-84 -87 -223 -102zM496 856v119q64 19 104.5 69t40.5 115h-139v305h305v-268q0 -147 -88 -238q-84 -87 -223 -102z" />
    <glyph glyph-name="quotedblbase" unicode="&#x201e;" horiz-adv-x="876" 
d="M66 -305v121q64 19 104.5 68.5t40.5 115.5h-139v305h305v-268q0 -146 -88 -240q-87 -87 -223 -102zM496 -305v121q64 19 104.5 68.5t40.5 115.5h-139v305h305v-268q0 -146 -88 -240q-87 -87 -223 -102z" />
    <glyph glyph-name="dagger" unicode="&#x2020;" horiz-adv-x="1206" 
d="M778 -293h-348v1073h-360v275h360v409h348v-409h359v-275h-359v-1073z" />
    <glyph glyph-name="daggerdbl" unicode="&#x2021;" horiz-adv-x="1208" 
d="M778 -293h-348v412h-360v274h360v387h-360v275h360v409h348v-409h359v-275h-359v-387h359v-274h-359v-412z" />
    <glyph glyph-name="bullet" unicode="&#x2022;" horiz-adv-x="765" 
d="M600 438q-93 -90 -217 -90q-125 0 -215 90q-92 89 -92 217t92 217q91 91 215 91q123 0 217 -91q90 -90 90 -217t-90 -217z" />
    <glyph glyph-name="ellipsis" unicode="&#x2026;" horiz-adv-x="1548" 
d="M416 0h-350v344h350v-344zM950 0h-350v344h350v-344zM1483 0h-348v344h348v-344z" />
    <glyph glyph-name="perthousand" unicode="&#x2030;" horiz-adv-x="2594" 
d="M293 1022q0 -231 123 -231t123 231q0 238 -123 238t-123 -238zM686 725q-107 -113 -270 -113q-165 0 -269 113q-106 112 -106 297q0 187 106 299q104 113 269 113q168 0 271.5 -113.5t103.5 -298.5q0 -183 -105 -297zM602 0h-192l757 1405h191zM1231 377q0 -234 123 -234
t123 234q0 235 -123 235t-123 -235zM1624 78q-107 -113 -270 -113t-269 115q-106 112 -106 297t106 297q103 112 269 112q168 0 271.5 -112t103.5 -297t-105 -299zM2058 377q0 -234 123 -234t123 234q0 109 -31.5 172t-91.5 63q-123 0 -123 -235zM2179 -35q-162 0 -268 115
q-107 113 -107 297t107 297q103 112 268 112q168 0 272.5 -112t104.5 -297t-105 -299q-107 -113 -272 -113z" />
    <glyph glyph-name="uni2032" unicode="&#x2032;" horiz-adv-x="456" 
d="M334 913h-291l80 551h291z" />
    <glyph glyph-name="uni2033" unicode="&#x2033;" horiz-adv-x="870" 
d="M334 913h-291l80 551h291zM748 913h-291l80 551h290z" />
    <glyph glyph-name="guilsinglleft" unicode="&#x2039;" horiz-adv-x="542" 
d="M438 373v-303l-348 288v316l348 287v-306l-174 -139v-4z" />
    <glyph glyph-name="guilsinglright" unicode="&#x203a;" horiz-adv-x="542" 
d="M453 356l-349 -286v305l175 139v4l-175 139v304l349 -289v-316z" />
    <glyph glyph-name="fraction" unicode="&#x2044;" horiz-adv-x="581" 
d="M-164 0h-207l1114 1464h209z" />
    <glyph glyph-name="Euro" unicode="&#x20ac;" horiz-adv-x="1333" 
d="M754 -33q-236 0 -398.5 143.5t-212.5 391.5h-112v131h96q-2 14 -2 65v52h-94v133h110q47 253 209 401q164 150 400 150q243 0 388.5 -136.5t164.5 -367.5h-340q-30 229 -218 229q-201 0 -251 -276h315v-133h-328q-9 -40 0 -117h328v-131h-313q52 -258 258 -258
q100 0 156.5 67t70.5 187h332q-14 -245 -161.5 -388t-397.5 -143z" />
    <glyph glyph-name="uni2113" unicode="&#x2113;" horiz-adv-x="821" 
d="M463 -10q-178 0 -261 71t-83 246v53l-24.5 -7t-36.5 -10t-38 -9v196l99 33v576q0 342 350 342q313 0 313 -340q0 -434 -344 -643v-123q0 -75 26 -102t101 -27q52 0 113 6v-244q-70 -18 -215 -18zM438 1155v-397q4 4 14.5 17.5t14.5 17.5q86 124 86 362q0 115 -57 115
q-58 0 -58 -115z" />
    <glyph glyph-name="trademark" unicode="&#x2122;" horiz-adv-x="1431" 
d="M807 901h-164v563h248l88 -317h4l90 317h250v-563h-168v338h-4l-104 -338h-134l-102 338h-4v-338zM406 901h-183v416h-160v147h502v-147h-159v-416z" />
    <glyph glyph-name="Omega" unicode="&#x2126;" horiz-adv-x="1517" 
d="M686 0h-627v272h207v7q-223 143 -223 501q0 315 199 514q196 199 518 199q319 0 518 -199q197 -200 197 -514q0 -356 -222 -501v-7h205v-272h-627v262q275 59 275 481q0 219 -88.5 338t-257.5 119t-258.5 -119.5t-89.5 -337.5q0 -422 274 -481v-262z" />
    <glyph glyph-name="estimated" unicode="&#x212e;" horiz-adv-x="1271" 
d="M670 -23q-290 0 -453 181q-166 181 -166 475q0 287 170 469t438 182q224 0 363 -121q200 -170 197 -547h-848v-454q118 -86 299 -86q173 0 276.5 75.5t159.5 229.5h104q-42 -187 -182.5 -295.5t-357.5 -108.5zM371 1104v-397h536v419q-111 66 -248 66q-175 0 -288 -88z
" />
    <glyph glyph-name="onethird" unicode="&#x2153;" horiz-adv-x="1759" 
d="M481 651h-248v479h-186v166q203 9 238 177h196v-822zM360 0h-206l1114 1464h209zM1366 -20q-177 0 -272 79t-97 217h232q6 -122 127 -122q53 0 81.5 25t28.5 69q0 94 -129 94h-47v156h41q119 0 119 84q0 37 -25 58.5t-69 21.5q-100 0 -109 -103h-225q5 121 97 195.5
t247 74.5q144 0 232 -62.5t88 -170.5q0 -106 -119 -158v-2q143 -52 143 -198q0 -124 -93.5 -191t-250.5 -67z" />
    <glyph glyph-name="twothirds" unicode="&#x2154;" horiz-adv-x="1923" 
d="M750 651h-689q3 183 152 299q50 44 135 94q88 54 103 66q61 46 61 100q0 86 -94 86q-56 0 -87.5 -37t-31.5 -104h-225q0 154 94.5 240t255.5 86q149 0 236.5 -73t87.5 -185q0 -133 -111 -222q-37 -32 -129 -83q-91 -54 -115 -78v-2h357v-187zM555 0h-207l1114 1464h209z
M1530 -20q-177 0 -272 79t-97 217h232q6 -122 127 -122q53 0 81.5 25t28.5 69q0 94 -129 94h-47v156h41q119 0 119 84q0 37 -25 58.5t-69 21.5q-100 0 -109 -103h-225q5 121 97 195.5t247 74.5q144 0 231.5 -62.5t87.5 -170.5q0 -106 -118 -158v-2q143 -52 143 -198
q0 -124 -93.5 -191t-250.5 -67z" />
    <glyph glyph-name="oneeighth" unicode="&#x215b;" horiz-adv-x="1773" 
d="M481 651h-248v479h-186v166q203 9 238 177h196v-822zM365 0h-207l1114 1464h209zM1360 -20q-170 0 -266.5 66.5t-96.5 182.5q0 139 150 201q-2 2 0 4q-115 53 -115 166q0 101 90 165t238 64q152 0 240 -60.5t88 -164.5q0 -112 -111 -164v-4q147 -56 147 -200
q0 -119 -96.5 -187.5t-267.5 -68.5zM1360 141q57 0 91 29t34 76q0 50 -34 80t-89 30q-57 0 -91 -30t-34 -80q0 -47 34 -76t89 -29zM1284 524q28 -26 77 -26t77 26q28 25 28 66t-28 67q-28 25 -77 25t-77 -25q-28 -26 -28 -67t28 -66z" />
    <glyph glyph-name="threeeighths" unicode="&#x215c;" horiz-adv-x="1878" 
d="M418 633q-177 0 -272 78.5t-97 216.5h232q6 -123 127 -123q53 0 81.5 25t28.5 69q0 94 -129 94h-47v156h41q119 0 119 84q0 37 -25 58.5t-69 21.5q-100 0 -109 -103h-225q5 121 97 196t247 75q144 0 231.5 -63t87.5 -171q0 -105 -119 -157v-3q144 -53 144 -198
q0 -124 -93.5 -190t-250.5 -66zM498 0h-207l1114 1464h209zM1464 -20q-170 0 -266 66.5t-96 182.5q0 140 149 201q-2 2 0 4q-114 53 -114 166q0 101 89.5 165t237.5 64q152 0 240 -60.5t88 -164.5q0 -112 -111 -164v-4q148 -56 148 -200q0 -119 -97 -187.5t-268 -68.5z
M1464 141q57 0 91 29t34 76q0 50 -34 80t-89 30q-57 0 -91 -30t-34 -80q0 -47 34 -76t89 -29zM1389 524q28 -26 76.5 -26t76.5 26q28 25 28 66t-28 67q-28 25 -76.5 25t-76.5 -25q-28 -26 -28 -67t28 -66z" />
    <glyph glyph-name="fiveeighths" unicode="&#x215d;" horiz-adv-x="1853" 
d="M403 633q-149 0 -246.5 70t-109.5 190h219q15 -86 133 -86q54 0 85.5 33.5t31.5 89.5q0 57 -31.5 89t-85.5 32q-77 0 -112 -50h-207l84 463h532v-176h-368l-29 -135h4q57 51 168 51q124 0 202.5 -73t78.5 -195q0 -137 -95.5 -220t-253.5 -83zM465 0h-207l1114 1464h209z
M1440 -20q-170 0 -266.5 66.5t-96.5 182.5q0 139 150 201q-2 2 0 4q-115 53 -115 166q0 101 90 165t238 64q152 0 239.5 -60.5t87.5 -164.5q0 -112 -110 -164v-4q147 -56 147 -200q0 -119 -96.5 -187.5t-267.5 -68.5zM1440 141q57 0 91 29t34 76q0 50 -34 80t-89 30
q-57 0 -91 -30t-34 -80q0 -47 34 -76t89 -29zM1364 524q28 -26 77 -26t77 26q28 25 28 66t-28 67q-28 25 -77 25t-77 -25q-28 -26 -28 -67t28 -66z" />
    <glyph glyph-name="seveneighths" unicode="&#x215e;" horiz-adv-x="1722" 
d="M305 0h-207l1114 1464h209zM1309 -20q-170 0 -266.5 66.5t-96.5 182.5q0 139 150 201q-2 2 0 4q-115 53 -115 166q0 101 90 165t238 64q152 0 239.5 -60.5t87.5 -164.5q0 -112 -110 -164v-4q147 -56 147 -200q0 -119 -96.5 -187.5t-267.5 -68.5zM1309 141q57 0 91 29
t34 76q0 50 -34 80t-89 30q-57 0 -91 -30t-34 -80q0 -47 34 -76t89 -29zM1233 524q28 -26 76.5 -26t76.5 26q28 25 28 66t-28 67q-28 25 -76.5 25t-76.5 -25q-28 -26 -28 -67t28 -66zM434 651h-262q9 358 277 617v2h-398v194h639v-174q-115 -113 -183.5 -279t-72.5 -360z
" />
    <glyph glyph-name="partialdiff" unicode="&#x2202;" horiz-adv-x="1187" 
d="M553 -31q-243 0 -377.5 127t-134.5 344q0 232 141 379q143 146 365 146q153 0 237 -78q-64 259 -479 309v283q410 -20 622 -232.5t212 -603.5q0 -323 -149.5 -498.5t-436.5 -175.5zM557 207q107 0 168 88.5t61 222.5q0 104 -47.5 159.5t-132.5 55.5q-105 0 -168 -79
t-63 -214q0 -114 47.5 -173.5t134.5 -59.5z" />
    <glyph glyph-name="increment" unicode="&#x2206;" horiz-adv-x="1392" 
d="M625 895l-219 -623h565l-217 623l-62 217h-4q-41 -156 -63 -217zM1350 0h-1305v225l465 1239h371l469 -1237v-227z" />
    <glyph glyph-name="product" unicode="&#x220f;" horiz-adv-x="1472" 
d="M465 -205h-356v1669h1255v-1669h-356v1372h-543v-1372z" />
    <glyph glyph-name="summation" unicode="&#x2211;" horiz-adv-x="1251" 
d="M1192 -205h-1126v297l516 553v4l-516 529v286h1105v-282h-698v-4l457 -453v-143l-471 -492v-4h733v-291z" />
    <glyph glyph-name="minus" unicode="&#x2212;" horiz-adv-x="1159" 
d="M1077 541h-995v268h995v-268z" />
    <glyph glyph-name="uni2215" unicode="&#x2215;" horiz-adv-x="581" 
d="M-164 0h-207l1114 1436h209z" />
    <glyph glyph-name="uni2219" unicode="&#x2219;" horiz-adv-x="481" 
d="M416 479h-350v344h350v-344z" />
    <glyph glyph-name="radical" unicode="&#x221a;" horiz-adv-x="1335" 
d="M770 -205h-321l-267 615h-153v282h383l100 -254l80 -229h4q25 118 63 231l330 1024h332z" />
    <glyph glyph-name="infinity" unicode="&#x221e;" horiz-adv-x="1484" 
d="M379 244q-155 0 -244 108q-90 110 -90 273q0 162 90 272q89 109 244 109q116 0 201.5 -54.5t167.5 -169.5q84 117 164.5 170.5t191.5 53.5q150 0 243 -105t93 -276q0 -172 -93 -276.5t-243 -104.5q-111 0 -192 52.5t-164 168.5q-82 -114 -167 -167.5t-202 -53.5zM410 485
q86 0 168 138q-83 139 -168 139q-67 8 -95 -65t0 -146.5t95 -65.5zM1077 485q54 0 82.5 38t28.5 102q0 62 -28.5 99.5t-82.5 37.5q-79 0 -162 -139q83 -138 162 -138z" />
    <glyph glyph-name="integral" unicode="&#x222b;" horiz-adv-x="747" 
d="M184 -360q-108 0 -194 22v246h2q47 -8 96 -8q65 0 93 23t28 83v1170q0 170 78 254q88 88 282 88q105 0 193 -21v-248h-4q-57 11 -99 11q-63 -2 -89.5 -25t-26.5 -82v-1171q0 -168 -78 -252q-90 -90 -281 -90z" />
    <glyph glyph-name="approxequal" unicode="&#x2248;" horiz-adv-x="1118" 
d="M289 256h-219q1 173 74.5 259.5t207.5 86.5q75 0 230 -35t192 -35q36 0 51.5 16t20.5 52h219q0 -334 -268 -334q-92 0 -238 33q-149 33 -194 33q-67 0 -76 -76zM289 684h-219q1 173 74.5 258.5t207.5 85.5q84 0 230 -33q151 -34 192 -34q36 0 51.5 15t20.5 52h219
q0 -334 -268 -334q-92 0 -238 33q-149 33 -194 33q-67 0 -76 -76z" />
    <glyph glyph-name="notequal" unicode="&#x2260;" horiz-adv-x="1153" 
d="M526 725h-422v256h543l80 172h211l-80 -172h205v-256h-326l-84 -182h410v-256h-531l-77 -168h-211l78 168h-218v256h338z" />
    <glyph glyph-name="lessequal" unicode="&#x2264;" horiz-adv-x="1028" 
d="M932 541v-275l-844 281v311l844 281v-267l-375 -116l-195 -54v-4q91 -21 195 -49zM932 0h-844v231h844v-231z" />
    <glyph glyph-name="greaterequal" unicode="&#x2265;" horiz-adv-x="1028" 
d="M940 547l-844 -281v273l375 112l195 49v5q-76 19 -195 53l-375 112v269l844 -281v-311zM940 0h-844v231h844v-231z" />
    <glyph glyph-name="uni24C5" unicode="&#x24c5;" horiz-adv-x="1673" 
d="M760 297h-236v848h394q151 0 237 -80q88 -76 88 -215q0 -123 -81 -203t-208 -80h-194v-270zM760 952v-204h137q68 -8 96.5 47t0 110t-96.5 47h-137zM838 72q266 0 448 188q180 186 180 467q0 285 -180 471t-448 186q-271 0 -451 -186t-180 -471q0 -281 180 -467
q182 -188 451 -188zM838 -35q-318 0 -537 219t-219 543q0 326 219 545t537 219q319 0 536 -217t217 -547q0 -326 -217 -543q-219 -219 -536 -219z" />
    <glyph glyph-name="lozenge" unicode="&#x25ca;" horiz-adv-x="1220" 
d="M375 737l235 -452h4l232 440l-236 457h-4zM776 0h-330l-413 733l411 731h330l414 -733z" />
    <glyph glyph-name="uniF8FF" unicode="&#xf8ff;" horiz-adv-x="1732" 
d="M719 588v-346h295v346h344v295h-344v334h-295v-334h-344v-295h344zM1599 0h-1466v1466h1466v-1466z" />
    <glyph glyph-name="null" horiz-adv-x="0" 
 />
    <glyph glyph-name="idotaccent" horiz-adv-x="493" 
d="M414 0h-334v1049h334v-1049zM414 1194h-334v270h334v-270z" />
    <glyph glyph-name="grave.cap" 
d="M674 1536h-254l-217 266h383z" />
    <glyph glyph-name="acute.cap" 
d="M604 1536h-254l88 266h383z" />
    <glyph glyph-name="circumflex.cap" 
d="M420 1536h-287l219 256h320l219 -256h-281l-92 111h-4z" />
    <glyph glyph-name="caron.cap" 
d="M674 1536h-322l-217 256h281l92 -111h4l92 111h287z" />
    <glyph glyph-name="caron.alt" 
d="M377 1073v96q119 15 119 88h-117v207h256v-161q0 -215 -258 -230z" />
    <glyph glyph-name="tilde.cap" 
d="M385 1536q-16 78 -0.5 122t53.5 50l11 6q16 45 79 72q69 29 109 29q20 -67 7.5 -115t-54.5 -55q-9 -9 -17 -9q-13 -43 -75 -69q-67 -31 -113 -31zM487 1655q12 0 0 4l-4 2q0 -2 4 -6zM539 1698q-8 0 4 -6q-4 4 -4 6z" />
    <glyph glyph-name="dieresis.cap" 
d="M449 1542h-314v262h314v-262zM889 1542h-314v262h314v-262z" />
    <glyph glyph-name="macron.cap" 
d="M811 1561h-586v206h586v-206z" />
    <glyph glyph-name="breve.cap" 
d="M786 1608q-90 -84 -231 -84q-142 0 -236 82q-95 83 -98 215h189q5 -44 43 -70.5t100 -26.5q59 0 97.5 27.5t43.5 69.5h189q-6 -128 -97 -213z" />
    <glyph glyph-name="ring.cap" 
d="M453 1653q23 -26 59 -26t61 26q25 25 25 62t-25 63q-25 25 -61 25t-59 -25q-25 -26 -25 -63t25 -62zM659 1571q-61 -57 -147 -56.5t-147 58.5q-61 59 -61 143t61 142q43 46 107 55t119.5 -13.5t94.5 -72.5t35 -113q0 -84 -62 -143z" />
    <glyph glyph-name="hungarumlaut.cap" 
d="M403 1536h-206l92 287h323zM803 1536h-207l94 287h324z" />
    <glyph glyph-name="dotaccent.cap" 
d="M678 1542h-332v266h332v-266z" />
    <glyph glyph-name="space_uni0326" 
d="M369 -539v99q135 30 135 123h-129v221h280v-178q0 -121 -76.5 -187.5t-209.5 -77.5z" />
    <glyph glyph-name="space_uni0326.alt" 
d="M653 1202h-282v178q0 120 77.5 187t210.5 78v-99q-137 -30 -137 -123h131v-221z" />
    <glyph glyph-name="R.alt" horiz-adv-x="1384" 
d="M469 0h-369v1464h666q256 0 401 -133q148 -142 148 -350q0 -142 -71.5 -249t-201.5 -163l340 -569h-407l-297 518h-209v-518zM469 1159v-356h276q97 0 150 47t53 133t-52 131t-151 45h-276z" />
    <glyph glyph-name="Racute.alt" horiz-adv-x="1384" 
d="M807 1536h-254l88 266h383zM469 0h-369v1464h666q256 0 401 -133q148 -142 148 -350q0 -142 -71.5 -249t-201.5 -163l340 -569h-407l-297 518h-209v-518zM469 1159v-356h276q97 0 150 47t53 133t-52 131t-151 45h-276z" />
    <glyph glyph-name="Rcaron.alt" horiz-adv-x="1384" 
d="M850 1536h-322l-217 256h281l92 -111h4l92 111h287zM469 0h-369v1464h666q256 0 401 -133q148 -142 148 -350q0 -142 -71.5 -249t-201.5 -163l340 -569h-407l-297 518h-209v-518zM469 1159v-356h276q97 0 150 47t53 133t-52 131t-151 45h-276z" />
    <glyph glyph-name="Rcommaaccent.alt" horiz-adv-x="1384" 
d="M547 -539v99q135 30 135 123h-129v221h281v-178q0 -120 -77 -187t-210 -78zM469 0h-369v1464h666q256 0 401 -133q148 -142 148 -350q0 -142 -71.5 -249t-201.5 -163l340 -569h-407l-297 518h-209v-518zM469 1159v-356h276q97 0 150 47t53 133t-52 131t-151 45h-276z" />
    <glyph glyph-name="a.alt" horiz-adv-x="1107" 
d="M387 -27q-164 0 -260 84t-96 234q0 153 100.5 229.5t300.5 102.5q156 19 211 42.5t55 73.5q0 113 -147 113q-156 0 -168 -135h-307q5 161 128.5 260.5t344.5 99.5q241 0 360 -98q117 -99 117 -287v-411q0 -49 15.5 -65.5t54.5 -10.5h6v-195q-64 -28 -146 -28
q-206 0 -241 141h-2q-108 -150 -326 -150zM496 186q94 0 152.5 52t58.5 137v125q-58 -33 -172 -56q-101 -24 -142 -54.5t-41 -86.5q0 -117 144 -117z" />
    <glyph glyph-name="aacute.alt" horiz-adv-x="1107" 
d="M678 1171h-254l117 304h385zM387 -27q-164 0 -260 84t-96 234q0 153 100.5 229.5t300.5 102.5q156 19 211 42.5t55 73.5q0 113 -147 113q-156 0 -168 -135h-307q5 161 128.5 260.5t344.5 99.5q241 0 360 -98q117 -99 117 -287v-411q0 -49 15.5 -65.5t54.5 -10.5h6v-195
q-64 -28 -146 -28q-206 0 -241 141h-2q-108 -150 -326 -150zM496 186q94 0 152.5 52t58.5 137v125q-58 -33 -172 -56q-101 -24 -142 -54.5t-41 -86.5q0 -117 144 -117z" />
    <glyph glyph-name="abreve.alt" horiz-adv-x="1107" 
d="M387 -27q-164 0 -260 84t-96 234q0 153 100.5 229.5t300.5 102.5q156 19 211 42.5t55 73.5q0 113 -147 113q-156 0 -168 -135h-307q5 161 128.5 260.5t344.5 99.5q241 0 360 -98q117 -99 117 -287v-411q0 -49 15.5 -65.5t54.5 -10.5h6v-195q-64 -28 -146 -28
q-206 0 -241 141h-2q-108 -150 -326 -150zM496 186q94 0 152.5 52t58.5 137v125q-58 -33 -172 -56q-101 -24 -142 -54.5t-41 -86.5q0 -117 144 -117zM795 1243q-90 -84 -232 -84q-141 0 -235 82q-96 84 -99 215h189q5 -43 43 -69.5t100 -26.5q59 0 97.5 27t43.5 69h189
q-6 -129 -96 -213z" />
    <glyph glyph-name="acircumflex.alt" horiz-adv-x="1107" 
d="M467 1176h-287l219 280h320l219 -280h-281l-92 135h-4zM387 -27q-164 0 -260 84t-96 234q0 153 100.5 229.5t300.5 102.5q156 19 211 42.5t55 73.5q0 113 -147 113q-156 0 -168 -135h-307q5 161 128.5 260.5t344.5 99.5q241 0 360 -98q117 -99 117 -287v-411
q0 -49 15.5 -65.5t54.5 -10.5h6v-195q-64 -28 -146 -28q-206 0 -241 141h-2q-108 -150 -326 -150zM496 186q94 0 152.5 52t58.5 137v125q-58 -33 -172 -56q-101 -24 -142 -54.5t-41 -86.5q0 -117 144 -117z" />
    <glyph glyph-name="adieresis.alt" horiz-adv-x="1107" 
d="M485 1182h-313v262h313v-262zM946 1182h-313v262h313v-262zM387 -27q-164 0 -260 84t-96 234q0 153 100.5 229.5t300.5 102.5q156 19 211 42.5t55 73.5q0 113 -147 113q-156 0 -168 -135h-307q5 161 128.5 260.5t344.5 99.5q241 0 360 -98q117 -99 117 -287v-411
q0 -49 15.5 -65.5t54.5 -10.5h6v-195q-64 -28 -146 -28q-206 0 -241 141h-2q-108 -150 -326 -150zM496 186q94 0 152.5 52t58.5 137v125q-58 -33 -172 -56q-101 -24 -142 -54.5t-41 -86.5q0 -117 144 -117z" />
    <glyph glyph-name="agrave.alt" horiz-adv-x="1107" 
d="M387 -27q-164 0 -260 84t-96 234q0 153 100.5 229.5t300.5 102.5q156 19 211 42.5t55 73.5q0 113 -147 113q-156 0 -168 -135h-307q5 161 128.5 260.5t344.5 99.5q241 0 360 -98q117 -99 117 -287v-411q0 -49 15.5 -65.5t54.5 -10.5h6v-195q-64 -28 -146 -28
q-206 0 -241 141h-2q-108 -150 -326 -150zM496 186q94 0 152.5 52t58.5 137v125q-58 -33 -172 -56q-101 -24 -142 -54.5t-41 -86.5q0 -117 144 -117zM707 1171h-254l-248 304h385z" />
    <glyph glyph-name="amacron.alt" horiz-adv-x="1107" 
d="M387 -27q-164 0 -260 84t-96 234q0 153 100.5 229.5t300.5 102.5q156 19 211 42.5t55 73.5q0 113 -147 113q-156 0 -168 -135h-307q5 161 128.5 260.5t344.5 99.5q241 0 360 -98q117 -99 117 -287v-411q0 -49 15.5 -65.5t54.5 -10.5h6v-195q-64 -28 -146 -28
q-206 0 -241 141h-2q-108 -150 -326 -150zM496 186q94 0 152.5 52t58.5 137v125q-58 -33 -172 -56q-101 -24 -142 -54.5t-41 -86.5q0 -117 144 -117zM852 1202h-586v207h586v-207z" />
    <glyph glyph-name="aogonek.alt" horiz-adv-x="1107" 
d="M967 -362q-246 0 -246 172q0 112 129 186q-111 24 -135 127h-2q-108 -150 -326 -150q-164 0 -260 84t-96 234q0 153 100.5 229.5t300.5 102.5q156 19 211 42.5t55 73.5q0 113 -147 113q-156 0 -168 -135h-307q5 161 128.5 260.5t344.5 99.5q241 0 360 -98
q117 -99 117 -287v-411q0 -49 15.5 -65.5t54.5 -10.5h6v-195q-115 -59 -115 -139q0 -51 57 -51q27 0 54 10h2v-174q-46 -18 -133 -18zM496 186q94 0 152.5 52t58.5 137v125q-58 -33 -172 -56q-101 -24 -142 -54.5t-41 -86.5q0 -117 144 -117z" />
    <glyph glyph-name="aring.alt" horiz-adv-x="1107" 
d="M500 1282q23 -25 59.5 -25t61.5 25t25 62t-25 63q-25 25 -61.5 25t-59.5 -25q-25 -26 -25 -63t25 -62zM707 1202q-61 -58 -147 -58t-148 58t-62 141.5t62 143.5t148 60t147 -60t61 -143.5t-61 -141.5zM387 -27q-164 0 -260 84t-96 234q0 153 100.5 229.5t300.5 102.5
q156 19 211 42.5t55 73.5q0 113 -147 113q-156 0 -168 -135h-307q5 161 128.5 260.5t344.5 99.5q241 0 360 -98q117 -99 117 -287v-411q0 -49 15.5 -65.5t54.5 -10.5h6v-195q-64 -28 -146 -28q-206 0 -241 141h-2q-108 -150 -326 -150zM496 186q94 0 152.5 52t58.5 137v125
q-58 -33 -172 -56q-101 -24 -142 -54.5t-41 -86.5q0 -117 144 -117z" />
    <glyph glyph-name="atilde.alt" horiz-adv-x="1107" 
d="M387 -27q-164 0 -260 84t-96 234q0 153 100.5 229.5t300.5 102.5q156 19 211 42.5t55 73.5q0 113 -147 113q-156 0 -168 -135h-307q5 161 128.5 260.5t344.5 99.5q241 0 360 -98q117 -99 117 -287v-411q0 -49 15.5 -65.5t54.5 -10.5h6v-195q-64 -28 -146 -28
q-206 0 -241 141h-2q-108 -150 -326 -150zM496 186q94 0 152.5 52t58.5 137v125q-58 -33 -172 -56q-101 -24 -142 -54.5t-41 -86.5q0 -117 144 -117zM391 1169h-172q0 131 58 204t153 73q67 0 135 -39q73 -37 101 -37q52 0 61 72h172q0 -125 -54 -198t-151 -73
q-62 0 -135 33q-79 39 -106 39q-53 0 -62 -74z" />
    <glyph glyph-name="Ccedilla.alt" horiz-adv-x="1437" 
d="M604 -346v76q133 9 133 84h-131v174q-256 50 -409 252q-156 200 -156 487q0 332 199 549t522 217q248 0 418 -129q192 -145 219 -403h-363q-14 102 -88.5 166.5t-187.5 64.5q-168 0 -259 -125.5t-91 -339.5q0 -203 96 -334q94 -129 256 -129q118 0 195.5 67t89.5 177h362
q-15 -220 -176 -375q-138 -132 -354 -156v-118q0 -205 -275 -205z" />
    <glyph glyph-name="Scedilla.alt" horiz-adv-x="1331" 
d="M530 -346v76q133 9 136 84h-131v166q-236 30 -368 153t-136 328h364q21 -209 287 -209q104 0 170 39.5t66 114.5q0 49 -40 86t-90 53q-54 18 -167 45q-15 6 -23 6q-162 40 -223 64q-32 13 -68 30q-77 34 -123 78q-47 46 -77.5 117.5t-30.5 154.5q0 225 162 338
q158 113 419 113q250 0 410 -115q159 -116 168 -336h-354q-11 85 -72 131t-164 46q-94 0 -152.5 -38.5t-58.5 -99.5q0 -70 70 -100q65 -32 262 -76q129 -31 204.5 -58.5t153.5 -76.5q160 -103 160 -326q0 -193 -129 -315.5t-348 -149.5v-118q0 -205 -277 -205z" />
    <glyph glyph-name="ccedilla.alt" horiz-adv-x="1114" 
d="M440 -346v76q126 9 129 84h-125v174q-190 41 -300.5 186t-110.5 348q0 241 151 398t398 157q207 0 340 -109.5t157 -291.5h-321q-34 155 -172 155q-105 0 -160 -80.5t-55 -228.5q0 -144 56 -224.5t159 -80.5q161 0 182 180h319q-6 -159 -107.5 -270.5t-270.5 -142.5v-125
q0 -205 -269 -205z" />
    <glyph glyph-name="scedilla.alt" horiz-adv-x="1032" 
d="M383 -346v76q126 9 129 84h-125v166q-172 29 -268.5 122t-102.5 238h316q18 -156 192 -156q76 0 120 28t44 77q0 37 -25 59t-71 37q-2 1 -80 18q-45 10 -90 15q-73 12 -115.5 23t-93.5 34q-55 24 -88 57q-80 73 -80 211q0 159 129 248q128 88 324 88q218 0 339.5 -88
t133.5 -248h-307q-15 123 -168 123q-67 0 -106.5 -25t-39.5 -71q0 -15 6 -27.5t21.5 -22t29 -16t41.5 -13t45 -10t54 -10t55 -9.5q78 -14 121 -24.5t100 -33.5q67 -31 95 -59q38 -36 62 -96t24 -134q0 -138 -94 -225.5t-259 -112.5v-118q0 -205 -268 -205z" />
    <glyph glyph-name="hyphen.cap" horiz-adv-x="700" 
d="M651 500h-602v317h602v-317z" />
    <glyph glyph-name="endash.cap" horiz-adv-x="1167" 
d="M1079 522h-991v287h991v-287z" />
    <glyph glyph-name="emdash.cap" horiz-adv-x="1910" 
d="M1823 522h-1735v287h1735v-287z" />
    <glyph glyph-name="questiondown.cap" horiz-adv-x="1120" 
d="M547 -27q-228 0 -369 117q-143 116 -143 303q0 82 30.5 153t71.5 107q27 27 92 72q143 91 170 121q39 48 39 141h297q0 -142 -28 -209q-30 -64 -113 -135q-11 -11 -88 -63q-69 -49 -92 -82q-27 -38 -27 -95q0 -68 49 -110.5t125 -42.5q93 0 149.5 57.5t57.5 155.5h328
q-3 -219 -150 -354q-148 -136 -399 -136zM766 1120h-348v344h348v-344z" />
    <glyph glyph-name="exclamdown.cap" horiz-adv-x="540" 
d="M442 0h-344v348l86 639h172l86 -639v-348zM444 1120h-348v344h348v-344z" />
    <glyph glyph-name="parenleft.cap" horiz-adv-x="698" 
d="M664 -195h-281q-266 403 -266 867q0 526 264 919h283q-218 -425 -218 -919q0 -239 54.5 -442t163.5 -425z" />
    <glyph glyph-name="parenright.cap" horiz-adv-x="698" 
d="M315 -195h-280q217 444 217 914q0 454 -217 872h282q265 -404 265 -872q0 -512 -267 -914z" />
    <glyph glyph-name="bracketleft.cap" horiz-adv-x="815" 
d="M748 -195h-629v1786h629v-258h-314v-1272h314v-256z" />
    <glyph glyph-name="bracketright.cap" horiz-adv-x="815" 
d="M698 -195h-628v256h313v1272h-313v258h628v-1786z" />
    <glyph glyph-name="braceleft.cap" horiz-adv-x="815" 
d="M748 -195h-52q-247 0 -360 84q-113 85 -113 312v223q0 76 -40 113t-132 41v245q92 4 132 41t40 113v219q0 226 113 311q113 84 360 84h52v-258h-37q-97 0 -134.5 -27.5t-37.5 -107.5v-274q0 -94 -31 -143t-102 -76v-7q72 -30 102.5 -78.5t30.5 -142.5v-276q0 -80 38 -110
t134 -30h37v-256z" />
    <glyph glyph-name="braceright.cap" horiz-adv-x="815" 
d="M121 -195h-51v256h36q97 0 135 28t38 108v278q0 97 30 145.5t103 75.5v6q-73 27 -103 75.5t-30 144.5v272q0 80 -39 109.5t-134 29.5h-36v258h51q246 0 362 -84q111 -86 111 -311v-219q0 -79 39.5 -116t130.5 -38v-245q-91 -4 -130.5 -41t-39.5 -113v-223
q0 -227 -111 -312q-116 -84 -362 -84z" />
    <glyph glyph-name="guillemotleft.cap" horiz-adv-x="901" 
d="M406 500v-287l-316 272v320l316 268v-293l-166 -137v-4zM797 500v-287l-310 272v320l310 268v-293l-162 -137v-4z" />
    <glyph glyph-name="guillemotright.cap" horiz-adv-x="901" 
d="M414 481l-310 -268v293l162 137v4l-162 139v287l310 -272v-320zM811 481l-315 -268v293l166 137v4l-166 139v287l315 -272v-320z" />
    <glyph glyph-name="guilsinglleft.cap" horiz-adv-x="542" 
d="M438 500v-303l-348 288v316l348 289v-308l-174 -139v-4z" />
    <glyph glyph-name="guilsinglright.cap" horiz-adv-x="542" 
d="M453 485l-349 -288v307l175 139v4l-175 139v304l349 -289v-316z" />
    <glyph glyph-name="registered.alt" horiz-adv-x="1673" 
d="M731 315h-233v830h409q139 0 225.5 -65t86.5 -179q0 -142 -142 -201v-4q101 -34 119 -149q4 -23 10.5 -91t10.5 -89q3 -29 18 -35v-17h-231q-10 0 -15.5 31t-9.5 84t-8 76q-11 58 -38.5 81t-86.5 23h-115v-295zM731 965v-185h135q117 0 117 92q0 93 -113 93h-139zM838 72
q266 0 448 188q180 186 180 467q0 285 -180 471t-448 186q-271 0 -451 -186t-180 -471q0 -281 180 -467q182 -188 451 -188zM838 -35q-318 0 -537 219t-219 543q0 326 219 545t537 219q319 0 536 -217t217 -547q0 -326 -217 -543q-219 -219 -536 -219z" />
    <glyph glyph-name="dollar.cap" horiz-adv-x="1314" 
d="M727 -221h-129v198q-262 17 -411.5 143.5t-153.5 344.5h352q10 -97 61.5 -146.5t151.5 -60.5v342q-114 28 -174.5 47t-130.5 53q-77 34 -117 78q-100 100 -100 266q0 205 139.5 319.5t382.5 125.5v135h129v-135q225 -19 357.5 -133.5t142.5 -313.5h-332q-18 143 -168 170
v-305q138 -33 219.5 -63t157.5 -80q153 -103 153 -324q0 -207 -145 -331q-146 -125 -385 -134v-196zM907 412q0 60 -42 95t-138 62v-313q180 21 180 156zM420 1079q0 -54 41.5 -85.5t136.5 -55.5v281q-83 -8 -130.5 -44.5t-47.5 -95.5z" />
    <glyph glyph-name="Euro.cap" horiz-adv-x="1384" 
d="M782 -35q-246 0 -413.5 149.5t-218.5 409.5h-117v138h100q-5 45 -2 120h-98v138h114q47 262 215 417q172 158 416 158q254 0 404.5 -142t169.5 -384h-353q-34 241 -225 241q-214 0 -266 -290h332v-138h-344q-9 -44 0 -120h344v-138h-330q58 -272 272 -272
q103 0 163.5 72.5t72.5 195.5h346q-15 -252 -166 -403q-152 -152 -416 -152z" />
    <glyph glyph-name="sterling.cap" horiz-adv-x="1257" 
d="M893 -33q-121 0 -244 53q-128 52 -205 52q-95 0 -225 -92l-172 260q203 129 203 292q0 37 -10 89h-183v194h86q-61 113 -61 223q0 201 147 330q148 127 418 127q252 0 400 -121q164 -132 170 -413h-340q0 126 -59.5 188.5t-166.5 62.5q-93 0 -145.5 -49.5t-52.5 -134.5
q0 -81 69 -213h303v-194h-239q2 -6 2 -37q0 -157 -156 -271l4 -6q143 63 320 6q77 -26 131 -26q101 0 196 86l148 -275q-149 -131 -338 -131z" />
    <glyph glyph-name="yen.cap" horiz-adv-x="1363" 
d="M852 0h-346v274h-361v138h361v120h-361v138h306l-445 796h400l184 -370l92 -211h4q48 117 94 211l183 370h389l-447 -796h307v-138h-360v-120h360v-138h-360v-274z" />
    <glyph glyph-name="zero.cap" horiz-adv-x="1394" 
d="M698 254q279 0 279 477q0 228 -70.5 353.5t-208.5 125.5q-140 0 -210 -125.5t-70 -353.5q0 -477 280 -477zM696 -35q-290 0 -469 209q-178 208 -178 557q0 350 180 557t469 207q294 0 471 -207t177 -557t-177 -557q-179 -209 -473 -209z" />
    <glyph glyph-name="one.cap" horiz-adv-x="868" 
d="M731 0h-360v940h-312v240q156 6 257.5 80.5t127.5 212.5h287v-1473z" />
    <glyph glyph-name="two.cap" horiz-adv-x="1226" 
d="M1169 0h-1124q1 164 65 281.5t195 228.5q44 38 213 166q160 122 213 172q82 76 82 166q0 86 -47 139q-48 51 -141 51q-103 0 -158 -61q-68 -77 -68 -221h-336q0 225 95 364q139 207 475 207q260 0 397 -131q139 -133 139 -336q0 -133 -59 -228t-184 -192
q-7 -6 -30.5 -22.5t-66.5 -48.5l-86 -64q-153 -114 -213 -180v-2h639v-289z" />
    <glyph glyph-name="three.cap" horiz-adv-x="1275" 
d="M649 -33q-303 0 -469 152q-149 137 -149 385h336q15 -262 268 -262q108 0 167.5 54.5t59.5 149.5q0 193 -248 193h-86v246h78q106 0 167 45t61 129q0 75 -53 121.5t-140 46.5q-109 0 -168 -61t-65 -165h-332q5 226 155 360t412 134q251 0 397 -109.5t146 -300.5
q0 -209 -228 -297v-4q269 -83 269 -356q0 -225 -164 -342q-165 -119 -414 -119z" />
    <glyph glyph-name="four.cap" horiz-adv-x="1320" 
d="M1075 0h-348v326h-682v321l678 830h352v-883h211v-268h-211v-326zM315 598v-4h412v508h-4z" />
    <glyph glyph-name="five.cap" horiz-adv-x="1280" 
d="M643 -35q-262 0 -427 123.5t-189 349.5h348q18 -91 87 -139.5t173 -48.5q108 0 172.5 70.5t64.5 183.5q0 112 -64 176.5t-173 64.5q-143 0 -211 -92h-334l148 811h905v-282h-656l-53 -275h4q94 94 293 94q217 0 361 -135q141 -138 141 -364q0 -246 -162 -389
q-165 -148 -428 -148z" />
    <glyph glyph-name="six.cap" horiz-adv-x="1316" 
d="M694 -35q-310 0 -475 207q-165 204 -168 549q-3 384 176 584q169 190 467 190q224 0 364 -103.5t177 -289.5h-346q-35 135 -189 135q-134 0 -208.5 -95.5t-85.5 -275.5h6q127 142 338 142q214 0 372 -146q154 -145 154 -375q0 -232 -164 -376q-166 -146 -418 -146z
M682 231q108 0 180 73.5t72 180.5q0 111 -71 184.5t-181 73.5q-116 0 -186 -72t-70 -186q0 -111 72 -182.5t184 -71.5z" />
    <glyph glyph-name="seven.cap" horiz-adv-x="1165" 
d="M614 0h-374q12 359 163 666q150 304 340 497v4h-706v297h1083v-268q-210 -213 -350 -524q-144 -317 -156 -672z" />
    <glyph glyph-name="eight.cap" horiz-adv-x="1298" 
d="M1092 90q-165 -125 -441 -125q-272 0 -442 123q-168 122 -168 330q0 124 66 218.5t188 145.5v6q-195 95 -195 299q0 183 150 297q147 111 401 111q253 0 399 -107.5t146 -293.5q0 -193 -190 -295v-6q118 -44 184.5 -140.5t66.5 -224.5q0 -213 -165 -338zM651 231
q110 0 180 58.5t70 152.5q0 100 -68 160t-180 60q-116 0 -186 -60t-70 -160q0 -97 69 -154t185 -57zM649 889q97 0 156 50t59 130t-58.5 129t-156.5 49q-99 0 -157 -49t-58 -129t58 -130t157 -50z" />
    <glyph glyph-name="nine.cap" horiz-adv-x="1310" 
d="M639 -35q-229 0 -378.5 109t-180.5 291h342q44 -142 207 -142q120 0 192 84q80 95 86 293h-4q-131 -143 -328 -143q-231 0 -380 143q-152 143 -152 373q0 233 166 377q165 145 422 145q276 0 440 -164q191 -185 191 -590q0 -365 -152 -567q-164 -209 -471 -209zM639 717
q113 0 187.5 73t74.5 183t-74 183t-186 73q-115 0 -187.5 -72t-72.5 -182q0 -114 71 -186t187 -72z" />
    <glyph glyph-name="percent.cap" horiz-adv-x="1773" 
d="M303 1083q0 -229 123 -229t123 229q0 109 -31.5 172.5t-91.5 63.5q-123 0 -123 -236zM424 676q-165 0 -268 112q-107 110 -107 295q0 184 107 297q104 113 268 113q168 0 272.5 -112.5t104.5 -297.5q0 -184 -105 -295q-106 -112 -272 -112zM565 0h-190l833 1464h193z
M1227 375q0 -232 123 -232t123 232q0 233 -123 233t-123 -233zM1350 -35q-165 0 -269 113q-106 112 -106 297t106 297q104 110 269 110q168 0 271 -111t103 -296q0 -184 -104 -297t-270 -113z" />
    <glyph glyph-name="perthousand.cap" horiz-adv-x="2598" 
d="M303 1083q0 -229 123 -229t123 229q0 109 -31.5 172.5t-91.5 63.5q-123 0 -123 -236zM424 676q-165 0 -268 112q-107 110 -107 295q0 184 107 297q104 113 268 113q168 0 272.5 -112.5t104.5 -297.5q0 -184 -105 -295q-106 -112 -272 -112zM565 0h-190l833 1464h193z
M1227 375q0 -232 123 -232t123 232q0 233 -123 233t-123 -233zM1350 -35q-165 0 -269 113q-106 112 -106 297t106 297q104 110 269 110q168 0 271 -111t103 -296q0 -184 -104 -297t-270 -113zM2052 375q0 -232 123 -232t123 232q0 108 -31.5 170.5t-91.5 62.5
q-123 0 -123 -233zM2173 -35q-164 0 -268 113q-107 113 -107 297t107 297q104 110 268 110q168 0 272.5 -111t104.5 -296q0 -183 -105 -297q-107 -113 -272 -113z" />
    <glyph glyph-name="zero.numerator" horiz-adv-x="854" 
d="M283 1057q0 -256 145 -256t145 256q0 123 -37 191.5t-108 68.5q-145 0 -145 -260zM700 750q-108 -117 -272 -117t-272 117q-107 116 -107 307t107 307q108 117 272 117q168 0 272.5 -116.5t104.5 -307.5q0 -193 -105 -307z" />
    <glyph glyph-name="one.numerator" horiz-adv-x="557" 
d="M475 651h-248v479h-186v166q203 9 238 177h196v-822z" />
    <glyph glyph-name="two.numerator" horiz-adv-x="811" 
d="M743 651h-688q3 183 152 299q50 44 135 94q84 52 102 66q62 47 62 100q0 86 -94 86q-56 0 -87.5 -37t-31.5 -104h-225q0 154 94.5 240t255.5 86q149 0 236 -73t87 -185q0 -134 -110 -222q-37 -32 -129 -83q-91 -54 -115 -78v-2h356v-187z" />
    <glyph glyph-name="three.numerator" horiz-adv-x="798" 
d="M412 633q-177 0 -272 78.5t-97 216.5h231q6 -123 127 -123q53 0 82 25.5t29 68.5q0 94 -129 94h-47v156h41q119 0 119 84q0 37 -25.5 58.5t-69.5 21.5q-99 0 -108 -103h-225q5 121 97 196t247 75q144 0 231.5 -63t87.5 -171q0 -105 -119 -157v-3q144 -53 144 -198
q0 -124 -93.5 -190t-250.5 -66z" />
    <glyph glyph-name="four.numerator" horiz-adv-x="839" 
d="M45 1016l391 459h240v-484h119v-170h-119v-170h-240v170h-391v195zM436 991v250h-2l-211 -248v-2h213z" />
    <glyph glyph-name="five.numerator" horiz-adv-x="796" 
d="M397 633q-149 0 -246.5 70t-109.5 190h219q7 -41 42.5 -63.5t90.5 -22.5q54 0 85.5 33.5t31.5 89.5q0 57 -31.5 89t-85.5 32q-77 0 -112 -50h-207l84 463h532v-176h-368l-29 -135h4q57 51 168 51q124 0 202 -73t78 -195q0 -137 -95 -220t-253 -83z" />
    <glyph glyph-name="six.numerator" horiz-adv-x="776" 
d="M406 633q-177 0 -274 112.5t-97 309.5q0 202 98 315q94 111 275 111q128 0 207.5 -58.5t103.5 -165.5h-213q-18 70 -98 70q-66 0 -105 -50t-47 -142h2q77 71 186 71q127 0 212 -78.5t85 -203.5q0 -130 -93 -210.5t-242 -80.5zM301 831q27 -29 68 -35t76.5 8t59 46.5
t19.5 73.5q4 42 -19.5 74.5t-59 45.5t-76 7.5t-68.5 -33.5q-37 -37 -37 -94.5t37 -92.5z" />
    <glyph glyph-name="seven.numerator" horiz-adv-x="735" 
d="M428 651h-262q9 359 276 617v2h-397v194h639v-174q-115 -113 -183.5 -279t-72.5 -360z" />
    <glyph glyph-name="eight.numerator" horiz-adv-x="813" 
d="M406 633q-169 0 -266 67.5t-97 180.5q0 139 150 200q-2 2 0 4q-115 53 -115 166q0 101 90 165.5t238 64.5q152 0 239.5 -61t87.5 -165q0 -111 -110 -163v-5q147 -55 147 -200q0 -119 -96.5 -186.5t-267.5 -67.5zM406 793q57 0 90.5 28.5t33.5 75.5q0 50 -33.5 80.5
t-88.5 30.5q-57 0 -91 -30.5t-34 -80.5q0 -47 33.5 -75.5t89.5 -28.5zM330 1176q28 -26 76.5 -26t76.5 26q28 25 28 66t-28 67q-28 25 -76.5 25t-76.5 -25q-28 -26 -28 -67t28 -66z" />
    <glyph glyph-name="nine.numerator" horiz-adv-x="772" 
d="M379 633q-133 0 -220 61t-106 164h211q24 -70 109 -70q132 0 141 185h-2q-74 -74 -178 -74q-124 0 -213 80q-88 79 -88 209q0 133 95.5 213t248.5 80q148 0 237 -80q121 -103 121 -342q0 -213 -94 -320q-90 -106 -262 -106zM379 1059q42 -3 75 21t46.5 59t7.5 75.5
t-35 67.5q-27 29 -68 35t-76.5 -8t-60 -46t-20.5 -73q0 -58 36 -94.5t95 -36.5z" />
    <glyph glyph-name="zero.denominator" horiz-adv-x="854" 
d="M283 406q0 -256 145 -256t145 256q0 123 -37 191.5t-108 68.5q-145 0 -145 -260zM700 98q-107 -116 -272 -116t-272 116t-107 308q0 191 107 307t272 116q168 0 272.5 -116t104.5 -307q0 -194 -105 -308z" />
    <glyph glyph-name="one.denominator" horiz-adv-x="557" 
d="M475 0h-248v479h-186v166q203 9 238 176h196v-821z" />
    <glyph glyph-name="two.denominator" horiz-adv-x="811" 
d="M743 0h-688q3 183 152 299q34 29 129 90q88 56 102 66q68 50 68 104q0 86 -94 86q-56 0 -87.5 -37t-31.5 -104h-225q0 154 94 239.5t256 85.5q149 0 236 -73t87 -185q0 -133 -110 -221q-41 -34 -129 -84q-91 -54 -115 -78v-2h356v-186z" />
    <glyph glyph-name="three.denominator" horiz-adv-x="798" 
d="M412 -20q-177 0 -272 79t-97 217h231q6 -122 127 -122q53 0 82 25.5t29 68.5q0 94 -129 94h-47v156h41q119 0 119 84q0 37 -25.5 58.5t-69.5 21.5q-99 0 -108 -103h-225q5 121 97 195.5t247 74.5q144 0 231.5 -62.5t87.5 -170.5q0 -106 -119 -158v-2q144 -52 144 -198
q0 -124 -93.5 -191t-250.5 -67z" />
    <glyph glyph-name="four.denominator" horiz-adv-x="839" 
d="M45 365l391 458h240v-483h119v-170h-119v-170h-240v170h-391v195zM436 340v250h-2l-211 -248v-2h213z" />
    <glyph glyph-name="five.denominator" horiz-adv-x="796" 
d="M397 -20q-149 0 -246.5 71t-109.5 191h219q7 -41 42.5 -63.5t90.5 -22.5q54 0 85.5 33.5t31.5 89.5q0 57 -31.5 88.5t-85.5 31.5q-78 0 -112 -49h-207l84 463h532v-176h-368l-29 -135h4q57 51 168 51q124 0 202 -73t78 -195q0 -137 -95 -221t-253 -84z" />
    <glyph glyph-name="six.denominator" horiz-adv-x="776" 
d="M406 -18q-177 0 -274 112t-97 309q0 203 98 316q94 110 275 110q128 0 208 -58t103 -165h-213q-18 70 -98 70q-66 0 -105 -50t-47 -143h2q78 72 186 72q127 0 212 -79t85 -204q0 -130 -92.5 -210t-242.5 -80zM301 180q27 -29 68 -35t76.5 7.5t59 46t19.5 73.5
q4 42 -19.5 74.5t-59 46t-76 8t-68.5 -33.5q-37 -37 -37 -94.5t37 -92.5z" />
    <glyph glyph-name="seven.denominator" horiz-adv-x="735" 
d="M428 0h-262q9 358 276 616v2h-397v195h639v-174q-115 -113 -183.5 -279t-72.5 -360z" />
    <glyph glyph-name="eight.denominator" horiz-adv-x="813" 
d="M406 -20q-170 0 -266.5 66.5t-96.5 182.5q0 139 150 201q-2 2 0 4q-115 53 -115 166q0 101 90 165t238 64q152 0 239.5 -60.5t87.5 -164.5q0 -112 -110 -164v-4q147 -56 147 -200q0 -119 -96.5 -187.5t-267.5 -68.5zM406 141q57 0 90.5 29t33.5 76q0 50 -33.5 80
t-88.5 30q-57 0 -91 -30t-34 -80q0 -47 34 -76t89 -29zM330 524q28 -26 76.5 -26t76.5 26q28 25 28 66t-28 67q-28 25 -76.5 25t-76.5 -25q-28 -26 -28 -67t28 -66z" />
    <glyph glyph-name="nine.denominator" horiz-adv-x="772" 
d="M379 -20q-132 0 -219.5 61.5t-106.5 165.5h211q24 -70 109 -70q132 0 141 185h-2q-74 -74 -178 -74q-124 0 -213 80q-88 79 -88 209q0 132 95.5 212t248.5 80q149 0 237 -79q121 -103 121 -342q0 -213 -94 -320q-91 -108 -262 -108zM379 408q42 -3 75 21t46.5 59
t7.5 75.5t-35 67.5q-27 29 -68 35t-76.5 -8t-60 -46t-20.5 -73q0 -58 36 -94.5t95 -36.5z" />
    </font>
</defs>
</svg>
