<?xml version="1.0" standalone="no"?>
<!DOCTYPE svg PUBLIC "-//W3C//DTD SVG 1.1//EN" "http://www.w3.org/Graphics/SVG/1.1/DTD/svg11.dtd" >
<svg xmlns="http://www.w3.org/2000/svg" xmlns:xlink="http://www.w3.org/1999/xlink" version="1.1">
<metadata>
Created by FontForge 20201107 at Tue Jan  9 13:50:02 2024
 By 
Copyright 2011 Schwartzco Inc dba Commercial Type.
</metadata>
<defs>
<font id="NeueHaasGroteskPro-55Roman" horiz-adv-x="1024" >
  <font-face 
    font-family="Neue Haas Grotesk DispRoman"
    font-weight="500"
    font-stretch="normal"
    units-per-em="2048"
    panose-1="2 13 5 4 3 5 2 5 2 3"
    ascent="1675"
    descent="-373"
    x-height="1059"
    cap-height="1464"
    bbox="-365 -467 2312 1876"
    underline-thickness="102"
    underline-position="-409"
    unicode-range="U+0020-FB04"
  />
<missing-glyph 
 />
    <glyph glyph-name="f_f" unicode="ff" horiz-adv-x="1105" 
d="M190 924h-145v135h145v158q0 128 70.5 187.5t210.5 59.5q18 0 80 -4v-141q-16 2 -51 2q-80 0 -112 -25t-32 -88v-149h338v170q0 128 71 188t210 60q22 0 84 -4v-142q-18 2 -53 2q-80 0 -113 -25t-33 -87v-162h197v-135h-197v-924h-166v924h-338v-924h-166v924z" />
    <glyph glyph-name="fi" unicode="fi" horiz-adv-x="972" 
d="M190 924h-145v135h145v170q0 128 71 188t210 60q22 0 84 -4v-142q-18 2 -53 2q-80 0 -113 -25t-33 -87v-162h197v-135h-197v-924h-166v924zM860 0h-166v1059h166v-1059zM860 1260h-166v204h166v-204z" />
    <glyph glyph-name="fl" unicode="fl" horiz-adv-x="985" 
d="M866 0h-166v1464h166v-1464zM190 924h-145v135h145v170q0 128 71 188t210 60q22 0 84 -4v-142q-18 2 -53 2q-80 0 -113 -25t-33 -87v-162h197v-135h-197v-924h-166v924z" />
    <glyph glyph-name="f_f_i" unicode="ffi" horiz-adv-x="1476" 
d="M1364 0h-166v1059h166v-1059zM1364 1260h-166v204h166v-204zM190 924h-145v135h145v158q0 128 70.5 187.5t210.5 59.5q18 0 80 -4v-141q-16 2 -51 2q-80 0 -112 -25t-32 -88v-149h338v170q0 128 71 188t210 60q22 0 84 -4v-142q-18 2 -53 2q-80 0 -113 -25t-33 -87v-162
h197v-135h-197v-924h-166v924h-338v-924h-166v924z" />
    <glyph glyph-name="f_f_l" unicode="ffl" horiz-adv-x="1488" 
d="M1370 0h-166v1464h166v-1464zM190 924h-145v135h145v158q0 128 70.5 187.5t210.5 59.5q18 0 80 -4v-141q-16 2 -51 2q-80 0 -112 -25t-32 -88v-149h338v170q0 128 71 188t210 60q22 0 84 -4v-142q-18 2 -53 2q-80 0 -113 -25t-33 -87v-162h197v-135h-197v-924h-166v924
h-338v-924h-166v924z" />
    <glyph glyph-name=".notdef" 
 />
    <glyph glyph-name=".null" horiz-adv-x="0" 
 />
    <glyph glyph-name="nonmarkingreturn" horiz-adv-x="681" 
 />
    <glyph glyph-name="space" unicode=" " horiz-adv-x="325" 
 />
    <glyph glyph-name="exclam" unicode="!" horiz-adv-x="481" 
d="M287 354h-92l-45 641v469h182v-469zM340 0h-199v203h199v-203z" />
    <glyph glyph-name="quotedbl" unicode="&#x22;" horiz-adv-x="608" 
d="M522 1026h-151v438h151v-438zM238 1026h-152v438h152v-438z" />
    <glyph glyph-name="numbersign" unicode="#" horiz-adv-x="1185" 
d="M338 868h-209l23 148h206l54 389h139l-53 -389h278l53 389h140l-54 -389h207l-22 -148h-205l-45 -315h205l-23 -147h-203l-55 -406h-139l55 406h-278l-56 -406h-139l55 406h-209l23 147h207zM756 868h-279l-45 -315h279z" />
    <glyph glyph-name="dollar" unicode="$" horiz-adv-x="1185" 
d="M653 -174h-114v174q-239 17 -367 144.5t-139 328.5h172q14 -155 94.5 -238t239.5 -96v531q-116 27 -182.5 50t-129.5 64q-129 82 -129 271q0 168 120 270t321 113v112h114v-112q389 -27 439 -375h-166q-27 210 -273 237v-493q119 -24 192 -48.5t142 -66.5
q137 -83 137 -284q0 -182 -131 -289q-133 -112 -340 -121v-172zM956 401q0 103 -66.5 153.5t-236.5 88.5v-506q132 11 217.5 82.5t85.5 181.5zM260 1063q0 -95 64.5 -148t214.5 -86v474q-129 -11 -204 -74t-75 -166z" />
    <glyph glyph-name="percent" unicode="%" horiz-adv-x="1665" 
d="M618 735q-88 -110 -237 -110t-240 110q-92 112 -92 295q0 185 94 295q95 111 238 111t235 -109q93 -113 93 -297q0 -181 -91 -295zM1526 80q-88 -111 -238 -111q-148 0 -239 111q-93 113 -93 295q0 183 95 295q94 110 237 110q144 0 236 -108q92 -112 92 -297
q0 -182 -90 -295zM500 0h-140l805 1403h140zM252 827q46 -79 129 -79q84 0 131 77q45 74 45 205q0 125 -47.5 204t-128.5 79q-83 0 -129.5 -76.5t-46.5 -206.5q0 -126 47 -203zM1159 172q47 -80 129 -80q84 0 131 78q45 74 45 205q0 125 -47.5 203.5t-128.5 78.5
q-84 0 -130 -76t-46 -206q0 -126 47 -203z" />
    <glyph glyph-name="ampersand" unicode="&#x26;" horiz-adv-x="1202" 
d="M500 -29q-167 0 -293 111q-127 109 -127 280q0 143 74 240t243 201l-41 53q-112 141 -112 301q0 126 92 209q90 84 223 84q130 0 225 -80q93 -81 93 -225q0 -60 -17 -109t-54 -93.5t-82.5 -81.5t-115.5 -83l291 -370q49 125 49 270h144q0 -216 -95 -395l222 -283h-199
l-115 147q-164 -176 -405 -176zM510 117q179 0 305 147l-336 432q-125 -83 -179 -156t-54 -178t76.5 -175t187.5 -70zM399 1155q0 -104 90 -223l39 -51q100 64 144.5 126t44.5 142q0 75 -43 119.5t-115 44.5q-71 0 -115.5 -44.5t-44.5 -113.5z" />
    <glyph glyph-name="quotesingle" unicode="'" horiz-adv-x="323" 
d="M238 1026h-152v438h152v-438z" />
    <glyph glyph-name="parenleft" unicode="(" horiz-adv-x="622" 
d="M580 -242h-136q-149 229 -224 450t-75 478q0 439 299 858h136q-240 -408 -240 -858q0 -488 240 -928z" />
    <glyph glyph-name="parenright" unicode=")" horiz-adv-x="622" 
d="M180 -242h-135q240 440 240 928q0 450 -240 858h135q299 -419 299 -858q0 -257 -75 -478t-224 -450z" />
    <glyph glyph-name="asterisk" unicode="*" horiz-adv-x="753" 
d="M377 1092l-127 -189l-88 62l123 178l-195 67l37 95l195 -64v223h110v-223l195 64l37 -95l-195 -67l123 -178l-88 -62z" />
    <glyph glyph-name="plus" unicode="+" horiz-adv-x="1146" 
d="M506 602h-397v131h397v410h135v-410h397v-131h-397v-409h-135v409z" />
    <glyph glyph-name="comma" unicode="," horiz-adv-x="378" 
d="M92 -262v92q92 35 92 170h-94v203h199v-209q0 -106 -52 -171.5t-145 -84.5z" />
    <glyph glyph-name="hyphen" unicode="-" horiz-adv-x="704" 
d="M627 489h-549v152h549v-152z" />
    <glyph glyph-name="period" unicode="." horiz-adv-x="378" 
d="M289 0h-199v203h199v-203z" />
    <glyph glyph-name="slash" unicode="/" horiz-adv-x="819" 
d="M205 0h-172l581 1464h172z" />
    <glyph glyph-name="zero" unicode="0" horiz-adv-x="1269" 
d="M635 -31q-255 0 -399 199q-146 199 -146 534q0 340 150 537q147 197 397 197q249 0 397 -195q146 -199 146 -539q0 -338 -142 -536q-144 -197 -403 -197zM362 274q91 -155 275 -155q183 0 274 153q90 153 90 430q0 278 -93.5 432t-270.5 154q-181 0 -275 -152.5
t-94 -433.5q0 -276 94 -428z" />
    <glyph glyph-name="one" unicode="1" horiz-adv-x="708" 
d="M549 0h-172v1022h-307v115q312 9 346 274h133v-1411z" />
    <glyph glyph-name="two" unicode="2" horiz-adv-x="1138" 
d="M1036 0h-973q6 135 46 232t129 176q73 68 143 118q71 47 182 111q9 9 27 16q161 93 229 164q68 68 68 184q0 130 -83 209.5t-222 79.5q-142 0 -224 -88q-79 -85 -79 -280h-181q0 248 133 381q131 131 365 131q210 0 340 -121q129 -120 129 -309q0 -69 -20.5 -133.5
t-49.5 -108.5q-21 -35 -90 -88q-58 -47 -96 -70q-52 -27 -125 -69q-14 -7 -29 -17q-76 -42 -161 -96q-62 -39 -136 -113q-69 -72 -88 -145h766v-164z" />
    <glyph glyph-name="three" unicode="3" horiz-adv-x="1165" 
d="M596 -31q-242 0 -397 131q-159 135 -162 363h170q4 -167 105 -258.5t278 -91.5q155 0 243.5 75.5t88.5 219.5q0 133 -95 202.5t-274 69.5h-88v133h86q160 0 245 63t85 179q0 111 -86.5 178t-219.5 67q-149 0 -236 -88.5t-87 -236.5h-168q2 210 136 335.5t362 125.5
q200 0 333 -103q134 -107 134 -282q0 -218 -232 -295v-6q283 -74 283 -359q0 -194 -142 -309q-143 -113 -362 -113z" />
    <glyph glyph-name="four" unicode="4" horiz-adv-x="1159" 
d="M883 0h-168v344h-662v154l695 919h135v-936h231v-137h-231v-344zM711 1139l-492 -652v-6h496v658h-4z" />
    <glyph glyph-name="five" unicode="5" horiz-adv-x="1132" 
d="M563 -31q-217 0 -362 121t-154 316h170q17 -134 107 -209.5t237 -75.5q149 0 239.5 93t90.5 247q0 152 -92.5 243t-237.5 91q-212 0 -315 -146h-166l156 754h747v-154h-627l-92 -422h4q125 119 322 119q196 0 338 -133q139 -133 139 -356t-141 -355q-142 -133 -363 -133z
" />
    <glyph glyph-name="six" unicode="6" horiz-adv-x="1189" 
d="M639 -31q-216 0 -350 125q-107 97 -153 242.5t-46 374.5q0 333 141 530q139 195 402 195q197 0 311 -111q113 -113 131 -278h-170q-11 107 -82.5 175t-185.5 68q-192 0 -283 -143t-96 -422h4q142 195 385 195q193 0 328 -138q132 -138 135 -333q3 -197 -135 -338
q-139 -142 -336 -142zM635 109q137 0 226 93t89 240t-92 242q-91 94 -229 94q-152 0 -246 -92.5t-94 -241.5q0 -147 98 -241t248 -94z" />
    <glyph glyph-name="seven" unicode="7" horiz-adv-x="1050" 
d="M430 0h-184q21 360 192 707q170 344 410 538v4h-801v154h981v-141q-236 -208 -407 -539q-170 -332 -191 -723z" />
    <glyph glyph-name="eight" unicode="8" horiz-adv-x="1196" 
d="M604 -31q-80 0 -155 14t-145 47t-122 81.5t-83 123t-31 166.5q0 271 288 365v6q-102 39 -160.5 117t-58.5 182q0 163 133 266q131 101 328 101q199 0 330 -101t131 -266q0 -216 -215 -299v-6q128 -38 206 -135t78 -230q0 -219 -151 -325q-152 -107 -373 -107zM604 113
q164 0 258 76.5t94 211.5q0 140 -95.5 219.5t-262.5 79.5q-166 0 -260 -79.5t-94 -219.5q0 -136 95 -212t265 -76zM385 897q76 -61 213 -61q136 0 215 61q78 63 78 168t-78 168q-79 61 -215 61q-137 0 -213 -61q-80 -62 -80 -168t80 -168z" />
    <glyph glyph-name="nine" unicode="9" horiz-adv-x="1189" 
d="M582 -31q-209 0 -342 115q-135 114 -144 297h174q11 -121 92.5 -193.5t215.5 -72.5q154 0 237 92q113 119 125 457h-4q-144 -179 -387 -179q-191 0 -328 140q-136 136 -139 331q-3 198 139 340q143 140 352 140q189 0 324 -105q115 -89 163 -238.5t48 -398.5
q0 -436 -197 -612q-128 -113 -329 -113zM571 627q157 0 250.5 92.5t93.5 243.5q0 147 -98 241q-103 92 -244 92q-148 0 -239.5 -92.5t-91.5 -240.5q0 -146 96 -242q94 -94 233 -94z" />
    <glyph glyph-name="colon" unicode=":" horiz-adv-x="391" 
d="M295 621h-199v202h199v-202zM295 0h-199v203h199v-203z" />
    <glyph glyph-name="semicolon" unicode=";" horiz-adv-x="391" 
d="M98 -262v92q92 35 92 170h-94v203h199v-209q0 -106 -52 -171.5t-145 -84.5zM295 621h-199v202h199v-202z" />
    <glyph glyph-name="less" unicode="&#x3c;" horiz-adv-x="1046" 
d="M936 350v-151l-834 354v170l834 354v-149l-703 -285v-4z" />
    <glyph glyph-name="equal" unicode="=" horiz-adv-x="1146" 
d="M1038 756h-929v131h929v-131zM1038 397h-929v131h929v-131z" />
    <glyph glyph-name="greater" unicode="&#x3e;" horiz-adv-x="1046" 
d="M944 553l-833 -354v149l702 285v4l-702 289v151l833 -354v-170z" />
    <glyph glyph-name="question" unicode="?" horiz-adv-x="1032" 
d="M565 354h-155q3 166 49 264q47 96 166 203q65 59 88 82q26 23 53 78q29 60 29 117q0 107 -75.5 176t-201.5 69q-151 0 -230.5 -91.5t-84.5 -258.5h-168q5 231 128.5 364.5t360.5 133.5q208 0 328 -111q119 -113 119 -280q0 -108 -46.5 -185.5t-142.5 -158.5
q-134 -113 -174 -183t-43 -219zM586 0h-199v203h199v-203z" />
    <glyph glyph-name="at" unicode="@" horiz-adv-x="1802" 
d="M827 162q-160 0 -255 107t-95 282q0 235 119 375q120 141 301 141q175 0 252 -145h4l16 125h160l-69 -570q-21 -170 112 -170q95 0 158 106.5t63 297.5q0 304 -184 463q-186 157 -475 157q-299 0 -510 -205t-211 -544q0 -298 182 -486q180 -186 502 -186q190 0 381 72
l47 -113q-194 -84 -418 -84q-371 0 -606 221q-233 217 -233 578q0 199 73.5 370.5t198.5 280.5q124 108 279.5 166.5t320.5 58.5q316 0 547 -186q115 -93 181.5 -237.5t66.5 -317.5q0 -250 -97 -396.5t-276 -146.5q-183 0 -236 148h-4q-50 -75 -128 -118.5t-167 -43.5z
M844 289q133 0 205.5 106.5t72.5 284.5q0 123 -56 190.5t-165 67.5q-125 0 -191.5 -104.5t-66.5 -280.5q0 -122 52 -193t149 -71z" />
    <glyph glyph-name="A" unicode="A" horiz-adv-x="1327" 
d="M209 0h-189l539 1464h207l541 -1464h-201l-156 446h-583zM594 1087l-174 -491h479l-168 491l-65 207h-4q-42 -128 -68 -207z" />
    <glyph glyph-name="B" unicode="B" horiz-adv-x="1318" 
d="M791 0h-654v1464h621q231 0 352 -127q94 -98 94 -250q0 -234 -235 -307v-6q134 -32 214.5 -124.5t80.5 -229.5q0 -168 -107 -281q-130 -139 -366 -139zM322 682v-516h460q153 0 230 74q65 71 65 170q0 131 -82.5 201.5t-224.5 70.5h-448zM322 1305v-467h413
q134 0 209.5 63.5t75.5 175.5q0 106 -69 167t-191 61h-438z" />
    <glyph glyph-name="C" unicode="C" horiz-adv-x="1452" 
d="M768 -29q-309 0 -498 213q-188 212 -188 549q0 331 188 549q188 215 506 215q246 0 401.5 -127t186.5 -340h-180q-27 141 -135.5 224t-276.5 83q-238 0 -369 -168q-133 -171 -133 -436q0 -268 140 -434q138 -166 364 -166q190 0 301 112t125 292h182q-2 -109 -50 -223
t-126 -189q-157 -154 -438 -154z" />
    <glyph glyph-name="D" unicode="D" horiz-adv-x="1400" 
d="M655 0h-518v1464h533q323 0 485 -198q164 -200 164 -539q0 -342 -172 -534.5t-492 -192.5zM322 1305v-1143h327q481 0 481 565q0 578 -466 578h-342z" />
    <glyph glyph-name="E" unicode="E" horiz-adv-x="1273" 
d="M1196 0h-1059v1464h1034v-161h-849v-463h772v-156h-772v-514h874v-170z" />
    <glyph glyph-name="F" unicode="F" horiz-adv-x="1183" 
d="M322 0h-185v1464h993v-161h-808v-457h673v-156h-673v-690z" />
    <glyph glyph-name="G" unicode="G" horiz-adv-x="1519" 
d="M1403 0h-119l-53 193h-4q-158 -224 -457 -224q-308 0 -498 211t-190 547q0 337 186 553q185 215 518 215q248 0 403.5 -124.5t192.5 -346.5h-190q-31 150 -136 230.5t-274 80.5q-255 0 -383 -168q-129 -169 -129 -440q0 -267 142 -432q141 -166 364 -166q215 0 330 127
q113 125 113 324v34h-441v160h625v-774z" />
    <glyph glyph-name="H" unicode="H" horiz-adv-x="1425" 
d="M322 0h-185v1464h185v-622h782v622h184v-1464h-184v692h-782v-692z" />
    <glyph glyph-name="I" unicode="I" horiz-adv-x="466" 
d="M326 0h-185v1464h185v-1464z" />
    <glyph glyph-name="J" unicode="J" horiz-adv-x="1017" 
d="M475 -29q-430 0 -430 484v20h182v-14q0 -186 59 -262t195 -76q234 0 234 260v1081h184v-1093q0 -185 -111 -292.5t-313 -107.5z" />
    <glyph glyph-name="K" unicode="K" horiz-adv-x="1318" 
d="M322 0h-185v1464h185v-727l720 727h232l-592 -585l641 -879h-215l-551 754l-235 -236v-518z" />
    <glyph glyph-name="L" unicode="L" horiz-adv-x="1134" 
d="M1090 0h-953v1464h185v-1294h768v-170z" />
    <glyph glyph-name="M" unicode="M" horiz-adv-x="1699" 
d="M303 0h-166v1464h236l475 -1216h4l471 1216h240v-1464h-177v1204h-4q-8 -22 -31.5 -89.5t-33.5 -94.5l-402 -1020h-141l-401 1020l-66 184h-4v-1204z" />
    <glyph glyph-name="N" unicode="N" horiz-adv-x="1419" 
d="M309 0h-172v1464h195l667 -1018l107 -188h4v1206h172v-1464h-188l-672 1020l-109 182h-4v-1202z" />
    <glyph glyph-name="O" unicode="O" horiz-adv-x="1597" 
d="M1321 184q-197 -215 -522 -215q-326 0 -520 215q-197 215 -197 549t197 549q194 215 520 215q325 0 522 -215q195 -216 195 -549t-195 -549zM410 299q137 -168 389 -168t389 168q139 171 139 434q0 265 -139 436q-137 168 -389 168t-389 -168q-140 -172 -140 -436
q0 -262 140 -434z" />
    <glyph glyph-name="P" unicode="P" horiz-adv-x="1234" 
d="M322 0h-185v1464h611q228 0 348 -141q98 -113 98 -279q0 -206 -120.5 -318t-352.5 -112h-399v-614zM717 1305h-395v-541h385q150 0 227.5 70.5t77.5 201.5q0 130 -76.5 199.5t-218.5 69.5z" />
    <glyph glyph-name="Q" unicode="Q" horiz-adv-x="1597" 
d="M1483 -4l-94 -119l-228 180q-155 -88 -362 -88q-326 0 -520 215q-197 215 -197 549t197 549q194 215 520 215q325 0 522 -215q195 -216 195 -549q0 -366 -228 -581zM799 131q119 0 219 41l-148 119l95 119l186 -150q176 167 176 473q0 265 -139 436q-137 168 -389 168
t-389 -168q-140 -172 -140 -436q0 -262 140 -434q137 -168 389 -168z" />
    <glyph glyph-name="R" unicode="R" horiz-adv-x="1339" 
d="M322 0h-185v1464h684q195 0 314 -110q118 -109 118 -291q0 -281 -254 -363v-6q108 -38 154 -120.5t57 -251.5q21 -279 68 -314v-8h-199q-21 18 -30 78q-12 80 -23 250q-10 159 -78.5 224.5t-218.5 65.5h-407v-618zM766 1305h-444v-537h434q151 0 229 69.5t78 198.5
q0 138 -70.5 203.5t-226.5 65.5z" />
    <glyph glyph-name="S" unicode="S" horiz-adv-x="1282" 
d="M670 -29q-295 0 -453 146q-160 145 -172 379h180q37 -377 453 -377q161 0 254.5 71.5t93.5 202.5q-8 93 -46 145t-126 87t-266 73q-116 25 -189 51.5t-145 69.5q-145 87 -145 287q0 179 135 283t362 104q494 0 555 -457h-174q-20 155 -116 234.5t-261 79.5
q-153 0 -241 -62t-88 -174q0 -72 39 -118.5t116 -77.5q100 -38 228 -62q113 -22 176 -39.5t137 -50.5q80 -34 125 -80q106 -110 106 -287q0 -199 -147 -313q-151 -115 -391 -115z" />
    <glyph glyph-name="T" unicode="T" horiz-adv-x="1249" 
d="M532 1303h-487v161h1159v-161h-487v-1303h-185v1303z" />
    <glyph glyph-name="U" unicode="U" horiz-adv-x="1347" 
d="M674 -23q-264 0 -412.5 124.5t-148.5 371.5v991h184v-972q0 -357 383 -357q371 0 371 357v972h184v-991q0 -252 -154 -373q-156 -123 -407 -123z" />
    <glyph glyph-name="V" unicode="V" horiz-adv-x="1267" 
d="M733 0h-203l-510 1464h199l361 -1089l57 -197h4q29 111 57 197l357 1089h192z" />
    <glyph glyph-name="W" unicode="W" horiz-adv-x="1871" 
d="M592 0h-184l-379 1464h192l232 -952l55 -248h4q38 170 61 252l265 948h198l256 -948l60 -252h4q25 115 57 248l244 952h186l-407 -1464h-176l-269 1032l-53 223h-4q-26 -120 -55 -223z" />
    <glyph glyph-name="X" unicode="X" horiz-adv-x="1261" 
d="M238 0h-209l508 750l-471 714h213l362 -585h4l371 585h203l-480 -716l494 -748h-221l-377 616h-4z" />
    <glyph glyph-name="Y" unicode="Y" horiz-adv-x="1292" 
d="M735 0h-184v621l-531 843h205l420 -696h4l426 696h197l-537 -848v-616z" />
    <glyph glyph-name="Z" unicode="Z" horiz-adv-x="1273" 
d="M1200 0h-1139v176l877 1127v6h-825v155h1052v-143l-889 -1149v-6h924v-166z" />
    <glyph glyph-name="bracketleft" unicode="[" horiz-adv-x="606" 
d="M545 -242h-387v1786h387v-135h-215v-1509h215v-142z" />
    <glyph glyph-name="backslash" unicode="\" horiz-adv-x="819" 
d="M786 0h-172l-581 1464h172z" />
    <glyph glyph-name="bracketright" unicode="]" horiz-adv-x="606" 
d="M449 -242h-388v142h215v1509h-215v135h388v-1786z" />
    <glyph glyph-name="asciicircum" unicode="^" horiz-adv-x="927" 
d="M197 877h-174l344 587h194l344 -587h-174l-264 458h-4z" />
    <glyph glyph-name="underscore" unicode="_" horiz-adv-x="835" 
d="M840 -340h-844v125h844v-125z" />
    <glyph glyph-name="grave" unicode="`" 
d="M594 1225h-141l-168 260h204z" />
    <glyph glyph-name="a" unicode="a" horiz-adv-x="1044" 
d="M944 -10q-158 0 -182 157h-2q-130 -167 -352 -167q-162 0 -260.5 77.5t-98.5 216.5q0 109 47 174.5t140 102.5q105 40 274 65q80 10 152 31q41 9 57 25q45 35 45 96q0 90 -62.5 138t-175.5 48q-255 0 -264 -233h-160q5 165 114.5 261.5t307.5 96.5q391 0 391 -336v-503
q0 -72 24.5 -99t88.5 -14h6v-121q-43 -16 -90 -16zM444 106q153 0 238 91q84 90 84 194v180q-78 -47 -242 -77q-14 -3 -42.5 -8.5t-39 -7.5t-29.5 -6.5t-33.5 -9t-31.5 -11.5q-46 -18 -67 -39q-56 -49 -56 -133q0 -173 219 -173z" />
    <glyph glyph-name="b" unicode="b" horiz-adv-x="1126" 
d="M616 -31q-210 0 -333 170h-4v-139h-166v1464h166v-557h4q129 176 340 176q205 0 327.5 -149.5t122.5 -407.5q0 -257 -122 -407t-335 -150zM604 109q145 0 222 111t77 304q0 191 -77 304.5t-220 113.5q-162 0 -250 -115t-88 -303q0 -190 87.5 -302.5t248.5 -112.5z" />
    <glyph glyph-name="c" unicode="c" horiz-adv-x="1062" 
d="M565 -29q-231 0 -370 160q-142 160 -142 397q0 238 142 398q138 159 370 159q185 0 304.5 -98t148.5 -270h-168q-19 109 -93 170t-192 61q-164 0 -252 -119q-90 -122 -90 -301q0 -187 90.5 -302t251.5 -115q127 0 202.5 68.5t86.5 193.5h164q-17 -191 -136 -296.5
t-317 -105.5z" />
    <glyph glyph-name="d" unicode="d" horiz-adv-x="1132" 
d="M522 -31q-214 0 -342 152q-127 151 -127 405q0 259 131 408t334 149q216 0 332 -174h4v555h166v-1464h-166v129h-4q-127 -160 -328 -160zM528 109q166 0 251 110t85 305q0 191 -90 304.5t-248 113.5q-144 0 -223.5 -114t-79.5 -304t80 -302.5t225 -112.5z" />
    <glyph glyph-name="e" unicode="e" horiz-adv-x="1091" 
d="M565 -29q-233 0 -372 160q-140 158 -140 397q0 233 142 398q138 159 360 159q236 0 360 -161q127 -165 127 -435h-819q11 -171 101 -274.5t241 -103.5q238 0 293 217h162q-37 -170 -156 -263.5t-299 -93.5zM776 864q-81 90 -221 90q-141 0 -223 -94q-84 -96 -105 -246
h637q-9 162 -88 250z" />
    <glyph glyph-name="f" unicode="f" horiz-adv-x="602" 
d="M190 924h-145v135h145v170q0 128 71 188t210 60q22 0 84 -4v-142q-18 2 -53 2q-80 0 -113 -25t-33 -87v-162h197v-135h-197v-924h-166v924z" />
    <glyph glyph-name="g" unicode="g" horiz-adv-x="1112" 
d="M535 -352q-202 0 -318.5 76.5t-130.5 216.5h154q21 -162 290 -162q304 0 304 272v150h-5q-65 -85 -137.5 -124.5t-175.5 -39.5q-205 0 -334 147t-129 377q0 241 131 381q129 141 322 141q209 0 323 -159h5v135h165v-1002q0 -200 -122 -304.5t-342 -104.5zM524 176
q322 0 322 393q0 375 -324 375q-144 0 -221.5 -102.5t-77.5 -282.5q0 -179 78 -281t223 -102z" />
    <glyph glyph-name="h" unicode="h" horiz-adv-x="1081" 
d="M113 1464h166v-544h4q123 163 335 163q169 0 263 -88.5t94 -251.5v-743h-166v729q0 102 -63.5 158.5t-176.5 56.5q-128 0 -209 -82t-81 -211v-651h-166v1464z" />
    <glyph glyph-name="i" unicode="i" horiz-adv-x="391" 
d="M279 0h-166v1059h166v-1059zM279 1260h-166v204h166v-204z" />
    <glyph glyph-name="j" unicode="j" horiz-adv-x="391" 
d="M35 -301q-45 0 -92 8v135h4q30 -6 57 -6q109 0 109 103v1120h166v-1129q0 -129 -60 -180t-184 -51zM279 1260h-166v204h166v-204z" />
    <glyph glyph-name="k" unicode="k" horiz-adv-x="1001" 
d="M1004 0h-195l-375 571l-155 -147v-424h-166v1464h166v-858l464 453h211l-405 -381z" />
    <glyph glyph-name="l" unicode="l" horiz-adv-x="403" 
d="M285 0h-166v1464h166v-1464z" />
    <glyph glyph-name="m" unicode="m" horiz-adv-x="1626" 
d="M279 0h-166v1059h166v-152h4q52 81 134 128.5t177 47.5q205 0 276 -188h4q49 87 137 137.5t187 50.5q148 0 235 -90t87 -250v-743h-166v735q0 95 -55.5 152t-139.5 57q-106 0 -182 -82q-78 -84 -78 -203v-659h-166v735q0 96 -50 152.5t-132 56.5q-104 0 -186 -82
q-86 -83 -86 -203v-659z" />
    <glyph glyph-name="n" unicode="n" horiz-adv-x="1081" 
d="M113 1059h166v-139h4q123 163 335 163q169 0 263 -88.5t94 -251.5v-743h-166v729q0 102 -63.5 158.5t-176.5 56.5q-128 0 -209 -82t-81 -211v-651h-166v1059z" />
    <glyph glyph-name="o" unicode="o" horiz-adv-x="1128" 
d="M936 131q-139 -160 -371 -160q-231 0 -370 160q-142 160 -142 397q0 238 142 398q138 159 370 159q233 0 371 -159q139 -160 139 -398q0 -237 -139 -397zM313 229q87 -118 252 -118t252 118q88 116 88 299q0 188 -91 304t-249 116q-164 0 -252 -119q-90 -122 -90 -301
q0 -180 90 -299z" />
    <glyph glyph-name="p" unicode="p" horiz-adv-x="1130" 
d="M279 -340h-166v1399h166v-150h4q128 174 340 174q203 0 329 -147q125 -149 125 -410q0 -257 -123 -407t-338 -150q-213 0 -333 156h-4v-465zM604 109q145 0 224 112.5t79 302.5t-79 304t-222 114q-162 0 -250 -115t-88 -303q0 -193 84.5 -304t251.5 -111z" />
    <glyph glyph-name="q" unicode="q" horiz-adv-x="1130" 
d="M1018 -340h-166v469h-4q-127 -160 -328 -160q-215 0 -338 150t-123 407q0 258 129 408q125 149 326 149q218 0 334 -165h4v141h166v-1399zM528 109q169 0 251.5 108.5t82.5 306.5q0 196 -86 307t-250 111q-143 0 -220 -113.5t-77 -304.5q0 -193 77 -304t222 -111z" />
    <glyph glyph-name="r" unicode="r" horiz-adv-x="702" 
d="M113 1059h166v-176h4q52 87 134.5 137.5t180.5 50.5q38 0 68 -12v-160h-7q-33 10 -73 10q-129 0 -217 -88q-90 -90 -90 -233v-588h-166v1059z" />
    <glyph glyph-name="s" unicode="s" horiz-adv-x="978" 
d="M514 -31q-216 0 -336.5 97t-132.5 278h170q27 -235 303 -235q121 0 183.5 46.5t62.5 127.5q0 82 -59 120q-52 33 -218 70q-115 23 -194 51q-50 14 -82 39q-57 40 -88 92.5t-31 135.5q0 136 99.5 213t281.5 77q376 0 416 -331h-170q-12 104 -72 152t-178 48
q-106 0 -159.5 -40.5t-53.5 -110.5q0 -79 61 -109q51 -28 224 -65q105 -22 159 -39t113 -51q119 -71 119 -244q0 -153 -113 -237.5t-305 -84.5z" />
    <glyph glyph-name="t" unicode="t" horiz-adv-x="628" 
d="M199 924h-154v135h154v334h166v-334h204v-135h-204v-688q0 -99 106 -99q45 0 88 15h6v-144q-63 -14 -133 -14q-233 0 -233 205v725z" />
    <glyph glyph-name="u" unicode="u" horiz-adv-x="1064" 
d="M952 1059v-1059h-166v145h-4q-126 -170 -319 -170q-165 0 -261 93.5t-96 257.5v733h166v-729q0 -103 62.5 -160t175.5 -57q123 0 199.5 83t76.5 212v651h166z" />
    <glyph glyph-name="v" unicode="v" horiz-adv-x="944" 
d="M559 0h-184l-371 1059h178l219 -672l70 -223h4q45 148 70 223l223 672h172z" />
    <glyph glyph-name="w" unicode="w" horiz-adv-x="1503" 
d="M516 0h-172l-336 1059h178l187 -653l57 -228h4q22 101 53 223l179 658h174l172 -658l51 -223h4q48 192 59 228l197 653h172l-346 -1059h-170l-176 641l-51 221h-4q-18 -89 -54 -221z" />
    <glyph glyph-name="x" unicode="x" horiz-adv-x="1030" 
d="M199 0h-187l400 555l-353 504h193l252 -385h4l262 385h182l-348 -486l414 -573h-195l-313 455h-4z" />
    <glyph glyph-name="y" unicode="y" horiz-adv-x="1001" 
d="M248 -350q-92 0 -150 22v148h8q44 -23 113 -23q57 0 93 28.5t65 100.5l41 105l-414 1028h180l250 -660l72 -206h4q42 133 70 206l241 660h176l-452 -1145q-61 -154 -127 -211q-65 -53 -170 -53z" />
    <glyph glyph-name="z" unicode="z" horiz-adv-x="964" 
d="M913 0h-843v131l589 776v6h-555v146h787v-98l-608 -803v-6h630v-152z" />
    <glyph glyph-name="braceleft" unicode="{" horiz-adv-x="606" 
d="M545 -242h-37q-163 0 -240.5 78t-77.5 252v365q0 71 -31.5 103.5t-109.5 33.5v137q77 1 109 34t32 103v357q0 173 77 248t241 75h37v-135h-33q-83 0 -116.5 -41.5t-33.5 -148.5v-367q0 -156 -114 -190v-7q114 -35 114 -190v-375q0 -107 33.5 -148.5t116.5 -41.5h33v-142z
" />
    <glyph glyph-name="bar" unicode="|" horiz-adv-x="458" 
d="M301 -242h-143v1786h143v-1786z" />
    <glyph glyph-name="braceright" unicode="}" horiz-adv-x="606" 
d="M98 -242h-37v142h33q86 0 118 38.5t32 145.5v375q0 155 114 190v6q-114 35 -114 191v366q0 109 -34 153t-116 44h-33v135h37q163 0 240.5 -78t77.5 -252v-356q0 -71 31.5 -103.5t109.5 -33.5v-137q-76 -1 -108.5 -34t-32.5 -104v-364q0 -173 -77.5 -248.5t-240.5 -75.5z
" />
    <glyph glyph-name="asciitilde" unicode="~" horiz-adv-x="804" 
d="M547 557q-50 0 -146 41q-109 47 -133 47q-58 0 -61 -84h-133q5 109 54 173.5t130 64.5q69 0 158 -47q84 -41 112 -41q67 0 70 84h133q-9 -238 -184 -238z" />
    <glyph glyph-name="uni00A0" unicode="&#xa0;" horiz-adv-x="325" 
 />
    <glyph glyph-name="exclamdown" unicode="&#xa1;" horiz-adv-x="481" 
d="M332 -260h-182v469l45 641h92l45 -641v-469zM340 1001h-199v203h199v-203z" />
    <glyph glyph-name="cent" unicode="&#xa2;" horiz-adv-x="1062" 
d="M616 -174h-114v149q-204 21 -326 179q-123 156 -123 374q0 219 123 375q121 154 326 178v129h114v-127q164 -13 270 -110t132 -256h-168q-17 97 -77.5 156t-156.5 71v-831q217 27 238 260h164q-17 -179 -121 -283t-281 -117v-147zM297 807q-74 -115 -74 -279
q0 -160 72 -276q70 -113 207 -137v827q-135 -21 -205 -135z" />
    <glyph glyph-name="sterling" unicode="&#xa3;" horiz-adv-x="1128" 
d="M250 616h-170v132h125q-66 173 -66 288q0 173 129 287q126 111 338 111q194 0 326 -117q128 -116 131 -352h-168q-1 163 -79 244t-216 81q-133 0 -208 -68.5t-75 -187.5q0 -53 23 -143q4 -17 31 -96q15 -43 16 -47h293v-132h-256q14 -63 14 -120q0 -182 -164 -314l5 -4
q90 33 161 33q78 0 187 -41q107 -43 164 -43q103 0 213 98l98 -121q-147 -129 -318 -129q-95 0 -219 56q-127 53 -200 53q-55 0 -111 -29q-3 -2 -14.5 -8.5t-20.5 -12t-12 -7.5q-42 -28 -45 -31l-99 135q78 57 115.5 95t67.5 98q30 64 30 141q0 63 -26 151z" />
    <glyph glyph-name="currency" unicode="&#xa4;" horiz-adv-x="991" 
d="M324 514q65 -80 172 -80t172 80q61 76 61 201q0 124 -61 203q-64 79 -172 79t-172 -79t-64 -203q0 -125 64 -201zM258 381l-133 -135l-88 84l135 139q-74 106 -74 246q0 137 74 243l-135 140l88 84l131 -135q106 77 240 77q133 0 239 -77l131 135l88 -84l-135 -140
q72 -110 72 -243q0 -135 -74 -244l137 -141l-88 -84l-133 135q-103 -74 -237 -74q-135 0 -238 74z" />
    <glyph glyph-name="yen" unicode="&#xa5;" horiz-adv-x="1150" 
d="M494 557h-369v111h340l-445 735h193l365 -649h4l364 649h184l-440 -735h344v-111h-368v-141h368v-111h-368v-305h-172v305h-369v111h369v141z" />
    <glyph glyph-name="brokenbar" unicode="&#xa6;" horiz-adv-x="458" 
d="M301 -242h-143v844h143v-844zM301 733h-143v811h143v-811z" />
    <glyph glyph-name="section" unicode="&#xa7;" horiz-adv-x="1191" 
d="M616 -381q-207 0 -328 109.5t-126 294.5h170q15 -256 289 -256q95 0 146.5 41t51.5 110q0 70 -67 125q-68 54 -252 160q-12 6 -28.5 15.5t-22.5 12.5q-215 122 -302 209q-90 87 -90 217q0 202 232 279q-82 91 -82 194q0 137 107 221.5t280 84.5q187 0 293 -99t117 -278
h-170q-15 229 -244 229q-101 0 -156 -41t-55 -110q0 -41 19 -73t69 -67q53 -41 92 -61q11 -5 55.5 -30.5t81.5 -45.5q95 -53 140 -76q28 -16 114 -73q68 -45 103 -86q82 -102 82 -213q0 -222 -234 -293q90 -96 90 -199q0 -136 -102 -218.5t-273 -82.5zM621 713
q-165 89 -236 143q-76 -20 -119 -69.5t-43 -112.5q0 -79 60 -133q62 -59 237 -160q221 -129 285 -178q164 47 164 200q0 78 -60 132q-51 46 -237 149q-12 6 -29 16t-22 13z" />
    <glyph glyph-name="dieresis" unicode="&#xa8;" 
d="M760 1260h-160v194h160v-194zM424 1260h-160v194h160v-194z" />
    <glyph glyph-name="copyright" unicode="&#xa9;" horiz-adv-x="1662" 
d="M1366 182q-217 -217 -535 -217t-532 217q-217 217 -217 545q0 330 217 547q214 217 532 217t535 -217q215 -218 215 -547q0 -327 -215 -545zM362 240q189 -195 469 -195t469 195q187 193 187 487q0 297 -187 490q-188 194 -469 194q-278 0 -466 -194q-189 -195 -189 -490
t186 -487zM838 260q-191 0 -312 133q-120 132 -120 336q0 209 118 342t316 133q155 0 253 -82.5t117 -216.5h-155q-14 79 -70.5 123.5t-146.5 44.5q-128 0 -200.5 -94.5t-72.5 -249.5q0 -150 75.5 -244t197.5 -94q96 0 155 54t70 143h151q-3 -141 -102 -232
q-104 -96 -274 -96z" />
    <glyph glyph-name="ordfeminine" unicode="&#xaa;" horiz-adv-x="983" 
d="M436 588q135 0 205 76q70 73 70 165v142q-69 -39 -211 -58q-139 -18 -195.5 -54.5t-56.5 -121.5q0 -149 188 -149zM711 616h-4q-107 -149 -299 -149q-145 0 -235.5 70.5t-90.5 195.5q0 143 100.5 208t313.5 85q120 12 166.5 40t46.5 95q0 156 -197 156q-218 0 -233 -197
h-152q8 141 108.5 228.5t274.5 87.5q344 0 344 -295v-436q0 -105 68 -105q6 0 34 4h7v-115q-41 -14 -84 -14q-147 0 -168 141z" />
    <glyph glyph-name="guillemotleft" unicode="&#xab;" horiz-adv-x="868" 
d="M766 393v-162l-281 236v178l281 236v-162l-191 -160v-4zM383 393v-162l-281 236v178l281 236v-162l-190 -160v-4z" />
    <glyph glyph-name="logicalnot" unicode="&#xac;" horiz-adv-x="1146" 
d="M842 684h-713v131h848v-520h-135v389z" />
    <glyph glyph-name="uni00AD" unicode="&#xad;" horiz-adv-x="704" 
d="M627 489h-549v152h549v-152z" />
    <glyph glyph-name="registered" unicode="&#xae;" horiz-adv-x="1081" 
d="M887 641q-144 -141 -346 -141q-203 0 -344 141q-144 141 -144 354q0 211 144 355q141 141 344 141q202 0 346 -141q141 -144 141 -355q0 -213 -141 -354zM252 692q115 -121 289 -121q175 0 290 121q113 119 113 303q0 182 -115 303t-288 121q-174 0 -289 -121t-115 -303
t115 -303zM455 739h-105v525h242q72 0 119 -42.5t47 -105.5q0 -101 -99 -125v-2q73 -21 82 -106q2 -18 3.5 -41t3 -37.5t3 -28.5t5 -21.5t8.5 -9.5v-6h-100q-20 10 -23 121q-3 90 -100 90h-86v-211zM569 1178h-114v-148h114q86 0 86 74t-86 74z" />
    <glyph glyph-name="overscore" unicode="&#xaf;" 
d="M776 1274h-528v137h528v-137z" />
    <glyph glyph-name="degree" unicode="&#xb0;" horiz-adv-x="651" 
d="M508 1006q-77 -74 -182 -74q-107 0 -181 74q-75 72 -75 178t75 178q74 74 181 74q105 0 182 -74q74 -74 74 -178t-74 -178zM326 1028q65 0 104 43.5t39 112.5q0 68 -39 111.5t-104 43.5q-63 0 -103.5 -43.5t-40.5 -111.5t40.5 -112t103.5 -44z" />
    <glyph glyph-name="plusminus" unicode="&#xb1;" horiz-adv-x="1146" 
d="M506 643h-397v131h397v369h135v-369h397v-131h-397v-369h-135v369zM1038 0h-929v131h929v-131z" />
    <glyph glyph-name="twosuperior" unicode="&#xb2;" horiz-adv-x="714" 
d="M659 561h-612q3 134 88 225q73 79 166 140q1 1 32 21.5t58 38.5l33 22q10 8 41 39q45 45 45 106q0 67 -39.5 106t-105.5 39q-74 0 -116 -48.5t-42 -139.5h-139q0 148 80.5 228.5t224.5 80.5q128 0 208.5 -75t80.5 -189q0 -116 -74 -184q-37 -36 -64 -55t-94 -60
q-17 -6 -59 -37q-39 -23 -60 -41q-70 -52 -84 -96h432v-121z" />
    <glyph glyph-name="threesuperior" unicode="&#xb3;" horiz-adv-x="751" 
d="M383 543q-154 0 -245.5 81t-92.5 220h139q9 -185 193 -185q80 0 126 39.5t46 112.5q0 139 -182 139h-54v113h52q75 0 117 33t42 90q0 56 -40.5 90.5t-104.5 34.5q-77 0 -120 -44.5t-48 -123.5h-139q5 128 87 203t222 75q128 0 206.5 -63t78.5 -168q0 -128 -138 -174v-4
q170 -41 170 -213q0 -119 -88 -187.5t-227 -68.5z" />
    <glyph glyph-name="acute" unicode="&#xb4;" 
d="M571 1225h-141l105 260h204z" />
    <glyph glyph-name="mu" unicode="&#xb5;" horiz-adv-x="1071" 
d="M279 -340h-166v1399h166v-729q0 -103 62.5 -160t174.5 -57q123 0 200 83t77 212v651h165v-1059h-165v145h-5q-126 -170 -309 -170q-130 0 -196 72h-4v-387z" />
    <glyph glyph-name="paragraph" unicode="&#xb6;" horiz-adv-x="1124" 
d="M543 0v723h-70q-201 0 -307.5 98.5t-106.5 278.5q0 156 105 264q97 100 295 100h528v-1464h-151v1305h-142v-1305h-151z" />
    <glyph glyph-name="middot" unicode="&#xb7;" horiz-adv-x="378" 
d="M295 539h-199v202h199v-202z" />
    <glyph glyph-name="cedilla" unicode="&#xb8;" 
d="M467 -391q-130 0 -219 59l33 60q73 -31 147 -31q119 0 119 65q0 58 -78 58q-41 0 -84 -15l-33 50l146 145h114l-120 -100v-4q74 8 131 -26.5t57 -105.5q0 -72 -58 -113.5t-155 -41.5z" />
    <glyph glyph-name="onesuperior" unicode="&#xb9;" horiz-adv-x="520" 
d="M397 561h-147v592h-203v100q204 3 225 156h125v-848z" />
    <glyph glyph-name="ordmasculine" unicode="&#xba;" horiz-adv-x="1042" 
d="M848 598q-123 -141 -326 -141q-202 0 -325 141q-123 138 -123 348q0 209 123 350q125 140 325 140q201 0 326 -140q121 -142 121 -350q0 -209 -121 -348zM311 686q72 -100 211 -100t211 100q72 101 72 260q0 158 -72 262q-73 101 -211 101t-211 -101t-73 -262
q0 -159 73 -260z" />
    <glyph glyph-name="guillemotright" unicode="&#xbb;" horiz-adv-x="868" 
d="M766 467l-281 -236v162l191 160v4l-191 162v162l281 -236v-178zM383 467l-281 -236v162l191 160v4l-191 162v162l281 -236v-178z" />
    <glyph glyph-name="onequarter" unicode="&#xbc;" horiz-adv-x="1595" 
d="M403 623h-147v591h-203v101q205 3 226 155h124v-847zM362 0h-147l928 1464h147zM1411 0h-141v193h-416v145l418 514h139v-547h133v-112h-133v-193zM1266 664l-293 -355v-4h297v359h-4z" />
    <glyph glyph-name="onehalf" unicode="&#xbd;" horiz-adv-x="1646" 
d="M403 623h-147v591h-203v101q205 3 226 155h124v-847zM338 0h-148l928 1464h148zM1585 0h-612q6 120 67 201.5t187 163.5q8 5 46 29.5t46 29.5q63 45 72 57q45 61 45 111q0 67 -40 106t-106 39q-74 0 -115.5 -48.5t-41.5 -139.5h-140q0 148 80.5 228.5t224.5 80.5
q128 0 208.5 -75t80.5 -189q0 -57 -15.5 -98t-53.5 -76q-34 -32 -64 -53q-27 -19 -84 -54q-4 -2 -11.5 -7.5t-10.5 -6.5q-182 -108 -203 -178h440v-121z" />
    <glyph glyph-name="threequarters" unicode="&#xbe;" horiz-adv-x="1730" 
d="M389 604q-154 0 -245.5 81t-92.5 220h139q9 -184 193 -184q81 0 126.5 39t45.5 112q0 140 -182 140h-54v112h52q75 0 117 33t42 90q0 56 -40.5 90.5t-104.5 34.5q-77 0 -120 -44.5t-48 -123.5h-139q5 128 87 203.5t222 75.5q128 0 206.5 -63.5t78.5 -168.5
q0 -128 -137 -174v-4q170 -41 170 -213q0 -119 -88.5 -187.5t-227.5 -68.5zM520 0h-147l927 1464h148zM1546 0h-141v193h-416v145l418 514h139v-547h133v-112h-133v-193zM1401 664l-293 -355v-4h297v359h-4z" />
    <glyph glyph-name="questiondown" unicode="&#xbf;" horiz-adv-x="1032" 
d="M508 -287q-208 0 -328 111q-119 113 -119 280q0 109 46.5 187t142.5 158q139 117 176 182q38 66 41 219h156q-3 -171 -48 -262q-45 -95 -167 -205q-66 -60 -89 -80q-27 -27 -53 -80q-28 -58 -28 -117q0 -107 75 -176t201 -69q151 0 230.5 91.5t84.5 258.5h168
q-5 -231 -128.5 -364.5t-360.5 -133.5zM645 1001h-199v203h199v-203z" />
    <glyph glyph-name="Agrave" unicode="&#xc0;" horiz-adv-x="1327" 
d="M209 0h-189l539 1464h207l541 -1464h-201l-156 446h-583zM594 1087l-174 -491h479l-168 491l-65 207h-4q-42 -128 -68 -207zM756 1542h-142l-168 248h205z" />
    <glyph glyph-name="Aacute" unicode="&#xc1;" horiz-adv-x="1327" 
d="M209 0h-189l539 1464h207l541 -1464h-201l-156 446h-583zM594 1087l-174 -491h479l-168 491l-65 207h-4q-42 -128 -68 -207zM733 1542h-141l104 248h205z" />
    <glyph glyph-name="Acircumflex" unicode="&#xc2;" horiz-adv-x="1327" 
d="M209 0h-189l539 1464h207l541 -1464h-201l-156 446h-583zM594 1087l-174 -491h479l-168 491l-65 207h-4q-42 -128 -68 -207zM561 1550h-174l191 217h188l182 -217h-178l-100 129h-4z" />
    <glyph glyph-name="Atilde" unicode="&#xc3;" horiz-adv-x="1327" 
d="M209 0h-189l539 1464h207l541 -1464h-201l-156 446h-583zM594 1087l-174 -491h479l-168 491l-65 207h-4q-42 -128 -68 -207zM799 1556q-61 0 -140 33t-106 33q-44 0 -47 -61h-123q15 188 158 188q63 0 133 -33t106 -33q47 0 56 62h118q-9 -189 -155 -189z" />
    <glyph glyph-name="Adieresis" unicode="&#xc4;" horiz-adv-x="1327" 
d="M209 0h-189l539 1464h207l541 -1464h-201l-156 446h-583zM594 1087l-174 -491h479l-168 491l-65 207h-4q-42 -128 -68 -207zM915 1556h-159v195h159v-195zM580 1556h-160v195h160v-195z" />
    <glyph glyph-name="Aring" unicode="&#xc5;" horiz-adv-x="1327" 
d="M209 0h-189l539 1464h207l541 -1464h-201l-156 446h-583zM594 1087l-174 -491h479l-168 491l-65 207h-4q-42 -128 -68 -207zM795 1579q-52 -51 -125.5 -51t-126.5 51t-53 123t53 123t126 51t126 -51t53 -123t-53 -123zM598 1630q26 -31 69.5 -31t69.5 31q26 29 26 72
t-26 74q-26 29 -69.5 29t-69.5 -29q-26 -31 -26 -74t26 -72z" />
    <glyph glyph-name="AE" unicode="&#xc6;" horiz-adv-x="1937" 
d="M561 1464h1274v-161h-760v-463h682v-156h-682v-514h785v-170h-969v446h-518l-158 -446h-186zM891 1303h-213l-252 -707h465v707z" />
    <glyph glyph-name="Ccedilla" unicode="&#xc7;" horiz-adv-x="1452" 
d="M711 -391q-130 0 -219 59l32 60q73 -31 148 -31q119 0 119 65q0 58 -78 58q-41 0 -84 -15l-33 50l119 118q-286 21 -459 230q-174 207 -174 530q0 331 188 549q188 215 506 215q246 0 401.5 -127t186.5 -340h-180q-27 141 -135.5 224t-276.5 83q-238 0 -369 -168
q-133 -171 -133 -436q0 -268 140 -434q138 -166 364 -166q190 0 301 112t125 292h182q-2 -109 -50 -223t-126 -189q-146 -140 -383 -152l-88 -73v-4q74 8 131.5 -26.5t57.5 -105.5q0 -72 -58 -113.5t-155 -41.5z" />
    <glyph glyph-name="Egrave" unicode="&#xc8;" horiz-adv-x="1273" 
d="M1196 0h-1059v1464h1034v-161h-849v-463h772v-156h-772v-514h874v-170zM766 1542h-141l-168 248h205z" />
    <glyph glyph-name="Eacute" unicode="&#xc9;" horiz-adv-x="1273" 
d="M1196 0h-1059v1464h1034v-161h-849v-463h772v-156h-772v-514h874v-170zM743 1542h-141l105 248h204z" />
    <glyph glyph-name="Ecircumflex" unicode="&#xca;" horiz-adv-x="1273" 
d="M1196 0h-1059v1464h1034v-161h-849v-463h772v-156h-772v-514h874v-170zM571 1550h-174l191 217h188l182 -217h-178l-100 129h-4z" />
    <glyph glyph-name="Edieresis" unicode="&#xcb;" horiz-adv-x="1273" 
d="M1196 0h-1059v1464h1034v-161h-849v-463h772v-156h-772v-514h874v-170zM926 1556h-160v195h160v-195zM590 1556h-160v195h160v-195z" />
    <glyph glyph-name="Igrave" unicode="&#xcc;" horiz-adv-x="466" 
d="M326 0h-185v1464h185v-1464zM322 1542h-142l-168 248h205z" />
    <glyph glyph-name="Iacute" unicode="&#xcd;" horiz-adv-x="466" 
d="M326 0h-185v1464h185v-1464zM299 1542h-141l104 248h205z" />
    <glyph glyph-name="Icircumflex" unicode="&#xce;" horiz-adv-x="466" 
d="M326 0h-185v1464h185v-1464zM127 1550h-174l190 217h189l182 -217h-178l-100 129h-5z" />
    <glyph glyph-name="Idieresis" unicode="&#xcf;" horiz-adv-x="466" 
d="M326 0h-185v1464h185v-1464zM481 1556h-159v195h159v-195zM145 1556h-159v195h159v-195z" />
    <glyph glyph-name="Eth" unicode="&#xd0;" horiz-adv-x="1423" 
d="M160 657h-150v156h150v651h532q324 0 486 -198q163 -199 163 -539q0 -342 -171.5 -534.5t-491.5 -192.5h-518v657zM344 657v-495h328q481 0 481 565q0 578 -467 578h-342v-492h424v-156h-424z" />
    <glyph glyph-name="Ntilde" unicode="&#xd1;" horiz-adv-x="1419" 
d="M309 0h-172v1464h195l667 -1018l107 -188h4v1206h172v-1464h-188l-672 1020l-109 182h-4v-1202zM874 1556q-60 0 -139 33t-106 33q-44 0 -47 -61h-123q15 188 157 188q64 0 134 -33t106 -33q46 0 55 62h119q-9 -189 -156 -189z" />
    <glyph glyph-name="Ograve" unicode="&#xd2;" horiz-adv-x="1597" 
d="M1321 184q-197 -215 -522 -215q-326 0 -520 215q-197 215 -197 549t197 549q194 215 520 215q325 0 522 -215q195 -216 195 -549t-195 -549zM410 299q137 -168 389 -168t389 168q139 171 139 434q0 265 -139 436q-137 168 -389 168t-389 -168q-140 -172 -140 -436
q0 -262 140 -434zM887 1542h-142l-167 248h204z" />
    <glyph glyph-name="Oacute" unicode="&#xd3;" horiz-adv-x="1597" 
d="M1321 184q-197 -215 -522 -215q-326 0 -520 215q-197 215 -197 549t197 549q194 215 520 215q325 0 522 -215q195 -216 195 -549t-195 -549zM410 299q137 -168 389 -168t389 168q139 171 139 434q0 265 -139 436q-137 168 -389 168t-389 -168q-140 -172 -140 -436
q0 -262 140 -434zM864 1542h-141l104 248h205z" />
    <glyph glyph-name="Ocircumflex" unicode="&#xd4;" horiz-adv-x="1597" 
d="M1321 184q-197 -215 -522 -215q-326 0 -520 215q-197 215 -197 549t197 549q194 215 520 215q325 0 522 -215q195 -216 195 -549t-195 -549zM410 299q137 -168 389 -168t389 168q139 171 139 434q0 265 -139 436q-137 168 -389 168t-389 -168q-140 -172 -140 -436
q0 -262 140 -434zM692 1550h-174l191 217h188l182 -217h-178l-100 129h-4z" />
    <glyph glyph-name="Otilde" unicode="&#xd5;" horiz-adv-x="1597" 
d="M1321 184q-197 -215 -522 -215q-326 0 -520 215q-197 215 -197 549t197 549q194 215 520 215q325 0 522 -215q195 -216 195 -549t-195 -549zM410 299q137 -168 389 -168t389 168q139 171 139 434q0 265 -139 436q-137 168 -389 168t-389 -168q-140 -172 -140 -436
q0 -262 140 -434zM930 1556q-60 0 -139 33t-107 33q-44 0 -47 -61h-123q15 188 158 188q63 0 133 -33t106 -33q47 0 56 62h118q-9 -189 -155 -189z" />
    <glyph glyph-name="Odieresis" unicode="&#xd6;" horiz-adv-x="1597" 
d="M1321 184q-197 -215 -522 -215q-326 0 -520 215q-197 215 -197 549t197 549q194 215 520 215q325 0 522 -215q195 -216 195 -549t-195 -549zM410 299q137 -168 389 -168t389 168q139 171 139 434q0 265 -139 436q-137 168 -389 168t-389 -168q-140 -172 -140 -436
q0 -262 140 -434zM1047 1556h-160v195h160v-195zM711 1556h-160v195h160v-195z" />
    <glyph glyph-name="multiply" unicode="&#xd7;" horiz-adv-x="1146" 
d="M573 575l-333 -335l-93 88l336 340l-336 340l93 88l333 -338l334 338l92 -88l-335 -340l335 -340l-92 -88z" />
    <glyph glyph-name="Oslash" unicode="&#xd8;" horiz-adv-x="1597" 
d="M319 141l-163 -174l-78 72l168 180q-164 206 -164 514q0 334 197 549q194 215 520 215q287 0 481 -176l162 172l78 -72l-166 -178q162 -204 162 -510q0 -333 -195 -549q-197 -215 -522 -215q-287 0 -480 172zM270 733q0 -229 101 -383l792 846q-141 141 -364 141
q-252 0 -389 -168q-140 -172 -140 -436zM799 131q252 0 389 168q139 171 139 434q0 228 -98 379l-793 -844q140 -137 363 -137z" />
    <glyph glyph-name="Ugrave" unicode="&#xd9;" horiz-adv-x="1347" 
d="M674 -23q-264 0 -412.5 124.5t-148.5 371.5v991h184v-972q0 -357 383 -357q371 0 371 357v972h184v-991q0 -252 -154 -373q-156 -123 -407 -123zM762 1542h-141l-168 248h204z" />
    <glyph glyph-name="Uacute" unicode="&#xda;" horiz-adv-x="1347" 
d="M674 -23q-264 0 -412.5 124.5t-148.5 371.5v991h184v-972q0 -357 383 -357q371 0 371 357v972h184v-991q0 -252 -154 -373q-156 -123 -407 -123zM739 1542h-141l104 248h205z" />
    <glyph glyph-name="Ucircumflex" unicode="&#xdb;" horiz-adv-x="1347" 
d="M674 -23q-264 0 -412.5 124.5t-148.5 371.5v991h184v-972q0 -357 383 -357q371 0 371 357v972h184v-991q0 -252 -154 -373q-156 -123 -407 -123zM567 1550h-174l191 217h188l182 -217h-178l-100 129h-4z" />
    <glyph glyph-name="Udieresis" unicode="&#xdc;" horiz-adv-x="1347" 
d="M674 -23q-264 0 -412.5 124.5t-148.5 371.5v991h184v-972q0 -357 383 -357q371 0 371 357v972h184v-991q0 -252 -154 -373q-156 -123 -407 -123zM922 1556h-160v195h160v-195zM586 1556h-160v195h160v-195z" />
    <glyph glyph-name="Yacute" unicode="&#xdd;" horiz-adv-x="1292" 
d="M735 0h-184v621l-531 843h205l420 -696h4l426 696h197l-537 -848v-616zM711 1542h-142l105 248h205z" />
    <glyph glyph-name="Thorn" unicode="&#xde;" horiz-adv-x="1228" 
d="M322 0h-185v1464h185v-260h426q228 0 348 -141q98 -113 98 -279q0 -206 -120.5 -318t-352.5 -112h-399v-354zM717 1044h-395v-540h385q150 0 227.5 70.5t77.5 201.5q0 130 -76.5 199t-218.5 69z" />
    <glyph glyph-name="germandbls" unicode="&#xdf;" horiz-adv-x="1030" 
d="M522 -23q-36 0 -104 11v135h4q165 -34 276 51q109 83 109 256q0 150 -83.5 235t-236.5 85h-55v127h62q115 0 186.5 68.5t71.5 178.5q0 101 -63 162.5t-171 61.5q-114 0 -176.5 -66t-62.5 -178v-1104h-166v1114q0 167 111 267t300 100q164 0 281 -97q110 -98 110 -254
q0 -226 -221 -303v-4q129 -38 206 -138t77 -249q0 -211 -122.5 -335t-332.5 -124z" />
    <glyph glyph-name="agrave" unicode="&#xe0;" horiz-adv-x="1044" 
d="M944 -10q-158 0 -182 157h-2q-130 -167 -352 -167q-162 0 -260.5 77.5t-98.5 216.5q0 109 47 174.5t140 102.5q105 40 274 65q80 10 152 31q41 9 57 25q45 35 45 96q0 90 -62.5 138t-175.5 48q-255 0 -264 -233h-160q5 165 114.5 261.5t307.5 96.5q391 0 391 -336v-503
q0 -72 24.5 -99t88.5 -14h6v-121q-43 -16 -90 -16zM444 106q153 0 238 91q84 90 84 194v180q-78 -47 -242 -77q-14 -3 -42.5 -8.5t-39 -7.5t-29.5 -6.5t-33.5 -9t-31.5 -11.5q-46 -18 -67 -39q-56 -49 -56 -133q0 -173 219 -173zM612 1225h-141l-168 260h205z" />
    <glyph glyph-name="aacute" unicode="&#xe1;" horiz-adv-x="1044" 
d="M944 -10q-158 0 -182 157h-2q-130 -167 -352 -167q-162 0 -260.5 77.5t-98.5 216.5q0 109 47 174.5t140 102.5q105 40 274 65q80 10 152 31q41 9 57 25q45 35 45 96q0 90 -62.5 138t-175.5 48q-255 0 -264 -233h-160q5 165 114.5 261.5t307.5 96.5q391 0 391 -336v-503
q0 -72 24.5 -99t88.5 -14h6v-121q-43 -16 -90 -16zM444 106q153 0 238 91q84 90 84 194v180q-78 -47 -242 -77q-14 -3 -42.5 -8.5t-39 -7.5t-29.5 -6.5t-33.5 -9t-31.5 -11.5q-46 -18 -67 -39q-56 -49 -56 -133q0 -173 219 -173zM600 1225h-141l104 260h205z" />
    <glyph glyph-name="acircumflex" unicode="&#xe2;" horiz-adv-x="1044" 
d="M944 -10q-158 0 -182 157h-2q-130 -167 -352 -167q-162 0 -260.5 77.5t-98.5 216.5q0 109 47 174.5t140 102.5q105 40 274 65q80 10 152 31q41 9 57 25q45 35 45 96q0 90 -62.5 138t-175.5 48q-255 0 -264 -233h-160q5 165 114.5 261.5t307.5 96.5q391 0 391 -336v-503
q0 -72 24.5 -99t88.5 -14h6v-121q-43 -16 -90 -16zM444 106q153 0 238 91q84 90 84 194v180q-78 -47 -242 -77q-14 -3 -42.5 -8.5t-39 -7.5t-29.5 -6.5t-33.5 -9t-31.5 -11.5q-46 -18 -67 -39q-56 -49 -56 -133q0 -173 219 -173zM418 1233h-174l190 217h189l182 -217h-178
l-101 129h-4z" />
    <glyph glyph-name="atilde" unicode="&#xe3;" horiz-adv-x="1044" 
d="M944 -10q-158 0 -182 157h-2q-130 -167 -352 -167q-162 0 -260.5 77.5t-98.5 216.5q0 109 47 174.5t140 102.5q105 40 274 65q80 10 152 31q41 9 57 25q45 35 45 96q0 90 -62.5 138t-175.5 48q-255 0 -264 -233h-160q5 165 114.5 261.5t307.5 96.5q391 0 391 -336v-503
q0 -72 24.5 -99t88.5 -14h6v-121q-43 -16 -90 -16zM444 106q153 0 238 91q84 90 84 194v180q-78 -47 -242 -77q-14 -3 -42.5 -8.5t-39 -7.5t-29.5 -6.5t-33.5 -9t-31.5 -11.5q-46 -18 -67 -39q-56 -49 -56 -133q0 -173 219 -173zM655 1231q-60 0 -139 33q-77 32 -106 32
q-45 0 -48 -61h-122q15 188 157 188q65 0 133 -32q70 -33 107 -33q46 0 55 61h119q-9 -188 -156 -188z" />
    <glyph glyph-name="adieresis" unicode="&#xe4;" horiz-adv-x="1044" 
d="M944 -10q-158 0 -182 157h-2q-130 -167 -352 -167q-162 0 -260.5 77.5t-98.5 216.5q0 109 47 174.5t140 102.5q105 40 274 65q80 10 152 31q41 9 57 25q45 35 45 96q0 90 -62.5 138t-175.5 48q-255 0 -264 -233h-160q5 165 114.5 261.5t307.5 96.5q391 0 391 -336v-503
q0 -72 24.5 -99t88.5 -14h6v-121q-43 -16 -90 -16zM444 106q153 0 238 91q84 90 84 194v180q-78 -47 -242 -77q-14 -3 -42.5 -8.5t-39 -7.5t-29.5 -6.5t-33.5 -9t-31.5 -11.5q-46 -18 -67 -39q-56 -49 -56 -133q0 -173 219 -173zM772 1260h-160v194h160v-194zM436 1260h-160
v194h160v-194z" />
    <glyph glyph-name="aring" unicode="&#xe5;" horiz-adv-x="1044" 
d="M944 -10q-158 0 -182 157h-2q-130 -167 -352 -167q-162 0 -260.5 77.5t-98.5 216.5q0 109 47 174.5t140 102.5q105 40 274 65q80 10 152 31q41 9 57 25q45 35 45 96q0 90 -62.5 138t-175.5 48q-255 0 -264 -233h-160q5 165 114.5 261.5t307.5 96.5q391 0 391 -336v-503
q0 -72 24.5 -99t88.5 -14h6v-121q-43 -16 -90 -16zM444 106q153 0 238 91q84 90 84 194v180q-78 -47 -242 -77q-14 -3 -42.5 -8.5t-39 -7.5t-29.5 -6.5t-33.5 -9t-31.5 -11.5q-46 -18 -67 -39q-56 -49 -56 -133q0 -173 219 -173zM651 1196q-53 -51 -126.5 -51t-125.5 51
q-53 51 -53 123t53 123q52 51 126 51t126 -51q53 -51 53 -123t-53 -123zM455 1247q26 -31 69.5 -31t69.5 31q26 29 26 72t-26 74q-26 29 -69.5 29t-69.5 -29q-26 -31 -26 -74t26 -72z" />
    <glyph glyph-name="ae" unicode="&#xe6;" horiz-adv-x="1722" 
d="M414 -20q-163 0 -264 79t-101 222q0 108 48 173.5t141 100.5q107 41 276 55q138 14 194 47.5t56 110.5q0 91 -59.5 138.5t-172.5 47.5q-254 0 -272 -233h-160q11 163 122.5 260.5t307.5 97.5q266 0 342 -166q120 172 342 172t342 -163q117 -164 117 -433h-753
q8 -177 88.5 -277.5t228.5 -100.5q99 0 164 56.5t88 160.5h162q-29 -167 -139.5 -262t-274.5 -95q-263 0 -389 215h-4q-87 -124 -185 -166q-87 -40 -245 -40zM446 106q153 0 238 91q82 88 82 194v162q-98 -51 -246 -66q-164 -20 -229.5 -61t-65.5 -141q0 -179 221 -179z
M1214 954q-125 0 -198.5 -90.5t-91.5 -249.5h571q-1 158 -77 249t-204 91z" />
    <glyph glyph-name="ccedilla" unicode="&#xe7;" horiz-adv-x="1062" 
d="M516 -391q-130 0 -219 59l33 60q73 -31 147 -31q119 0 119 65q0 58 -78 58q-40 0 -84 -15l-33 50l119 118q-212 15 -340 174q-127 157 -127 381q0 238 142 398q138 159 370 159q185 0 304.5 -98t148.5 -270h-168q-19 109 -93 170t-192 61q-164 0 -252 -119
q-90 -122 -90 -301q0 -187 90.5 -302t251.5 -115q127 0 202.5 68.5t86.5 193.5h164q-13 -173 -114.5 -277t-272.5 -121l-90 -75v-4q74 8 131 -26.5t57 -105.5q0 -72 -58 -113.5t-155 -41.5z" />
    <glyph glyph-name="egrave" unicode="&#xe8;" horiz-adv-x="1091" 
d="M565 -29q-233 0 -372 160q-140 158 -140 397q0 233 142 398q138 159 360 159q236 0 360 -161q127 -165 127 -435h-819q11 -171 101 -274.5t241 -103.5q238 0 293 217h162q-37 -170 -156 -263.5t-299 -93.5zM776 864q-81 90 -221 90q-141 0 -223 -94q-84 -96 -105 -246
h637q-9 162 -88 250zM643 1225h-141l-168 260h205z" />
    <glyph glyph-name="eacute" unicode="&#xe9;" horiz-adv-x="1091" 
d="M565 -29q-233 0 -372 160q-140 158 -140 397q0 233 142 398q138 159 360 159q236 0 360 -161q127 -165 127 -435h-819q11 -171 101 -274.5t241 -103.5q238 0 293 217h162q-37 -170 -156 -263.5t-299 -93.5zM776 864q-81 90 -221 90q-141 0 -223 -94q-84 -96 -105 -246
h637q-9 162 -88 250zM631 1225h-142l105 260h205z" />
    <glyph glyph-name="ecircumflex" unicode="&#xea;" horiz-adv-x="1091" 
d="M565 -29q-233 0 -372 160q-140 158 -140 397q0 233 142 398q138 159 360 159q236 0 360 -161q127 -165 127 -435h-819q11 -171 101 -274.5t241 -103.5q238 0 293 217h162q-37 -170 -156 -263.5t-299 -93.5zM776 864q-81 90 -221 90q-141 0 -223 -94q-84 -96 -105 -246
h637q-9 162 -88 250zM449 1233h-175l191 217h188l183 -217h-179l-100 129h-4z" />
    <glyph glyph-name="edieresis" unicode="&#xeb;" horiz-adv-x="1091" 
d="M565 -29q-233 0 -372 160q-140 158 -140 397q0 233 142 398q138 159 360 159q236 0 360 -161q127 -165 127 -435h-819q11 -171 101 -274.5t241 -103.5q238 0 293 217h162q-37 -170 -156 -263.5t-299 -93.5zM776 864q-81 90 -221 90q-141 0 -223 -94q-84 -96 -105 -246
h637q-9 162 -88 250zM803 1260h-160v194h160v-194zM467 1260h-160v194h160v-194z" />
    <glyph glyph-name="igrave" unicode="&#xec;" horiz-adv-x="391" 
d="M279 0h-166v1059h166v-1059zM-14 1485h202l95 -260h-140z" />
    <glyph glyph-name="iacute" unicode="&#xed;" horiz-adv-x="391" 
d="M268 1225h-139l94 260h203zM279 0h-166v1059h166v-1059z" />
    <glyph glyph-name="icircumflex" unicode="&#xee;" horiz-adv-x="391" 
d="M109 1233h-164l159 217h189l151 -217h-168l-79 125h-4zM279 0h-166v1059h166v-1059z" />
    <glyph glyph-name="idieresis" unicode="&#xef;" horiz-adv-x="391" 
d="M414 1260h-160v194h160v-194zM135 1260h-160v194h160v-194zM279 0h-166v1059h166v-1059z" />
    <glyph glyph-name="eth" unicode="&#xf0;" horiz-adv-x="1128" 
d="M336 1143l-31 90l260 80q-53 50 -184 151h207q54 -36 133 -102l197 61l30 -90l-149 -47q276 -305 276 -731q0 -258 -137 -420q-138 -164 -373 -164q-231 0 -370 160q-142 160 -142 397t133 394q131 155 357 155q184 0 311 -151q-66 160 -211 311zM565 111q163 0 252 120
q88 119 88 304q0 183 -92.5 294t-255.5 111q-157 0 -245.5 -113t-88.5 -299q0 -187 90.5 -302t251.5 -115z" />
    <glyph glyph-name="ntilde" unicode="&#xf1;" horiz-adv-x="1081" 
d="M113 1059h166v-139h4q123 163 335 163q169 0 263 -88.5t94 -251.5v-743h-166v729q0 102 -63.5 158.5t-176.5 56.5q-128 0 -209 -82t-81 -211v-651h-166v1059zM674 1231q-60 0 -139 33q-77 32 -107 32q-44 0 -47 -61h-123q15 188 158 188q65 0 133 -32q70 -33 106 -33
q47 0 56 61h118q-9 -188 -155 -188z" />
    <glyph glyph-name="ograve" unicode="&#xf2;" horiz-adv-x="1128" 
d="M936 131q-139 -160 -371 -160q-231 0 -370 160q-142 160 -142 397q0 238 142 398q138 159 370 159q233 0 371 -159q139 -160 139 -398q0 -237 -139 -397zM313 229q87 -118 252 -118t252 118q88 116 88 299q0 188 -91 304t-249 116q-164 0 -252 -119q-90 -122 -90 -301
q0 -180 90 -299zM651 1225h-141l-168 260h205z" />
    <glyph glyph-name="oacute" unicode="&#xf3;" horiz-adv-x="1128" 
d="M936 131q-139 -160 -371 -160q-231 0 -370 160q-142 160 -142 397q0 238 142 398q138 159 370 159q233 0 371 -159q139 -160 139 -398q0 -237 -139 -397zM313 229q87 -118 252 -118t252 118q88 116 88 299q0 188 -91 304t-249 116q-164 0 -252 -119q-90 -122 -90 -301
q0 -180 90 -299zM639 1225h-141l104 260h205z" />
    <glyph glyph-name="ocircumflex" unicode="&#xf4;" horiz-adv-x="1128" 
d="M936 131q-139 -160 -371 -160q-231 0 -370 160q-142 160 -142 397q0 238 142 398q138 159 370 159q233 0 371 -159q139 -160 139 -398q0 -237 -139 -397zM313 229q87 -118 252 -118t252 118q88 116 88 299q0 188 -91 304t-249 116q-164 0 -252 -119q-90 -122 -90 -301
q0 -180 90 -299zM457 1233h-174l190 217h189l182 -217h-178l-101 129h-4z" />
    <glyph glyph-name="otilde" unicode="&#xf5;" horiz-adv-x="1128" 
d="M936 131q-139 -160 -371 -160q-231 0 -370 160q-142 160 -142 397q0 238 142 398q138 159 370 159q233 0 371 -159q139 -160 139 -398q0 -237 -139 -397zM313 229q87 -118 252 -118t252 118q88 116 88 299q0 188 -91 304t-249 116q-164 0 -252 -119q-90 -122 -90 -301
q0 -180 90 -299zM694 1231q-60 0 -139 33q-77 32 -106 32q-45 0 -48 -61h-122q15 188 157 188q65 0 133 -32q70 -33 107 -33q46 0 55 61h119q-9 -188 -156 -188z" />
    <glyph glyph-name="odieresis" unicode="&#xf6;" horiz-adv-x="1128" 
d="M936 131q-139 -160 -371 -160q-231 0 -370 160q-142 160 -142 397q0 238 142 398q138 159 370 159q233 0 371 -159q139 -160 139 -398q0 -237 -139 -397zM313 229q87 -118 252 -118t252 118q88 116 88 299q0 188 -91 304t-249 116q-164 0 -252 -119q-90 -122 -90 -301
q0 -180 90 -299zM811 1260h-160v194h160v-194zM475 1260h-160v194h160v-194z" />
    <glyph glyph-name="divide" unicode="&#xf7;" horiz-adv-x="1146" 
d="M1038 602h-929v131h929v-131zM674 215h-199v203h199v-203zM674 918h-199v202h199v-202z" />
    <glyph glyph-name="oslash" unicode="&#xf8;" horiz-adv-x="1128" 
d="M225 100l-119 -129l-61 58l123 133q-115 154 -115 366q0 238 142 398q138 159 370 159q196 0 338 -127l117 127l61 -57l-120 -131q114 -153 114 -369q0 -237 -139 -397t-371 -160q-202 0 -340 129zM565 111q161 0 250.5 114.5t89.5 302.5q0 144 -55 248l-524 -565
q87 -100 239 -100zM223 528q0 -141 56 -247l522 567q-87 100 -236 100q-164 0 -252 -119q-90 -122 -90 -301z" />
    <glyph glyph-name="ugrave" unicode="&#xf9;" horiz-adv-x="1064" 
d="M952 1059v-1059h-166v145h-4q-126 -170 -319 -170q-165 0 -261 93.5t-96 257.5v733h166v-729q0 -103 62.5 -160t175.5 -57q123 0 199.5 83t76.5 212v651h166zM625 1225h-142l-168 260h205z" />
    <glyph glyph-name="uacute" unicode="&#xfa;" horiz-adv-x="1064" 
d="M952 1059v-1059h-166v145h-4q-126 -170 -319 -170q-165 0 -261 93.5t-96 257.5v733h166v-729q0 -103 62.5 -160t175.5 -57q123 0 199.5 83t76.5 212v651h166zM612 1225h-141l104 260h205z" />
    <glyph glyph-name="ucircumflex" unicode="&#xfb;" horiz-adv-x="1064" 
d="M952 1059v-1059h-166v145h-4q-126 -170 -319 -170q-165 0 -261 93.5t-96 257.5v733h166v-729q0 -103 62.5 -160t175.5 -57q123 0 199.5 83t76.5 212v651h166zM430 1233h-174l190 217h189l182 -217h-178l-100 129h-4z" />
    <glyph glyph-name="udieresis" unicode="&#xfc;" horiz-adv-x="1064" 
d="M952 1059v-1059h-166v145h-4q-126 -170 -319 -170q-165 0 -261 93.5t-96 257.5v733h166v-729q0 -103 62.5 -160t175.5 -57q123 0 199.5 83t76.5 212v651h166zM784 1260h-159v194h159v-194zM449 1260h-160v194h160v-194z" />
    <glyph glyph-name="yacute" unicode="&#xfd;" horiz-adv-x="1001" 
d="M248 -350q-92 0 -150 22v148h8q44 -23 113 -23q57 0 93 28.5t65 100.5l41 105l-414 1028h180l250 -660l72 -206h4q42 133 70 206l241 660h176l-452 -1145q-61 -154 -127 -211q-65 -53 -170 -53zM586 1225h-142l105 260h205z" />
    <glyph glyph-name="thorn" unicode="&#xfe;" horiz-adv-x="1130" 
d="M616 -31q-213 0 -333 156h-4v-465h-166v1804h166v-555h4q128 174 340 174q203 0 329 -147q125 -149 125 -410q0 -257 -123 -407t-338 -150zM604 109q145 0 224 112.5t79 302.5t-79 304t-222 114q-162 0 -250 -115t-88 -303q0 -193 84.5 -304t251.5 -111z" />
    <glyph glyph-name="ydieresis" unicode="&#xff;" horiz-adv-x="1001" 
d="M248 -350q-92 0 -150 22v148h8q44 -23 113 -23q57 0 93 28.5t65 100.5l41 105l-414 1028h180l250 -660l72 -206h4q42 133 70 206l241 660h176l-452 -1145q-61 -154 -127 -211q-65 -53 -170 -53zM758 1260h-160v194h160v-194zM422 1260h-160v194h160v-194z" />
    <glyph glyph-name="Amacron" unicode="&#x100;" horiz-adv-x="1327" 
d="M209 0h-189l539 1464h207l541 -1464h-201l-156 446h-583zM594 1087l-174 -491h479l-168 491l-65 207h-4q-42 -128 -68 -207zM932 1556h-529v138h529v-138z" />
    <glyph glyph-name="amacron" unicode="&#x101;" horiz-adv-x="1044" 
d="M944 -10q-158 0 -182 157h-2q-130 -167 -352 -167q-162 0 -260.5 77.5t-98.5 216.5q0 109 47 174.5t140 102.5q105 40 274 65q80 10 152 31q41 9 57 25q45 35 45 96q0 90 -62.5 138t-175.5 48q-255 0 -264 -233h-160q5 165 114.5 261.5t307.5 96.5q391 0 391 -336v-503
q0 -72 24.5 -99t88.5 -14h6v-121q-43 -16 -90 -16zM444 106q153 0 238 91q84 90 84 194v180q-78 -47 -242 -77q-14 -3 -42.5 -8.5t-39 -7.5t-29.5 -6.5t-33.5 -9t-31.5 -11.5q-46 -18 -67 -39q-56 -49 -56 -133q0 -173 219 -173zM788 1274h-528v137h528v-137z" />
    <glyph glyph-name="Abreve" unicode="&#x102;" horiz-adv-x="1327" 
d="M209 0h-189l539 1464h207l541 -1464h-201l-156 446h-583zM594 1087l-174 -491h479l-168 491l-65 207h-4q-42 -128 -68 -207zM668 1554q-107 0 -180.5 63t-79.5 165h122q21 -101 136 -101q122 0 143 101h119q-5 -98 -77 -163t-183 -65z" />
    <glyph glyph-name="abreve" unicode="&#x103;" horiz-adv-x="1044" 
d="M944 -10q-158 0 -182 157h-2q-130 -167 -352 -167q-162 0 -260.5 77.5t-98.5 216.5q0 109 47 174.5t140 102.5q105 40 274 65q80 10 152 31q41 9 57 25q45 35 45 96q0 90 -62.5 138t-175.5 48q-255 0 -264 -233h-160q5 165 114.5 261.5t307.5 96.5q391 0 391 -336v-503
q0 -72 24.5 -99t88.5 -14h6v-121q-43 -16 -90 -16zM444 106q153 0 238 91q84 90 84 194v180q-78 -47 -242 -77q-14 -3 -42.5 -8.5t-39 -7.5t-29.5 -6.5t-33.5 -9t-31.5 -11.5q-46 -18 -67 -39q-56 -49 -56 -133q0 -173 219 -173zM524 1237q-107 0 -180.5 63t-79.5 164h123
q21 -100 135 -100q123 0 144 100h118q-5 -98 -77 -162.5t-183 -64.5z" />
    <glyph glyph-name="Aogonek" unicode="&#x104;" horiz-adv-x="1327" 
d="M1212 -352q-97 0 -151.5 44t-54.5 118q0 96 104 178l-160 458h-583l-158 -446h-189l539 1464h207l534 -1446q-139 -112 -139 -182q0 -69 82 -69q44 0 76 14h6v-115q-59 -18 -113 -18zM594 1087l-174 -491h479l-168 491l-65 207h-4q-42 -128 -68 -207z" />
    <glyph glyph-name="aogonek" unicode="&#x105;" horiz-adv-x="1044" 
d="M926 -352q-97 0 -152 44t-55 118q0 116 145 190q-84 31 -102 147h-2q-130 -167 -352 -167q-162 0 -260.5 77.5t-98.5 216.5q0 109 47 174.5t140 102.5q105 40 274 65q80 10 152 31q41 9 57 25q45 35 45 96q0 90 -62.5 138t-175.5 48q-255 0 -264 -233h-160
q5 165 114.5 261.5t307.5 96.5q391 0 391 -336v-503q0 -72 24.5 -99t88.5 -14h6v-121q-65 -20 -112.5 -71t-47.5 -99q0 -69 82 -69q44 0 76 14h6v-115q-58 -18 -112 -18zM444 106q153 0 238 91q84 90 84 194v180q-78 -47 -242 -77q-14 -3 -42.5 -8.5t-39 -7.5t-29.5 -6.5
t-33.5 -9t-31.5 -11.5q-46 -18 -67 -39q-56 -49 -56 -133q0 -173 219 -173z" />
    <glyph glyph-name="Cacute" unicode="&#x106;" horiz-adv-x="1452" 
d="M768 -29q-309 0 -498 213q-188 212 -188 549q0 331 188 549q188 215 506 215q246 0 401.5 -127t186.5 -340h-180q-27 141 -135.5 224t-276.5 83q-238 0 -369 -168q-133 -171 -133 -436q0 -268 140 -434q138 -166 364 -166q190 0 301 112t125 292h182q-2 -109 -50 -223
t-126 -189q-157 -154 -438 -154zM829 1542h-141l105 248h204z" />
    <glyph glyph-name="cacute" unicode="&#x107;" horiz-adv-x="1062" 
d="M565 -29q-231 0 -370 160q-142 160 -142 397q0 238 142 398q138 159 370 159q185 0 304.5 -98t148.5 -270h-168q-19 109 -93 170t-192 61q-164 0 -252 -119q-90 -122 -90 -301q0 -187 90.5 -302t251.5 -115q127 0 202.5 68.5t86.5 193.5h164q-17 -191 -136 -296.5
t-317 -105.5zM645 1225h-141l104 260h205z" />
    <glyph glyph-name="Ccircumflex" unicode="&#x108;" horiz-adv-x="1452" 
d="M768 -29q-309 0 -498 213q-188 212 -188 549q0 331 188 549q188 215 506 215q246 0 401.5 -127t186.5 -340h-180q-27 141 -135.5 224t-276.5 83q-238 0 -369 -168q-133 -171 -133 -436q0 -268 140 -434q138 -166 364 -166q190 0 301 112t125 292h182q-2 -109 -50 -223
t-126 -189q-157 -154 -438 -154zM657 1550h-174l191 217h188l182 -217h-178l-100 129h-4z" />
    <glyph glyph-name="ccircumflex" unicode="&#x109;" horiz-adv-x="1062" 
d="M565 -29q-231 0 -370 160q-142 160 -142 397q0 238 142 398q138 159 370 159q185 0 304.5 -98t148.5 -270h-168q-19 109 -93 170t-192 61q-164 0 -252 -119q-90 -122 -90 -301q0 -187 90.5 -302t251.5 -115q127 0 202.5 68.5t86.5 193.5h164q-17 -191 -136 -296.5
t-317 -105.5zM463 1233h-174l190 217h189l182 -217h-178l-101 129h-4z" />
    <glyph glyph-name="Cdotaccent" unicode="&#x10a;" horiz-adv-x="1452" 
d="M768 -29q-309 0 -498 213q-188 212 -188 549q0 331 188 549q188 215 506 215q246 0 401.5 -127t186.5 -340h-180q-27 141 -135.5 224t-276.5 83q-238 0 -369 -168q-133 -171 -133 -436q0 -268 140 -434q138 -166 364 -166q190 0 301 112t125 292h182q-2 -109 -50 -223
t-126 -189q-157 -154 -438 -154zM844 1556h-160v195h160v-195z" />
    <glyph glyph-name="cdotaccent" unicode="&#x10b;" horiz-adv-x="1062" 
d="M565 -29q-231 0 -370 160q-142 160 -142 397q0 238 142 398q138 159 370 159q185 0 304.5 -98t148.5 -270h-168q-19 109 -93 170t-192 61q-164 0 -252 -119q-90 -122 -90 -301q0 -187 90.5 -302t251.5 -115q127 0 202.5 68.5t86.5 193.5h164q-17 -191 -136 -296.5
t-317 -105.5zM653 1260h-166v204h166v-204z" />
    <glyph glyph-name="Ccaron" unicode="&#x10c;" horiz-adv-x="1452" 
d="M768 -29q-309 0 -498 213q-188 212 -188 549q0 331 188 549q188 215 506 215q246 0 401.5 -127t186.5 -340h-180q-27 141 -135.5 224t-276.5 83q-238 0 -369 -168q-133 -171 -133 -436q0 -268 140 -434q138 -166 364 -166q190 0 301 112t125 292h182q-2 -109 -50 -223
t-126 -189q-157 -154 -438 -154zM854 1550h-188l-183 217h179l100 -129h4l104 129h174z" />
    <glyph glyph-name="ccaron" unicode="&#x10d;" horiz-adv-x="1062" 
d="M565 -29q-231 0 -370 160q-142 160 -142 397q0 238 142 398q138 159 370 159q185 0 304.5 -98t148.5 -270h-168q-19 109 -93 170t-192 61q-164 0 -252 -119q-90 -122 -90 -301q0 -187 90.5 -302t251.5 -115q127 0 202.5 68.5t86.5 193.5h164q-17 -191 -136 -296.5
t-317 -105.5zM659 1233h-188l-182 217h178l100 -129h4l105 129h174z" />
    <glyph glyph-name="Dcaron" unicode="&#x10e;" horiz-adv-x="1400" 
d="M655 0h-518v1464h533q323 0 485 -198q164 -200 164 -539q0 -342 -172 -534.5t-492 -192.5zM322 1305v-1143h327q481 0 481 565q0 578 -466 578h-342zM733 1550h-188l-183 217h179l100 -129h4l105 129h174z" />
    <glyph glyph-name="dcaron" unicode="&#x10f;" horiz-adv-x="1132" 
d="M522 -31q-214 0 -342 152q-127 151 -127 405q0 259 131 408t334 149q216 0 332 -174h4v555h166v-1464h-166v129h-4q-127 -160 -328 -160zM528 109q166 0 251 110t85 305q0 191 -90 304.5t-248 113.5q-144 0 -223.5 -114t-79.5 -304t80 -302.5t225 -112.5zM1128 1464h175
v-164q0 -167 -175 -188v78q82 24 82 110h-82v164z" />
    <glyph glyph-name="Dcroat" unicode="&#x110;" horiz-adv-x="1423" 
d="M160 657h-150v156h150v651h532q324 0 486 -198q163 -199 163 -539q0 -342 -171.5 -534.5t-491.5 -192.5h-518v657zM344 657v-495h328q481 0 481 565q0 578 -467 578h-342v-492h424v-156h-424z" />
    <glyph glyph-name="dslash" unicode="&#x111;" horiz-adv-x="1132" 
d="M854 1184h-276v129h276v151h166v-151h129v-129h-129v-1184h-166v129h-4q-127 -160 -328 -160q-214 0 -342 152q-127 151 -127 405q0 259 131 408t334 149q216 0 332 -174h4v275zM528 109q166 0 251 110t85 305q0 191 -90 304.5t-248 113.5q-144 0 -223.5 -114t-79.5 -304
t80 -302.5t225 -112.5z" />
    <glyph glyph-name="Emacron" unicode="&#x112;" horiz-adv-x="1273" 
d="M1196 0h-1059v1464h1034v-161h-849v-463h772v-156h-772v-514h874v-170zM942 1556h-528v138h528v-138z" />
    <glyph glyph-name="emacron" unicode="&#x113;" horiz-adv-x="1091" 
d="M565 -29q-233 0 -372 160q-140 158 -140 397q0 233 142 398q138 159 360 159q236 0 360 -161q127 -165 127 -435h-819q11 -171 101 -274.5t241 -103.5q238 0 293 217h162q-37 -170 -156 -263.5t-299 -93.5zM776 864q-81 90 -221 90q-141 0 -223 -94q-84 -96 -105 -246
h637q-9 162 -88 250zM819 1274h-528v137h528v-137z" />
    <glyph glyph-name="Ebreve" unicode="&#x114;" horiz-adv-x="1273" 
d="M1196 0h-1059v1464h1034v-161h-849v-463h772v-156h-772v-514h874v-170zM678 1554q-107 0 -180.5 63t-79.5 165h123q21 -101 135 -101q122 0 143 101h119q-5 -98 -77 -163t-183 -65z" />
    <glyph glyph-name="ebreve" unicode="&#x115;" horiz-adv-x="1091" 
d="M565 -29q-233 0 -372 160q-140 158 -140 397q0 233 142 398q138 159 360 159q236 0 360 -161q127 -165 127 -435h-819q11 -171 101 -274.5t241 -103.5q238 0 293 217h162q-37 -170 -156 -263.5t-299 -93.5zM776 864q-81 90 -221 90q-141 0 -223 -94q-84 -96 -105 -246
h637q-9 162 -88 250zM555 1237q-107 0 -180.5 63t-79.5 164h123q21 -100 135 -100q122 0 143 100h119q-5 -98 -77 -162.5t-183 -64.5z" />
    <glyph glyph-name="Edotaccent" unicode="&#x116;" horiz-adv-x="1273" 
d="M1196 0h-1059v1464h1034v-161h-849v-463h772v-156h-772v-514h874v-170zM758 1556h-160v195h160v-195z" />
    <glyph glyph-name="edotaccent" unicode="&#x117;" horiz-adv-x="1091" 
d="M565 -29q-233 0 -372 160q-140 158 -140 397q0 233 142 398q138 159 360 159q236 0 360 -161q127 -165 127 -435h-819q11 -171 101 -274.5t241 -103.5q238 0 293 217h162q-37 -170 -156 -263.5t-299 -93.5zM776 864q-81 90 -221 90q-141 0 -223 -94q-84 -96 -105 -246
h637q-9 162 -88 250zM639 1260h-166v204h166v-204z" />
    <glyph glyph-name="Eogonek" unicode="&#x118;" horiz-adv-x="1273" 
d="M922 0h-785v1464h1034v-161h-849v-463h772v-156h-772v-514h874v-170h-125q-119 -98 -119 -164q0 -69 82 -69q44 0 76 14h6v-115q-58 -18 -112 -18q-97 0 -152 44t-55 118q0 111 125 190z" />
    <glyph glyph-name="eogonek" unicode="&#x119;" horiz-adv-x="1091" 
d="M739 -352q-97 0 -152 44t-55 118q0 95 107 165q-66 -4 -74 -4q-233 0 -372 160q-140 158 -140 397q0 233 142 398q138 159 360 159q236 0 360 -161q127 -165 127 -435h-819q11 -171 101 -274.5t241 -103.5q238 0 293 217h162q-34 -162 -164 -277q-64 -57 -90.5 -85
t-50.5 -64q-27 -37 -27 -66q0 -69 82 -69q44 0 76 14h6v-115q-58 -18 -113 -18zM776 864q-81 90 -221 90q-141 0 -223 -94q-84 -96 -105 -246h637q-9 162 -88 250z" />
    <glyph glyph-name="Ecaron" unicode="&#x11a;" horiz-adv-x="1273" 
d="M1196 0h-1059v1464h1034v-161h-849v-463h772v-156h-772v-514h874v-170zM768 1550h-188l-183 217h178l101 -129h4l104 129h174z" />
    <glyph glyph-name="ecaron" unicode="&#x11b;" horiz-adv-x="1091" 
d="M565 -29q-233 0 -372 160q-140 158 -140 397q0 233 142 398q138 159 360 159q236 0 360 -161q127 -165 127 -435h-819q11 -171 101 -274.5t241 -103.5q238 0 293 217h162q-37 -170 -156 -263.5t-299 -93.5zM776 864q-81 90 -221 90q-141 0 -223 -94q-84 -96 -105 -246
h637q-9 162 -88 250zM645 1233h-188l-183 217h179l100 -129h4l105 129h174z" />
    <glyph glyph-name="Gcircumflex" unicode="&#x11c;" horiz-adv-x="1519" 
d="M1403 0h-119l-53 193h-4q-158 -224 -457 -224q-308 0 -498 211t-190 547q0 337 186 553q185 215 518 215q248 0 403.5 -124.5t192.5 -346.5h-190q-31 150 -136 230.5t-274 80.5q-255 0 -383 -168q-129 -169 -129 -440q0 -267 142 -432q141 -166 364 -166q215 0 330 127
q113 125 113 324v34h-441v160h625v-774zM668 1550h-174l190 217h188l183 -217h-178l-101 129h-4z" />
    <glyph glyph-name="gcircumflex" unicode="&#x11d;" horiz-adv-x="1112" 
d="M535 -352q-202 0 -318.5 76.5t-130.5 216.5h154q21 -162 290 -162q304 0 304 272v150h-5q-65 -85 -137.5 -124.5t-175.5 -39.5q-205 0 -334 147t-129 377q0 241 131 381q129 141 322 141q209 0 323 -159h5v135h165v-1002q0 -200 -122 -304.5t-342 -104.5zM524 176
q322 0 322 393q0 375 -324 375q-144 0 -221.5 -102.5t-77.5 -282.5q0 -179 78 -281t223 -102zM438 1233h-174l191 217h188l182 -217h-178l-100 129h-4z" />
    <glyph glyph-name="Gbreve" unicode="&#x11e;" horiz-adv-x="1519" 
d="M1403 0h-119l-53 193h-4q-158 -224 -457 -224q-308 0 -498 211t-190 547q0 337 186 553q185 215 518 215q248 0 403.5 -124.5t192.5 -346.5h-190q-31 150 -136 230.5t-274 80.5q-255 0 -383 -168q-129 -169 -129 -440q0 -267 142 -432q141 -166 364 -166q215 0 330 127
q113 125 113 324v34h-441v160h625v-774zM774 1554q-107 0 -180.5 63t-79.5 165h123q21 -101 135 -101q122 0 143 101h119q-5 -98 -77 -163t-183 -65z" />
    <glyph glyph-name="gbreve" unicode="&#x11f;" horiz-adv-x="1112" 
d="M535 -352q-202 0 -318.5 76.5t-130.5 216.5h154q21 -162 290 -162q304 0 304 272v150h-5q-65 -85 -137.5 -124.5t-175.5 -39.5q-205 0 -334 147t-129 377q0 241 131 381q129 141 322 141q209 0 323 -159h5v135h165v-1002q0 -200 -122 -304.5t-342 -104.5zM524 176
q322 0 322 393q0 375 -324 375q-144 0 -221.5 -102.5t-77.5 -282.5q0 -179 78 -281t223 -102zM545 1237q-107 0 -180.5 63t-79.5 164h123q21 -100 135 -100q122 0 143 100h119q-5 -98 -77 -162.5t-183 -64.5z" />
    <glyph glyph-name="Gdotaccent" unicode="&#x120;" horiz-adv-x="1519" 
d="M1403 0h-119l-53 193h-4q-158 -224 -457 -224q-308 0 -498 211t-190 547q0 337 186 553q185 215 518 215q248 0 403.5 -124.5t192.5 -346.5h-190q-31 150 -136 230.5t-274 80.5q-255 0 -383 -168q-129 -169 -129 -440q0 -267 142 -432q141 -166 364 -166q215 0 330 127
q113 125 113 324v34h-441v160h625v-774zM854 1556h-160v195h160v-195z" />
    <glyph glyph-name="gdotaccent" unicode="&#x121;" horiz-adv-x="1112" 
d="M535 -352q-202 0 -318.5 76.5t-130.5 216.5h154q21 -162 290 -162q304 0 304 272v150h-5q-65 -85 -137.5 -124.5t-175.5 -39.5q-205 0 -334 147t-129 377q0 241 131 381q129 141 322 141q209 0 323 -159h5v135h165v-1002q0 -200 -122 -304.5t-342 -104.5zM524 176
q322 0 322 393q0 375 -324 375q-144 0 -221.5 -102.5t-77.5 -282.5q0 -179 78 -281t223 -102zM629 1260h-166v204h166v-204z" />
    <glyph glyph-name="Gcommaaccent" unicode="&#x122;" horiz-adv-x="1519" 
d="M1403 0h-119l-53 193h-4q-158 -224 -457 -224q-308 0 -498 211t-190 547q0 337 186 553q185 215 518 215q248 0 403.5 -124.5t192.5 -346.5h-190q-31 150 -136 230.5t-274 80.5q-255 0 -383 -168q-129 -169 -129 -440q0 -267 142 -432q141 -166 364 -166q215 0 330 127
q113 125 113 324v34h-441v160h625v-774zM686 -467v78q43 13 62.5 38.5t19.5 78.5h-80v182h174v-182q0 -174 -176 -195z" />
    <glyph glyph-name="gcommaaccent" unicode="&#x123;" horiz-adv-x="1112" 
d="M535 -352q-202 0 -318.5 76.5t-130.5 216.5h154q21 -162 290 -162q304 0 304 272v150h-5q-65 -85 -137.5 -124.5t-175.5 -39.5q-205 0 -334 147t-129 377q0 241 131 381q129 141 322 141q209 0 323 -159h5v135h165v-1002q0 -200 -122 -304.5t-342 -104.5zM524 176
q322 0 322 393q0 375 -324 375q-144 0 -221.5 -102.5t-77.5 -282.5q0 -179 78 -281t223 -102zM625 1614v-78q-43 -13 -62.5 -38.5t-19.5 -78.5h80v-182h-174v182q0 174 176 195z" />
    <glyph glyph-name="Hcircumflex" unicode="&#x124;" horiz-adv-x="1425" 
d="M322 0h-185v1464h185v-622h782v622h184v-1464h-184v692h-782v-692zM606 1550h-174l191 217h188l182 -217h-178l-100 129h-4z" />
    <glyph glyph-name="hcircumflex" unicode="&#x125;" horiz-adv-x="1081" 
d="M113 1464h166v-544h4q123 163 335 163q169 0 263 -88.5t94 -251.5v-743h-166v729q0 102 -63.5 158.5t-176.5 56.5q-128 0 -209 -82t-81 -211v-651h-166v1464zM436 1550h-174l191 217h188l182 -217h-178l-100 129h-4z" />
    <glyph glyph-name="Hbar" unicode="&#x126;" horiz-adv-x="1425" 
d="M137 1036h-143v140h143v288h185v-288h782v288h184v-288h144v-140h-144v-1036h-184v692h-782v-692h-185v1036zM322 1036v-194h782v194h-782z" />
    <glyph glyph-name="hbar" unicode="&#x127;" horiz-adv-x="1081" 
d="M113 1184h-129v129h129v151h166v-151h276v-129h-276v-264h4q123 163 335 163q169 0 263 -88.5t94 -251.5v-743h-166v729q0 102 -63.5 158.5t-176.5 56.5q-128 0 -209 -82t-81 -211v-651h-166v1184z" />
    <glyph glyph-name="Itilde" unicode="&#x128;" horiz-adv-x="466" 
d="M326 0h-185v1464h185v-1464zM365 1556q-61 0 -140 33t-106 33q-44 0 -47 -61h-123q15 188 157 188q64 0 134 -33t106 -33q46 0 55 62h119q-9 -189 -155 -189z" />
    <glyph glyph-name="itilde" unicode="&#x129;" horiz-adv-x="391" 
d="M301 1231q-44 0 -111 33q-70 30 -90 30q-36 0 -39 -59h-118q12 188 149 188q40 0 111 -30q67 -33 88 -33q40 0 43 59h115q-6 -188 -148 -188zM279 0h-166v1059h166v-1059z" />
    <glyph glyph-name="Imacron" unicode="&#x12a;" horiz-adv-x="466" 
d="M326 0h-185v1464h185v-1464zM457 1556h-447v138h447v-138z" />
    <glyph glyph-name="imacron" unicode="&#x12b;" horiz-adv-x="391" 
d="M279 0h-166v1059h166v-1059zM397 1274h-405v137h405v-137z" />
    <glyph glyph-name="Ibreve" unicode="&#x12c;" horiz-adv-x="466" 
d="M326 0h-185v1464h185v-1464zM233 1554q-107 0 -180.5 63t-79.5 165h123q21 -101 135 -101q123 0 144 101h119q-5 -98 -77.5 -163t-183.5 -65z" />
    <glyph glyph-name="ibreve" unicode="&#x12d;" horiz-adv-x="391" 
d="M195 1237q-107 0 -181 63t-80 164h123q21 -100 136 -100q122 0 143 100h119q-5 -98 -77 -162.5t-183 -64.5zM279 0h-166v1059h166v-1059z" />
    <glyph glyph-name="Iogonek" unicode="&#x12e;" horiz-adv-x="466" 
d="M166 0h-25v1464h185v-1460q-129 -94 -129 -168q0 -69 82 -69q43 0 75 14h6v-115q-58 -18 -112 -18q-97 0 -152 44t-55 118q0 111 125 190z" />
    <glyph glyph-name="iogonek" unicode="&#x12f;" horiz-adv-x="391" 
d="M2 -190q0 108 111 184v1065h166v-1055q-121 -89 -121 -168q0 -69 73 -69q42 0 74 14h6v-115q-59 -18 -110 -18q-93 0 -146 44t-53 118zM279 1260h-166v204h166v-204z" />
    <glyph glyph-name="Idot" unicode="&#x130;" horiz-adv-x="466" 
d="M326 0h-185v1464h185v-1464zM313 1556h-159v195h159v-195z" />
    <glyph glyph-name="dotlessi" unicode="&#x131;" horiz-adv-x="391" 
d="M279 0h-166v1059h166v-1059z" />
    <glyph glyph-name="IJ" unicode="&#x132;" horiz-adv-x="1449" 
d="M326 0h-185v1464h185v-1464zM907 -29q-430 0 -430 484v20h182v-14q0 -186 59 -262t195 -76q234 0 234 260v1081h184v-1093q0 -186 -110 -293t-314 -107z" />
    <glyph glyph-name="ij" unicode="&#x133;" horiz-adv-x="782" 
d="M279 0h-166v1059h166v-1059zM279 1260h-166v204h166v-204zM426 -301q-45 0 -92 8v135h4q30 -6 57 -6q109 0 109 103v1120h166v-1129q0 -129 -60 -180t-184 -51zM670 1260h-166v204h166v-204z" />
    <glyph glyph-name="Jcircumflex" unicode="&#x134;" horiz-adv-x="1017" 
d="M475 -29q-430 0 -430 484v20h182v-14q0 -186 59 -262t195 -76q234 0 234 260v1081h184v-1093q0 -185 -111 -292.5t-313 -107.5zM700 1550h-174l191 217h188l182 -217h-178l-100 129h-4z" />
    <glyph glyph-name="jcircumflex" unicode="&#x135;" horiz-adv-x="391" 
d="M109 1233h-164l159 217h189l151 -217h-168l-79 125h-4zM35 -301q-45 0 -92 8v135h4q30 -6 57 -6q109 0 109 103v1120h166v-1129q0 -129 -60 -180t-184 -51z" />
    <glyph glyph-name="Kcommaaccent" unicode="&#x136;" horiz-adv-x="1318" 
d="M322 0h-185v1464h185v-727l720 727h232l-592 -585l641 -879h-215l-551 754l-235 -236v-518zM563 -467v78q43 13 62.5 38.5t19.5 78.5h-80v182h174v-182q0 -174 -176 -195z" />
    <glyph glyph-name="kcommaaccent" unicode="&#x137;" horiz-adv-x="1001" 
d="M1004 0h-195l-375 571l-155 -147v-424h-166v1464h166v-858l464 453h211l-405 -381zM432 -467v78q43 13 62.5 38.5t19.5 78.5h-80v182h174v-182q0 -174 -176 -195z" />
    <glyph glyph-name="Lacute" unicode="&#x139;" horiz-adv-x="1134" 
d="M1090 0h-953v1464h185v-1294h768v-170zM295 1542h-141l104 248h205z" />
    <glyph glyph-name="lacute" unicode="&#x13a;" horiz-adv-x="403" 
d="M285 0h-166v1464h166v-1464zM276 1542h-141l105 248h204z" />
    <glyph glyph-name="Lcommaaccent" unicode="&#x13b;" horiz-adv-x="1134" 
d="M1090 0h-953v1464h185v-1294h768v-170zM537 -467v78q43 13 62 38t19 79h-79v182h174v-182q0 -174 -176 -195z" />
    <glyph glyph-name="lcommaaccent" unicode="&#x13c;" horiz-adv-x="403" 
d="M285 0h-166v1464h166v-1464zM113 -467v78q43 13 62.5 38.5t19.5 78.5h-80v182h174v-182q0 -174 -176 -195z" />
    <glyph glyph-name="Lcaron" unicode="&#x13d;" horiz-adv-x="1134" 
d="M1090 0h-953v1464h185v-1294h768v-170zM651 1464h174v-164q0 -167 -174 -188v78q82 24 82 110h-82v164z" />
    <glyph glyph-name="lcaron" unicode="&#x13e;" horiz-adv-x="403" 
d="M285 0h-166v1464h166v-1464zM393 1464h174v-164q0 -167 -174 -188v78q82 24 82 110h-82v164z" />
    <glyph glyph-name="Ldot" unicode="&#x13f;" horiz-adv-x="1134" 
d="M1090 0h-953v1464h185v-1294h768v-170zM944 676h-199v203h199v-203z" />
    <glyph glyph-name="ldot" unicode="&#x140;" horiz-adv-x="602" 
d="M285 0h-166v1464h166v-1464zM596 600h-199v203h199v-203z" />
    <glyph glyph-name="Lslash" unicode="&#x141;" horiz-adv-x="1134" 
d="M137 489l-147 -77v157l147 78v817h185v-716l507 272v-158l-507 -272v-420h768v-170h-953v489z" />
    <glyph glyph-name="lslash" unicode="&#x142;" horiz-adv-x="464" 
d="M150 606l-140 -112v157l140 113v700h165v-567l162 131v-158l-162 -131v-739h-165v606z" />
    <glyph glyph-name="Nacute" unicode="&#x143;" horiz-adv-x="1419" 
d="M309 0h-172v1464h195l667 -1018l107 -188h4v1206h172v-1464h-188l-672 1020l-109 182h-4v-1202zM809 1542h-141l104 248h205z" />
    <glyph glyph-name="nacute" unicode="&#x144;" horiz-adv-x="1081" 
d="M113 1059h166v-139h4q123 163 335 163q169 0 263 -88.5t94 -251.5v-743h-166v729q0 102 -63.5 158.5t-176.5 56.5q-128 0 -209 -82t-81 -211v-651h-166v1059zM618 1225h-141l105 260h204z" />
    <glyph glyph-name="Ncommaaccent" unicode="&#x145;" horiz-adv-x="1419" 
d="M309 0h-172v1464h195l667 -1018l107 -188h4v1206h172v-1464h-188l-672 1020l-109 182h-4v-1202zM596 -467v78q43 13 62.5 38.5t19.5 78.5h-80v182h174v-182q0 -174 -176 -195z" />
    <glyph glyph-name="ncommaaccent" unicode="&#x146;" horiz-adv-x="1081" 
d="M113 1059h166v-139h4q123 163 335 163q169 0 263 -88.5t94 -251.5v-743h-166v729q0 102 -63.5 158.5t-176.5 56.5q-128 0 -209 -82t-81 -211v-651h-166v1059zM455 -467v78q43 13 62.5 38.5t19.5 78.5h-80v182h174v-182q0 -174 -176 -195z" />
    <glyph glyph-name="Ncaron" unicode="&#x147;" horiz-adv-x="1419" 
d="M309 0h-172v1464h195l667 -1018l107 -188h4v1206h172v-1464h-188l-672 1020l-109 182h-4v-1202zM834 1550h-189l-182 217h178l100 -129h4l105 129h174z" />
    <glyph glyph-name="ncaron" unicode="&#x148;" horiz-adv-x="1081" 
d="M113 1059h166v-139h4q123 163 335 163q169 0 263 -88.5t94 -251.5v-743h-166v729q0 102 -63.5 158.5t-176.5 56.5q-128 0 -209 -82t-81 -211v-651h-166v1059zM633 1233h-189l-182 217h178l101 -129h4l104 129h174z" />
    <glyph glyph-name="napostrophe" unicode="&#x149;" horiz-adv-x="1081" 
d="M113 1059h166v-139h4q123 163 335 163q169 0 263 -88.5t94 -251.5v-743h-166v729q0 102 -63.5 158.5t-176.5 56.5q-128 0 -209 -82t-81 -211v-651h-166v1059zM-25 1464h175v-164q0 -167 -175 -188v78q82 24 82 110h-82v164z" />
    <glyph glyph-name="Omacron" unicode="&#x14c;" horiz-adv-x="1597" 
d="M1321 184q-197 -215 -522 -215q-326 0 -520 215q-197 215 -197 549t197 549q194 215 520 215q325 0 522 -215q195 -216 195 -549t-195 -549zM410 299q137 -168 389 -168t389 168q139 171 139 434q0 265 -139 436q-137 168 -389 168t-389 -168q-140 -172 -140 -436
q0 -262 140 -434zM1063 1556h-528v138h528v-138z" />
    <glyph glyph-name="omacron" unicode="&#x14d;" horiz-adv-x="1128" 
d="M936 131q-139 -160 -371 -160q-231 0 -370 160q-142 160 -142 397q0 238 142 398q138 159 370 159q233 0 371 -159q139 -160 139 -398q0 -237 -139 -397zM313 229q87 -118 252 -118t252 118q88 116 88 299q0 188 -91 304t-249 116q-164 0 -252 -119q-90 -122 -90 -301
q0 -180 90 -299zM827 1274h-528v137h528v-137z" />
    <glyph glyph-name="Obreve" unicode="&#x14e;" horiz-adv-x="1597" 
d="M1321 184q-197 -215 -522 -215q-326 0 -520 215q-197 215 -197 549t197 549q194 215 520 215q325 0 522 -215q195 -216 195 -549t-195 -549zM410 299q137 -168 389 -168t389 168q139 171 139 434q0 265 -139 436q-137 168 -389 168t-389 -168q-140 -172 -140 -436
q0 -262 140 -434zM799 1554q-107 0 -180.5 63t-79.5 165h123q21 -101 135 -101q122 0 143 101h119q-5 -98 -77 -163t-183 -65z" />
    <glyph glyph-name="obreve" unicode="&#x14f;" horiz-adv-x="1128" 
d="M936 131q-139 -160 -371 -160q-231 0 -370 160q-142 160 -142 397q0 238 142 398q138 159 370 159q233 0 371 -159q139 -160 139 -398q0 -237 -139 -397zM313 229q87 -118 252 -118t252 118q88 116 88 299q0 188 -91 304t-249 116q-164 0 -252 -119q-90 -122 -90 -301
q0 -180 90 -299zM563 1237q-107 0 -180.5 63t-79.5 164h123q21 -100 135 -100q123 0 144 100h118q-5 -98 -77 -162.5t-183 -64.5z" />
    <glyph glyph-name="Ohungarumlaut" unicode="&#x150;" horiz-adv-x="1597" 
d="M1321 184q-197 -215 -522 -215q-326 0 -520 215q-197 215 -197 549t197 549q194 215 520 215q325 0 522 -215q195 -216 195 -549t-195 -549zM410 299q137 -168 389 -168t389 168q139 171 139 434q0 265 -139 436q-137 168 -389 168t-389 -168q-140 -172 -140 -436
q0 -262 140 -434zM1012 1542h-125l63 260h168zM745 1542h-124l63 260h168z" />
    <glyph glyph-name="ohungarumlaut" unicode="&#x151;" horiz-adv-x="1128" 
d="M936 131q-139 -160 -371 -160q-231 0 -370 160q-142 160 -142 397q0 238 142 398q138 159 370 159q233 0 371 -159q139 -160 139 -398q0 -237 -139 -397zM313 229q87 -118 252 -118t252 118q88 116 88 299q0 188 -91 304t-249 116q-164 0 -252 -119q-90 -122 -90 -301
q0 -180 90 -299zM766 1225h-125l64 260h167zM500 1225h-125l63 260h168z" />
    <glyph glyph-name="OE" unicode="&#x152;" horiz-adv-x="2195" 
d="M752 -31q-295 0 -482 217q-188 215 -188 547q0 330 190 547t480 217q232 0 372 -168v135h969v-161h-784v-463h706v-156h-706v-514h809v-170h-994v115q-137 -146 -372 -146zM756 131q143 0 258 74q110 73 110 194v670q-9 118 -118 193t-250 75q-226 0 -355 -170
q-131 -168 -131 -434q0 -264 129 -434q128 -168 357 -168z" />
    <glyph glyph-name="oe" unicode="&#x153;" horiz-adv-x="1757" 
d="M514 -29q-214 0 -338 160q-123 156 -123 397t123 400q124 157 338 157q244 0 363 -227q113 227 372 227q222 0 342 -163q117 -164 117 -433h-754q8 -177 88.5 -277.5t229.5 -100.5q99 0 164 56.5t88 160.5h162q-29 -167 -139.5 -262t-274.5 -95q-275 0 -393 232
q-118 -232 -365 -232zM299 227q73 -116 215 -116t215 116q74 118 74 301q0 182 -74 303q-74 117 -215 117q-142 0 -215 -117q-76 -119 -76 -303q0 -185 76 -301zM1249 954q-126 0 -199.5 -90.5t-91.5 -249.5h572q-1 158 -77 249t-204 91z" />
    <glyph glyph-name="Racute" unicode="&#x154;" horiz-adv-x="1339" 
d="M322 0h-185v1464h684q195 0 314 -110q118 -109 118 -291q0 -281 -254 -363v-6q108 -38 154 -120.5t57 -251.5q21 -279 68 -314v-8h-199q-21 18 -30 78q-12 80 -23 250q-10 159 -78.5 224.5t-218.5 65.5h-407v-618zM766 1305h-444v-537h434q151 0 229 69.5t78 198.5
q0 138 -70.5 203.5t-226.5 65.5zM735 1542h-141l104 248h205z" />
    <glyph glyph-name="racute" unicode="&#x155;" horiz-adv-x="702" 
d="M113 1059h166v-176h4q52 87 134.5 137.5t180.5 50.5q38 0 68 -12v-160h-7q-33 10 -73 10q-129 0 -217 -88q-90 -90 -90 -233v-588h-166v1059zM479 1225h-141l104 260h205z" />
    <glyph glyph-name="Rcommaaccent" unicode="&#x156;" horiz-adv-x="1339" 
d="M322 0h-185v1464h684q195 0 314 -110q118 -109 118 -291q0 -281 -254 -363v-6q108 -38 154 -120.5t57 -251.5q21 -279 68 -314v-8h-199q-21 18 -30 78q-12 80 -23 250q-10 159 -78.5 224.5t-218.5 65.5h-407v-618zM766 1305h-444v-537h434q151 0 229 69.5t78 198.5
q0 138 -70.5 203.5t-226.5 65.5zM618 -467v78q43 13 62.5 38.5t19.5 78.5h-79v182h174v-182q0 -174 -177 -195z" />
    <glyph glyph-name="rcommaaccent" unicode="&#x157;" horiz-adv-x="702" 
d="M113 1059h166v-176h4q52 87 134.5 137.5t180.5 50.5q38 0 68 -12v-160h-7q-33 10 -73 10q-129 0 -217 -88q-90 -90 -90 -233v-588h-166v1059zM106 -467v78q43 13 62.5 38.5t19.5 78.5h-79v182h174v-182q0 -174 -177 -195z" />
    <glyph glyph-name="Rcaron" unicode="&#x158;" horiz-adv-x="1339" 
d="M322 0h-185v1464h684q195 0 314 -110q118 -109 118 -291q0 -281 -254 -363v-6q108 -38 154 -120.5t57 -251.5q21 -279 68 -314v-8h-199q-21 18 -30 78q-12 80 -23 250q-10 159 -78.5 224.5t-218.5 65.5h-407v-618zM766 1305h-444v-537h434q151 0 229 69.5t78 198.5
q0 138 -70.5 203.5t-226.5 65.5zM760 1550h-189l-182 217h178l101 -129h4l104 129h174z" />
    <glyph glyph-name="rcaron" unicode="&#x159;" horiz-adv-x="702" 
d="M113 1059h166v-176h4q52 87 134.5 137.5t180.5 50.5q38 0 68 -12v-160h-7q-33 10 -73 10q-129 0 -217 -88q-90 -90 -90 -233v-588h-166v1059zM494 1233h-189l-182 217h178l100 -129h5l104 129h174z" />
    <glyph glyph-name="Sacute" unicode="&#x15a;" horiz-adv-x="1282" 
d="M670 -29q-295 0 -453 146q-160 145 -172 379h180q37 -377 453 -377q161 0 254.5 71.5t93.5 202.5q-8 93 -46 145t-126 87t-266 73q-116 25 -189 51.5t-145 69.5q-145 87 -145 287q0 179 135 283t362 104q494 0 555 -457h-174q-20 155 -116 234.5t-261 79.5
q-153 0 -241 -62t-88 -174q0 -72 39 -118.5t116 -77.5q100 -38 228 -62q113 -22 176 -39.5t137 -50.5q80 -34 125 -80q106 -110 106 -287q0 -199 -147 -313q-151 -115 -391 -115zM688 1542h-141l104 248h205z" />
    <glyph glyph-name="sacute" unicode="&#x15b;" horiz-adv-x="978" 
d="M514 -31q-216 0 -336.5 97t-132.5 278h170q27 -235 303 -235q121 0 183.5 46.5t62.5 127.5q0 82 -59 120q-52 33 -218 70q-115 23 -194 51q-50 14 -82 39q-57 40 -88 92.5t-31 135.5q0 136 99.5 213t281.5 77q376 0 416 -331h-170q-12 104 -72 152t-178 48
q-106 0 -159.5 -40.5t-53.5 -110.5q0 -79 61 -109q51 -28 224 -65q105 -22 159 -39t113 -51q119 -71 119 -244q0 -153 -113 -237.5t-305 -84.5zM563 1225h-141l104 260h205z" />
    <glyph glyph-name="Scircumflex" unicode="&#x15c;" horiz-adv-x="1282" 
d="M670 -29q-295 0 -453 146q-160 145 -172 379h180q37 -377 453 -377q161 0 254.5 71.5t93.5 202.5q-8 93 -46 145t-126 87t-266 73q-116 25 -189 51.5t-145 69.5q-145 87 -145 287q0 179 135 283t362 104q494 0 555 -457h-174q-20 155 -116 234.5t-261 79.5
q-153 0 -241 -62t-88 -174q0 -72 39 -118.5t116 -77.5q100 -38 228 -62q113 -22 176 -39.5t137 -50.5q80 -34 125 -80q106 -110 106 -287q0 -199 -147 -313q-151 -115 -391 -115zM516 1550h-174l190 217h189l182 -217h-178l-100 129h-4z" />
    <glyph glyph-name="scircumflex" unicode="&#x15d;" horiz-adv-x="978" 
d="M514 -31q-216 0 -336.5 97t-132.5 278h170q27 -235 303 -235q121 0 183.5 46.5t62.5 127.5q0 82 -59 120q-52 33 -218 70q-115 23 -194 51q-50 14 -82 39q-57 40 -88 92.5t-31 135.5q0 136 99.5 213t281.5 77q376 0 416 -331h-170q-12 104 -72 152t-178 48
q-106 0 -159.5 -40.5t-53.5 -110.5q0 -79 61 -109q51 -28 224 -65q105 -22 159 -39t113 -51q119 -71 119 -244q0 -153 -113 -237.5t-305 -84.5zM381 1233h-174l190 217h189l182 -217h-178l-101 129h-4z" />
    <glyph glyph-name="Scedilla" unicode="&#x15e;" horiz-adv-x="1282" 
d="M610 -391q-130 0 -219 59l33 60q73 -31 147 -31q119 0 119 65q0 58 -78 58q-40 0 -84 -15l-32 50l118 118q-264 13 -410.5 153.5t-158.5 369.5h180q37 -377 453 -377q161 0 254.5 71.5t93.5 202.5q-8 93 -46 145t-126 87t-266 73q-116 25 -189 51.5t-145 69.5
q-145 87 -145 287q0 179 135 283t362 104q494 0 555 -457h-174q-20 155 -116 234.5t-261 79.5q-153 0 -241 -62t-88 -174q0 -72 39 -118.5t116 -77.5q100 -38 228 -62q113 -22 176 -39.5t137 -50.5q80 -34 125 -80q106 -110 106 -287q0 -189 -130.5 -301.5t-354.5 -124.5
l-88 -73v-4q74 8 131 -26.5t57 -105.5q0 -72 -58 -113.5t-155 -41.5z" />
    <glyph glyph-name="scedilla" unicode="&#x15f;" horiz-adv-x="978" 
d="M461 -391q-130 0 -219 59l32 60q73 -31 148 -31q119 0 119 65q0 58 -78 58q-41 0 -84 -15l-33 50l115 116q-191 10 -298 107.5t-118 265.5h170q27 -235 303 -235q121 0 183.5 46.5t62.5 127.5q0 82 -59 120q-52 33 -218 70q-115 23 -194 51q-50 14 -82 39
q-57 40 -88 92.5t-31 135.5q0 136 99.5 213t281.5 77q376 0 416 -331h-170q-12 104 -72 152t-178 48q-106 0 -159.5 -40.5t-53.5 -110.5q0 -79 61 -109q51 -28 224 -65q105 -22 159 -39t113 -51q119 -71 119 -244q0 -141 -96.5 -224.5t-264.5 -95.5l-86 -71v-4
q74 8 131.5 -26.5t57.5 -105.5q0 -72 -58 -113.5t-155 -41.5z" />
    <glyph glyph-name="Scaron" unicode="&#x160;" horiz-adv-x="1282" 
d="M670 -29q-295 0 -453 146q-160 145 -172 379h180q37 -377 453 -377q161 0 254.5 71.5t93.5 202.5q-8 93 -46 145t-126 87t-266 73q-116 25 -189 51.5t-145 69.5q-145 87 -145 287q0 179 135 283t362 104q494 0 555 -457h-174q-20 155 -116 234.5t-261 79.5
q-153 0 -241 -62t-88 -174q0 -72 39 -118.5t116 -77.5q100 -38 228 -62q113 -22 176 -39.5t137 -50.5q80 -34 125 -80q106 -110 106 -287q0 -199 -147 -313q-151 -115 -391 -115zM713 1550h-189l-182 217h178l101 -129h4l104 129h174z" />
    <glyph glyph-name="scaron" unicode="&#x161;" horiz-adv-x="978" 
d="M514 -31q-216 0 -336.5 97t-132.5 278h170q27 -235 303 -235q121 0 183.5 46.5t62.5 127.5q0 82 -59 120q-52 33 -218 70q-115 23 -194 51q-50 14 -82 39q-57 40 -88 92.5t-31 135.5q0 136 99.5 213t281.5 77q376 0 416 -331h-170q-12 104 -72 152t-178 48
q-106 0 -159.5 -40.5t-53.5 -110.5q0 -79 61 -109q51 -28 224 -65q105 -22 159 -39t113 -51q119 -71 119 -244q0 -153 -113 -237.5t-305 -84.5zM578 1233h-189l-182 217h178l100 -129h4l105 129h174z" />
    <glyph glyph-name="Tcommaaccent" unicode="&#x162;" horiz-adv-x="1249" 
d="M532 1303h-487v161h1159v-161h-487v-1303h-185v1303zM537 -467v78q43 13 62 38t19 79h-79v182h174v-182q0 -174 -176 -195z" />
    <glyph glyph-name="tcommaaccent" unicode="&#x163;" horiz-adv-x="628" 
d="M199 924h-154v135h154v334h166v-334h204v-135h-204v-688q0 -99 106 -99q45 0 88 15h6v-144q-63 -14 -133 -14q-233 0 -233 205v725zM270 -467v78q43 13 62.5 38.5t19.5 78.5h-80v182h174v-182q0 -174 -176 -195z" />
    <glyph glyph-name="Tcaron" unicode="&#x164;" horiz-adv-x="1249" 
d="M532 1303h-487v161h1159v-161h-487v-1303h-185v1303zM715 1550h-189l-182 217h178l101 -129h4l104 129h174z" />
    <glyph glyph-name="tcaron" unicode="&#x165;" horiz-adv-x="628" 
d="M199 924h-154v135h154v334h166v-334h204v-135h-204v-688q0 -99 106 -99q45 0 88 15h6v-144q-63 -14 -133 -14q-233 0 -233 205v725zM492 1464h174v-147q0 -72 -46.5 -116t-127.5 -52v78q81 18 81 90h-81v147z" />
    <glyph glyph-name="Tbar" unicode="&#x166;" horiz-adv-x="1249" 
d="M532 709h-319v139h319v455h-487v161h1159v-161h-487v-455h319v-139h-319v-709h-185v709z" />
    <glyph glyph-name="tbar" unicode="&#x167;" horiz-adv-x="628" 
d="M199 616h-154v136h154v172h-154v135h154v334h166v-334h204v-135h-204v-172h204v-136h-204v-380q0 -99 106 -99q45 0 88 15h6v-144q-63 -14 -133 -14q-233 0 -233 205v417z" />
    <glyph glyph-name="Utilde" unicode="&#x168;" horiz-adv-x="1347" 
d="M674 -23q-264 0 -412.5 124.5t-148.5 371.5v991h184v-972q0 -357 383 -357q371 0 371 357v972h184v-991q0 -252 -154 -373q-156 -123 -407 -123zM805 1556q-60 0 -139 33t-107 33q-44 0 -47 -61h-123q15 188 158 188q63 0 133 -33t106 -33q47 0 56 62h119
q-9 -189 -156 -189z" />
    <glyph glyph-name="utilde" unicode="&#x169;" horiz-adv-x="1064" 
d="M952 1059v-1059h-166v145h-4q-126 -170 -319 -170q-165 0 -261 93.5t-96 257.5v733h166v-729q0 -103 62.5 -160t175.5 -57q123 0 199.5 83t76.5 212v651h166zM668 1231q-61 0 -140 33q-77 32 -106 32q-44 0 -47 -61h-123q15 188 158 188q65 0 133 -32q70 -33 106 -33
q47 0 56 61h118q-9 -188 -155 -188z" />
    <glyph glyph-name="Umacron" unicode="&#x16a;" horiz-adv-x="1347" 
d="M674 -23q-264 0 -412.5 124.5t-148.5 371.5v991h184v-972q0 -357 383 -357q371 0 371 357v972h184v-991q0 -252 -154 -373q-156 -123 -407 -123zM938 1556h-528v138h528v-138z" />
    <glyph glyph-name="umacron" unicode="&#x16b;" horiz-adv-x="1064" 
d="M952 1059v-1059h-166v145h-4q-126 -170 -319 -170q-165 0 -261 93.5t-96 257.5v733h166v-729q0 -103 62.5 -160t175.5 -57q123 0 199.5 83t76.5 212v651h166zM801 1274h-529v137h529v-137z" />
    <glyph glyph-name="Ubreve" unicode="&#x16c;" horiz-adv-x="1347" 
d="M674 -23q-264 0 -412.5 124.5t-148.5 371.5v991h184v-972q0 -357 383 -357q371 0 371 357v972h184v-991q0 -252 -154 -373q-156 -123 -407 -123zM674 1554q-107 0 -180.5 63t-79.5 165h123q21 -101 135 -101q122 0 143 101h119q-5 -98 -77 -163t-183 -65z" />
    <glyph glyph-name="ubreve" unicode="&#x16d;" horiz-adv-x="1064" 
d="M952 1059v-1059h-166v145h-4q-126 -170 -319 -170q-165 0 -261 93.5t-96 257.5v733h166v-729q0 -103 62.5 -160t175.5 -57q123 0 199.5 83t76.5 212v651h166zM537 1237q-107 0 -181 63t-80 164h123q21 -100 136 -100q122 0 143 100h119q-5 -98 -77 -162.5t-183 -64.5z
" />
    <glyph glyph-name="Uring" unicode="&#x16e;" horiz-adv-x="1347" 
d="M674 -23q-264 0 -412.5 124.5t-148.5 371.5v991h184v-972q0 -357 383 -357q371 0 371 357v972h184v-991q0 -252 -154 -373q-156 -123 -407 -123zM801 1579q-53 -51 -126 -51t-126 51t-53 123t53 123t126.5 51t125.5 -51q53 -51 53 -123t-53 -123zM604 1630
q26 -31 69.5 -31t69.5 31q26 29 26 72t-26 74q-26 29 -69.5 29t-69.5 -29q-26 -31 -26 -74t26 -72z" />
    <glyph glyph-name="uring" unicode="&#x16f;" horiz-adv-x="1064" 
d="M952 1059v-1059h-166v145h-4q-126 -170 -319 -170q-165 0 -261 93.5t-96 257.5v733h166v-729q0 -103 62.5 -160t175.5 -57q123 0 199.5 83t76.5 212v651h166zM664 1196q-52 -51 -126 -51t-126 51t-52 123t52 123t126 51t126 -51t52 -123t-52 -123zM467 1247
q26 -31 69.5 -31t69.5 31q26 29 26 72t-26 74q-26 29 -69.5 29t-69.5 -29q-26 -31 -26 -74t26 -72z" />
    <glyph glyph-name="Uhungarumlaut" unicode="&#x170;" horiz-adv-x="1347" 
d="M674 -23q-264 0 -412.5 124.5t-148.5 371.5v991h184v-972q0 -357 383 -357q371 0 371 357v972h184v-991q0 -252 -154 -373q-156 -123 -407 -123zM887 1542h-125l63 260h168zM621 1542h-125l63 260h168z" />
    <glyph glyph-name="uhungarumlaut" unicode="&#x171;" horiz-adv-x="1064" 
d="M952 1059v-1059h-166v145h-4q-126 -170 -319 -170q-165 0 -261 93.5t-96 257.5v733h166v-729q0 -103 62.5 -160t175.5 -57q123 0 199.5 83t76.5 212v651h166zM739 1225h-125l64 260h168zM473 1225h-125l64 260h168z" />
    <glyph glyph-name="Uogonek" unicode="&#x172;" horiz-adv-x="1347" 
d="M680 -23h-6q-264 0 -412.5 124.5t-148.5 371.5v991h184v-972q0 -357 383 -357q371 0 371 357v972h184v-991q0 -310 -258 -436q-137 -67 -186 -107q-50 -41 -50 -94q0 -69 82 -69q44 0 76 14h6v-115q-59 -18 -112 -18q-97 0 -152 44t-55 118q0 94 94 167z" />
    <glyph glyph-name="uogonek" unicode="&#x173;" horiz-adv-x="1064" 
d="M870 -352q-97 0 -151.5 44t-54.5 118q0 111 122 190v145h-4q-126 -170 -319 -170q-165 0 -261 93.5t-96 257.5v733h166v-729q0 -103 62.5 -160t175.5 -57q123 0 199.5 83t76.5 212v651h166v-1051q-133 -95 -133 -172q0 -69 82 -69q44 0 76 14h6v-115q-59 -18 -113 -18z
" />
    <glyph glyph-name="Wcircumflex" unicode="&#x174;" horiz-adv-x="1871" 
d="M592 0h-184l-379 1464h192l232 -952l55 -248h4q38 170 61 252l265 948h198l256 -948l60 -252h4q25 115 57 248l244 952h186l-407 -1464h-176l-269 1032l-53 223h-4q-26 -120 -55 -223zM829 1550h-174l191 217h188l183 -217h-179l-100 129h-4z" />
    <glyph glyph-name="wcircumflex" unicode="&#x175;" horiz-adv-x="1503" 
d="M516 0h-172l-336 1059h178l187 -653l57 -228h4q22 101 53 223l179 658h174l172 -658l51 -223h4q48 192 59 228l197 653h172l-346 -1059h-170l-176 641l-51 221h-4q-18 -89 -54 -221zM645 1233h-174l191 217h188l182 -217h-178l-100 129h-4z" />
    <glyph glyph-name="Ycircumflex" unicode="&#x176;" horiz-adv-x="1292" 
d="M735 0h-184v621l-531 843h205l420 -696h4l426 696h197l-537 -848v-616zM539 1550h-174l190 217h188l183 -217h-178l-101 129h-4z" />
    <glyph glyph-name="ycircumflex" unicode="&#x177;" horiz-adv-x="1001" 
d="M248 -350q-92 0 -150 22v148h8q44 -23 113 -23q57 0 93 28.5t65 100.5l41 105l-414 1028h180l250 -660l72 -206h4q42 133 70 206l241 660h176l-452 -1145q-61 -154 -127 -211q-65 -53 -170 -53zM403 1233h-174l191 217h188l183 -217h-179l-100 129h-4z" />
    <glyph glyph-name="Ydieresis" unicode="&#x178;" horiz-adv-x="1292" 
d="M735 0h-184v621l-531 843h205l420 -696h4l426 696h197l-537 -848v-616zM893 1556h-160v195h160v-195zM557 1556h-160v195h160v-195z" />
    <glyph glyph-name="Zacute" unicode="&#x179;" horiz-adv-x="1273" 
d="M1200 0h-1139v176l877 1127v6h-825v155h1052v-143l-889 -1149v-6h924v-166zM696 1542h-141l104 248h205z" />
    <glyph glyph-name="zacute" unicode="&#x17a;" horiz-adv-x="964" 
d="M913 0h-843v131l589 776v6h-555v146h787v-98l-608 -803v-6h630v-152zM573 1225h-141l105 260h204z" />
    <glyph glyph-name="Zdotaccent" unicode="&#x17b;" horiz-adv-x="1273" 
d="M1200 0h-1139v176l877 1127v6h-825v155h1052v-143l-889 -1149v-6h924v-166zM711 1556h-160v195h160v-195z" />
    <glyph glyph-name="zdotaccent" unicode="&#x17c;" horiz-adv-x="964" 
d="M913 0h-843v131l589 776v6h-555v146h787v-98l-608 -803v-6h630v-152zM582 1260h-166v204h166v-204z" />
    <glyph glyph-name="Zcaron" unicode="&#x17d;" horiz-adv-x="1273" 
d="M1200 0h-1139v176l877 1127v6h-825v155h1052v-143l-889 -1149v-6h924v-166zM721 1550h-189l-182 217h178l101 -129h4l104 129h174z" />
    <glyph glyph-name="zcaron" unicode="&#x17e;" horiz-adv-x="964" 
d="M913 0h-843v131l589 776v6h-555v146h787v-98l-608 -803v-6h630v-152zM588 1233h-189l-182 217h178l101 -129h4l104 129h174z" />
    <glyph glyph-name="florin" unicode="&#x192;" horiz-adv-x="706" 
d="M233 700h-167v131h186l51 349q20 151 114.5 210.5t266.5 36.5v-141q-107 11 -156 -17t-61 -112l-47 -326h215v-131h-234l-108 -768q-20 -147 -101.5 -202t-242.5 -35v137q84 -6 126 17.5t52 93.5z" />
    <glyph glyph-name="AEacute" unicode="&#x1fc;" horiz-adv-x="1937" 
d="M1231 1542h-141l104 248h205zM561 1464h1274v-161h-760v-463h682v-156h-682v-514h785v-170h-969v446h-518l-158 -446h-186zM891 1303h-213l-252 -707h465v707z" />
    <glyph glyph-name="aeacute" unicode="&#x1fd;" horiz-adv-x="1722" 
d="M950 1225h-141l104 260h205zM414 -20q-163 0 -264 79t-101 222q0 108 48 173.5t141 100.5q107 41 276 55q138 14 194 47.5t56 110.5q0 91 -59.5 138.5t-172.5 47.5q-254 0 -272 -233h-160q11 163 122.5 260.5t307.5 97.5q266 0 342 -166q120 172 342 172t342 -163
q117 -164 117 -433h-753q8 -177 88.5 -277.5t228.5 -100.5q99 0 164 56.5t88 160.5h162q-29 -167 -139.5 -262t-274.5 -95q-263 0 -389 215h-4q-87 -124 -185 -166q-87 -40 -245 -40zM446 106q153 0 238 91q82 88 82 194v162q-98 -51 -246 -66q-164 -20 -229.5 -61
t-65.5 -141q0 -179 221 -179zM1214 954q-125 0 -198.5 -90.5t-91.5 -249.5h571q-1 158 -77 249t-204 91z" />
    <glyph glyph-name="Oslashacute" unicode="&#x1fe;" horiz-adv-x="1597" 
d="M864 1542h-141l104 248h205zM319 141l-163 -174l-78 72l168 180q-164 206 -164 514q0 334 197 549q194 215 520 215q287 0 481 -176l162 172l78 -72l-166 -178q162 -204 162 -510q0 -333 -195 -549q-197 -215 -522 -215q-287 0 -480 172zM270 733q0 -229 101 -383
l792 846q-141 141 -364 141q-252 0 -389 -168q-140 -172 -140 -436zM799 131q252 0 389 168q139 171 139 434q0 228 -98 379l-793 -844q140 -137 363 -137z" />
    <glyph glyph-name="oslashacute" unicode="&#x1ff;" horiz-adv-x="1128" 
d="M639 1225h-141l104 260h205zM225 100l-119 -129l-61 58l123 133q-115 154 -115 366q0 238 142 398q138 159 370 159q196 0 338 -127l117 127l61 -57l-120 -131q114 -153 114 -369q0 -237 -139 -397t-371 -160q-202 0 -340 129zM565 111q161 0 250.5 114.5t89.5 302.5
q0 144 -55 248l-524 -565q87 -100 239 -100zM223 528q0 -141 56 -247l522 567q-87 100 -236 100q-164 0 -252 -119q-90 -122 -90 -301z" />
    <glyph glyph-name="Scommaaccent" unicode="&#x218;" horiz-adv-x="1282" 
d="M670 -29q-295 0 -453 146q-160 145 -172 379h180q37 -377 453 -377q161 0 254.5 71.5t93.5 202.5q-8 93 -46 145t-126 87t-266 73q-116 25 -189 51.5t-145 69.5q-145 87 -145 287q0 179 135 283t362 104q494 0 555 -457h-174q-20 155 -116 234.5t-261 79.5
q-153 0 -241 -62t-88 -174q0 -72 39 -118.5t116 -77.5q100 -38 228 -62q113 -22 176 -39.5t137 -50.5q80 -34 125 -80q106 -110 106 -287q0 -199 -147 -313q-151 -115 -391 -115zM535 -467v78q43 13 62 38t19 79h-79v182h174v-182q0 -174 -176 -195z" />
    <glyph glyph-name="scommaaccent" unicode="&#x219;" horiz-adv-x="978" 
d="M514 -31q-216 0 -336.5 97t-132.5 278h170q27 -235 303 -235q121 0 183.5 46.5t62.5 127.5q0 82 -59 120q-52 33 -218 70q-115 23 -194 51q-50 14 -82 39q-57 40 -88 92.5t-31 135.5q0 136 99.5 213t281.5 77q376 0 416 -331h-170q-12 104 -72 152t-178 48
q-106 0 -159.5 -40.5t-53.5 -110.5q0 -79 61 -109q51 -28 224 -65q105 -22 159 -39t113 -51q119 -71 119 -244q0 -153 -113 -237.5t-305 -84.5zM399 -467v78q43 13 62.5 38.5t19.5 78.5h-80v182h174v-182q0 -174 -176 -195z" />
    <glyph glyph-name="uni021A" unicode="&#x21a;" horiz-adv-x="1249" 
d="M532 1303h-487v161h1159v-161h-487v-1303h-185v1303zM537 -467v78q43 13 62 38t19 79h-79v182h174v-182q0 -174 -176 -195z" />
    <glyph glyph-name="uni021B" unicode="&#x21b;" horiz-adv-x="628" 
d="M199 924h-154v135h154v334h166v-334h204v-135h-204v-688q0 -99 106 -99q45 0 88 15h6v-144q-63 -14 -133 -14q-233 0 -233 205v725zM270 -467v78q43 13 62.5 38.5t19.5 78.5h-80v182h174v-182q0 -174 -176 -195z" />
    <glyph glyph-name="uni0237" unicode="&#x237;" horiz-adv-x="391" 
d="M35 -301q-45 0 -92 8v135h4q30 -6 57 -6q109 0 109 103v1120h166v-1129q0 -129 -60 -180t-184 -51z" />
    <glyph glyph-name="circumflex" unicode="&#x2c6;" 
d="M406 1233h-175l191 217h188l183 -217h-179l-100 129h-4z" />
    <glyph glyph-name="caron" unicode="&#x2c7;" 
d="M602 1233h-188l-183 217h179l100 -129h4l104 129h175z" />
    <glyph glyph-name="uni02C9" unicode="&#x2c9;" 
d="M776 1274h-528v137h528v-137z" />
    <glyph glyph-name="breve" unicode="&#x2d8;" 
d="M512 1237q-107 0 -180.5 63t-79.5 164h123q21 -100 135 -100q122 0 143 100h119q-5 -98 -77 -162.5t-183 -64.5z" />
    <glyph glyph-name="dotaccent" unicode="&#x2d9;" 
d="M594 1260h-166v204h166v-204z" />
    <glyph glyph-name="ring" unicode="&#x2da;" horiz-adv-x="1042" 
d="M647 1196q-53 -51 -126 -51t-126 51t-53 123t53 123t126 51t126 -51t53 -123t-53 -123zM451 1247q26 -31 69.5 -31t69.5 31q26 29 26 72t-26 74q-26 29 -69.5 29t-69.5 -29q-26 -31 -26 -74t26 -72z" />
    <glyph glyph-name="ogonek" unicode="&#x2db;" 
d="M469 -352q-97 0 -152 44t-55 118q0 113 148 190h127q-119 -98 -119 -164q0 -69 82 -69q43 0 75 14h7v-115q-58 -18 -113 -18z" />
    <glyph glyph-name="tilde" unicode="&#x2dc;" 
d="M641 1231q-60 0 -139 33q-77 32 -107 32q-44 0 -47 -61h-123q15 188 158 188q65 0 133 -32q70 -33 107 -33q46 0 55 61h119q-9 -188 -156 -188z" />
    <glyph glyph-name="hungarumlaut" unicode="&#x2dd;" 
d="M672 1225h-125l63 260h168zM406 1225h-125l63 260h168z" />
    <glyph glyph-name="pi" unicode="&#x3c0;" horiz-adv-x="1253" 
d="M209 924h-164v135h1149v-135h-190v-688q0 -99 106 -99q30 0 74 15h6v-144q-55 -14 -121 -14q-231 0 -231 205v725h-463v-924h-166v924z" />
    <glyph glyph-name="Wgrave" unicode="&#x1e80;" horiz-adv-x="1871" 
d="M592 0h-184l-379 1464h192l232 -952l55 -248h4q38 170 61 252l265 948h198l256 -948l60 -252h4q25 115 57 248l244 952h186l-407 -1464h-176l-269 1032l-53 223h-4q-26 -120 -55 -223zM1024 1542h-141l-168 248h205z" />
    <glyph glyph-name="wgrave" unicode="&#x1e81;" horiz-adv-x="1503" 
d="M516 0h-172l-336 1059h178l187 -653l57 -228h4q22 101 53 223l179 658h174l172 -658l51 -223h4q48 192 59 228l197 653h172l-346 -1059h-170l-176 641l-51 221h-4q-18 -89 -54 -221zM840 1225h-142l-168 260h205z" />
    <glyph glyph-name="Wacute" unicode="&#x1e82;" horiz-adv-x="1871" 
d="M592 0h-184l-379 1464h192l232 -952l55 -248h4q38 170 61 252l265 948h198l256 -948l60 -252h4q25 115 57 248l244 952h186l-407 -1464h-176l-269 1032l-53 223h-4q-26 -120 -55 -223zM1001 1542h-141l105 248h204z" />
    <glyph glyph-name="wacute" unicode="&#x1e83;" horiz-adv-x="1503" 
d="M516 0h-172l-336 1059h178l187 -653l57 -228h4q22 101 53 223l179 658h174l172 -658l51 -223h4q48 192 59 228l197 653h172l-346 -1059h-170l-176 641l-51 221h-4q-18 -89 -54 -221zM827 1225h-141l105 260h204z" />
    <glyph glyph-name="Wdieresis" unicode="&#x1e84;" horiz-adv-x="1871" 
d="M592 0h-184l-379 1464h192l232 -952l55 -248h4q38 170 61 252l265 948h198l256 -948l60 -252h4q25 115 57 248l244 952h186l-407 -1464h-176l-269 1032l-53 223h-4q-26 -120 -55 -223zM1184 1556h-160v195h160v-195zM848 1556h-160v195h160v-195z" />
    <glyph glyph-name="wdieresis" unicode="&#x1e85;" horiz-adv-x="1503" 
d="M516 0h-172l-336 1059h178l187 -653l57 -228h4q22 101 53 223l179 658h174l172 -658l51 -223h4q48 192 59 228l197 653h172l-346 -1059h-170l-176 641l-51 221h-4q-18 -89 -54 -221zM999 1260h-159v194h159v-194zM664 1260h-160v194h160v-194z" />
    <glyph glyph-name="Ygrave" unicode="&#x1ef2;" horiz-adv-x="1292" 
d="M735 0h-184v621l-531 843h205l420 -696h4l426 696h197l-537 -848v-616zM733 1542h-141l-168 248h205z" />
    <glyph glyph-name="ygrave" unicode="&#x1ef3;" horiz-adv-x="1001" 
d="M248 -350q-92 0 -150 22v148h8q44 -23 113 -23q57 0 93 28.5t65 100.5l41 105l-414 1028h180l250 -660l72 -206h4q42 133 70 206l241 660h176l-452 -1145q-61 -154 -127 -211q-65 -53 -170 -53zM598 1225h-141l-168 260h205z" />
    <glyph glyph-name="uni2009" unicode="&#x2009;" horiz-adv-x="112" 
 />
    <glyph glyph-name="endash" unicode="&#x2013;" horiz-adv-x="1071" 
d="M973 451h-875v141h875v-141z" />
    <glyph glyph-name="emdash" unicode="&#x2014;" horiz-adv-x="1644" 
d="M1546 451h-1448v141h1448v-141z" />
    <glyph glyph-name="quoteleft" unicode="&#x2018;" horiz-adv-x="346" 
d="M260 1038h-174v205q0 198 172 225v-77q-78 -31 -78 -148h80v-205z" />
    <glyph glyph-name="quoteright" unicode="&#x2019;" horiz-adv-x="346" 
d="M86 1464h174v-204q0 -199 -172 -226v78q78 31 78 148h-80v204z" />
    <glyph glyph-name="quotesinglbase" unicode="&#x201a;" horiz-adv-x="346" 
d="M86 205h174v-205q0 -198 -172 -225v78q78 31 78 147h-80v205z" />
    <glyph glyph-name="quotedblleft" unicode="&#x201c;" horiz-adv-x="655" 
d="M260 1038h-174v205q0 198 172 225v-77q-78 -31 -78 -148h80v-205zM569 1038h-174v205q0 198 172 225v-77q-78 -31 -78 -148h80v-205z" />
    <glyph glyph-name="quotedblright" unicode="&#x201d;" horiz-adv-x="655" 
d="M395 1464h174v-204q0 -199 -172 -226v78q78 31 78 148h-80v204zM86 1464h174v-204q0 -199 -172 -226v78q78 31 78 148h-80v204z" />
    <glyph glyph-name="quotedblbase" unicode="&#x201e;" horiz-adv-x="655" 
d="M395 205h174v-205q0 -198 -172 -225v78q78 31 78 147h-80v205zM86 205h174v-205q0 -198 -172 -225v78q78 31 78 147h-80v205z" />
    <glyph glyph-name="dagger" unicode="&#x2020;" horiz-adv-x="1118" 
d="M475 934h-405v149h405v381h168v-381h406v-149h-406v-1147h-168v1147z" />
    <glyph glyph-name="daggerdbl" unicode="&#x2021;" horiz-adv-x="1118" 
d="M475 934h-405v149h405v381h168v-381h406v-149h-406v-617h406v-149h-406v-381h-168v381h-405v149h405v617z" />
    <glyph glyph-name="bullet" unicode="&#x2022;" horiz-adv-x="624" 
d="M485 496q-72 -72 -172 -72t-172 72q-71 71 -71 170q0 101 71 172t172 71t172 -71q70 -70 70 -172q0 -100 -70 -170z" />
    <glyph glyph-name="ellipsis" unicode="&#x2026;" horiz-adv-x="1259" 
d="M1169 0h-198v203h198v-203zM289 0h-199v203h199v-203zM729 0h-199v203h199v-203z" />
    <glyph glyph-name="perthousand" unicode="&#x2030;" horiz-adv-x="2361" 
d="M618 735q-88 -110 -237 -110t-240 110q-92 112 -92 295q0 185 94 295q95 111 238 111t235 -109q93 -113 93 -297q0 -181 -91 -295zM1485 80q-89 -111 -238 -111q-147 0 -239 111q-93 113 -93 295q0 183 95 295q94 110 237 110q145 0 236 -108q92 -112 92 -297
q0 -182 -90 -295zM2222 80q-88 -111 -237 -111t-240 111q-92 112 -92 295q0 185 94 295t238 110q143 0 235 -108q92 -112 92 -297q0 -182 -90 -295zM479 0h-139l805 1403h139zM252 827q46 -79 129 -79q84 0 131 77q45 74 45 205q0 125 -47.5 204t-128.5 79
q-83 0 -129.5 -76.5t-46.5 -206.5q0 -126 47 -203zM1118 172q47 -80 129 -80q84 0 131 78q45 74 45 205q0 125 -47.5 203.5t-128.5 78.5q-84 0 -130 -76t-46 -206q0 -126 47 -203zM1855 172q47 -80 130 -80q84 0 131 78q45 74 45 205q0 125 -47.5 203.5t-128.5 78.5
q-84 0 -130.5 -76.5t-46.5 -205.5q0 -126 47 -203z" />
    <glyph glyph-name="uni2032" unicode="&#x2032;" horiz-adv-x="323" 
d="M201 1026h-152l74 438h151z" />
    <glyph glyph-name="uni2033" unicode="&#x2033;" horiz-adv-x="608" 
d="M485 1026h-151l74 438h151zM201 1026h-152l74 438h151z" />
    <glyph glyph-name="guilsinglleft" unicode="&#x2039;" horiz-adv-x="503" 
d="M401 393v-162l-299 236v178l299 236v-162l-213 -160v-4z" />
    <glyph glyph-name="guilsinglright" unicode="&#x203a;" horiz-adv-x="503" 
d="M401 467l-299 -236v162l213 160v4l-213 162v162l299 -236v-178z" />
    <glyph glyph-name="fraction" unicode="&#x2044;" horiz-adv-x="346" 
d="M-217 0h-148l928 1464h148z" />
    <glyph glyph-name="Euro" unicode="&#x20ac;" horiz-adv-x="1251" 
d="M164 770h-119v111h131q40 253 189 405q147 150 358 150q189 0 314.5 -114t150.5 -304h-168q-52 270 -301 270q-146 0 -239 -106.5t-124 -300.5h410v-111h-420q-4 -73 0 -141h420v-111h-410q31 -193 127 -296t248 -103q135 0 213.5 89t97.5 257h160q-9 -220 -139 -356
q-134 -140 -342 -140q-201 0 -352 148q-149 143 -193 401h-131v111h119q-4 68 0 141z" />
    <glyph glyph-name="uni2113" unicode="&#x2113;" horiz-adv-x="690" 
d="M139 553v664q0 124 68 194t186 70q238 0 238 -312q0 -457 -326 -663v-211q0 -85 32.5 -123.5t102.5 -38.5q72 0 158 47h6v-137q-67 -49 -182 -49q-283 0 -283 291v139q-99 -32 -110 -35v123q54 16 110 41zM412 788q77 139 77 383q0 181 -94 181q-90 0 -90 -135v-562
q58 52 107 133z" />
    <glyph glyph-name="trademark" unicode="&#x2122;" horiz-adv-x="1308" 
d="M750 879h-105v585h164l127 -446h2l129 446h166v-585h-107v448h-4q-5 -18 -47 -166l-84 -282h-108l-84 282l-45 166h-4v-448zM250 1368h-184v96h483v-96h-184v-489h-115v489z" />
    <glyph glyph-name="Omega" unicode="&#x2126;" horiz-adv-x="1515" 
d="M1151 158v-4h270v-154h-579v154q203 27 303 194q100 166 100 420q0 265 -128.5 417t-358.5 152t-359 -152.5t-129 -416.5q0 -252 101 -420q100 -167 303 -194v-154h-580v154h268v4q-280 173 -280 604q0 326 188 532q188 203 488 203q301 0 489 -203q187 -205 187 -532
q0 -431 -283 -604z" />
    <glyph glyph-name="estimated" unicode="&#x212e;" horiz-adv-x="1271" 
d="M1210 616h-882v-415q119 -125 342 -125q170 0 273 76t155 229h104q-42 -187 -180.5 -295.5t-351.5 -108.5q-286 0 -449 181q-162 180 -162 475q0 289 168 469q170 182 432 182q210 0 355 -121q199 -169 196 -547zM659 1192q-213 0 -331 -127v-358h620v385
q-100 100 -289 100z" />
    <glyph glyph-name="onethird" unicode="&#x2153;" horiz-adv-x="1712" 
d="M403 623h-147v591h-203v101q205 3 226 155h124v-847zM358 0h-147l928 1464h147zM1337 -18q-154 0 -245.5 81t-92.5 220h140q9 -185 192 -185q80 0 126 39.5t46 112.5q0 139 -182 139h-53v113h51q75 0 117.5 33t42.5 90q0 56 -41 90.5t-105 34.5q-77 0 -120 -44.5
t-48 -123.5h-139q5 128 87 203t222 75q128 0 206.5 -63t78.5 -168q0 -128 -137 -174v-4q170 -41 170 -213q0 -119 -88.5 -187.5t-227.5 -68.5z" />
    <glyph glyph-name="twothirds" unicode="&#x2154;" horiz-adv-x="1814" 
d="M666 623h-613q6 120 67 201t187 163q8 5 46 30t46 30q63 45 72 57q45 61 45 110q0 67 -39.5 106.5t-105.5 39.5q-74 0 -116 -49t-42 -140h-139q0 148 80.5 229t224.5 81q128 0 208.5 -75t80.5 -189q0 -110 -70 -175q-38 -35 -63 -53q-17 -12 -84 -53q-5 -5 -23 -14
q-182 -108 -203 -179h441v-120zM530 0h-147l928 1464h147zM1440 -18q-154 0 -245.5 81t-92.5 220h139q9 -185 193 -185q80 0 126 39.5t46 112.5q0 139 -183 139h-53v113h51q75 0 117.5 33t42.5 90q0 56 -40.5 90.5t-104.5 34.5q-77 0 -120 -44.5t-48 -123.5h-140
q5 128 87.5 203t222.5 75q128 0 206 -63t78 -168q0 -128 -137 -174v-4q170 -41 170 -213q0 -119 -88 -187.5t-227 -68.5z" />
    <glyph glyph-name="oneeighth" unicode="&#x215b;" horiz-adv-x="1705" 
d="M403 623h-147v591h-203v101q205 3 226 155h124v-847zM350 0h-147l927 1464h148zM1546 51q-97 -69 -239 -69q-141 0 -242 67q-100 66 -100 193q0 158 161 219v4q-118 55 -118 172q0 101 83 162t214 61t212.5 -60t81.5 -159q0 -122 -116 -174v-4q73 -25 116 -81.5
t43 -133.5q0 -128 -96 -197zM1305 96q86 0 137 41t51 109q0 74 -49 115.5t-139 41.5q-88 0 -138.5 -42t-50.5 -115q0 -71 50.5 -110.5t138.5 -39.5zM1305 506q52 -4 90 18.5t52.5 56t8 72t-36.5 64.5q-39 33 -114 33q-74 0 -113 -33q-41 -35 -41 -88q0 -57 40.5 -90
t113.5 -33z" />
    <glyph glyph-name="threeeighths" unicode="&#x215c;" horiz-adv-x="1824" 
d="M389 604q-154 0 -245.5 81t-92.5 220h139q9 -184 193 -184q81 0 126.5 39t45.5 112q0 140 -182 140h-54v112h52q75 0 117 33t42 90q0 56 -40.5 90.5t-104.5 34.5q-77 0 -120 -44.5t-48 -123.5h-139q5 128 87 203.5t222 75.5q128 0 206.5 -63.5t78.5 -168.5
q0 -128 -137 -174v-4q170 -41 170 -213q0 -119 -88.5 -187.5t-227.5 -68.5zM502 0h-148l928 1464h148zM1665 51q-97 -69 -240 -69q-140 0 -241 67t-101 193q0 158 162 219v4q-119 55 -119 172q0 101 83 162t214 61t213 -60t82 -159q0 -122 -116 -174v-4q73 -25 116 -81.5
t43 -133.5q0 -128 -96 -197zM1423 96q86 0 137.5 41t51.5 109q0 74 -49.5 115.5t-139.5 41.5q-88 0 -138 -42t-50 -115q0 -72 50 -111t138 -39zM1423 506q52 -4 90 18.5t53 56t8.5 72t-36.5 64.5q-39 33 -115 33q-73 0 -112 -33q-41 -35 -41 -88q0 -58 40 -90.5t113 -32.5z
" />
    <glyph glyph-name="fiveeighths" unicode="&#x215d;" horiz-adv-x="1802" 
d="M381 604q-141 0 -232 71t-98 191h146q7 -67 56.5 -104t125.5 -37q75 0 122.5 49t47.5 127q0 79 -47.5 126.5t-122.5 47.5q-104 0 -162 -67h-135l86 456h483v-123h-385l-41 -211h4q70 64 183 64q119 0 202 -80q84 -84 84 -213q0 -130 -90 -213.5t-227 -83.5zM502 0h-148
l928 1464h148zM1642 51q-97 -69 -239 -69q-141 0 -242 67q-100 66 -100 193q0 158 162 219v4q-119 55 -119 172q0 101 83 162t214 61t213 -60t82 -159q0 -121 -117 -174v-4q73 -25 116.5 -81.5t43.5 -133.5q0 -128 -97 -197zM1401 96q86 0 137 41t51 109q0 74 -49 115.5
t-139 41.5q-88 0 -138.5 -42t-50.5 -115q0 -71 50.5 -110.5t138.5 -39.5zM1401 506q52 -4 90 18.5t53 56t8.5 72t-36.5 64.5q-39 33 -115 33q-74 0 -113 -33q-41 -35 -41 -88q0 -57 40.5 -90t113.5 -33z" />
    <glyph glyph-name="seveneighths" unicode="&#x215e;" horiz-adv-x="1671" 
d="M344 623h-158q9 204 107 405q94 189 221 307v2h-457v127h611v-121q-139 -129 -226.5 -316.5t-97.5 -403.5zM330 0h-148l928 1464h147zM1511 51q-97 -69 -239 -69q-141 0 -242 67q-100 66 -100 193q0 158 162 219v4q-119 55 -119 172q0 101 83 162t214 61t213 -60t82 -159
q0 -121 -117 -174v-4q73 -25 116.5 -81.5t43.5 -133.5q0 -128 -97 -197zM1270 96q86 0 137 41t51 109q0 74 -49 115.5t-139 41.5q-88 0 -138.5 -42t-50.5 -115q0 -71 50.5 -110.5t138.5 -39.5zM1270 506q52 -4 90 18.5t52.5 56t8 72t-36.5 64.5q-39 33 -114 33
q-74 0 -113 -33q-41 -35 -41 -88q0 -57 40.5 -90t113.5 -33z" />
    <glyph glyph-name="partialdiff" unicode="&#x2202;" horiz-adv-x="1124" 
d="M848 813q-29 227 -159 353t-367 165v148q402 -47 565 -295q77 -120 112 -264.5t35 -333.5q0 -252 -131 -432q-133 -183 -379 -183q-205 0 -319 123q-115 121 -115 312q0 231 133 382q134 152 352 152q181 0 273 -127zM526 109q144 0 238 122t94 283q0 128 -76 208.5
t-198 80.5q-145 0 -234 -111q-90 -113 -90 -286q0 -136 70 -216.5t196 -80.5z" />
    <glyph glyph-name="increment" unicode="&#x2206;" horiz-adv-x="1327" 
d="M1288 0h-1249v164l520 1300h207l522 -1302v-162zM590 1096l-371 -946h881l-369 946l-67 207h-5q-43 -146 -69 -207z" />
    <glyph glyph-name="product" unicode="&#x220f;" horiz-adv-x="1439" 
d="M145 -205v1669h1149v-1669h-184v1508h-780v-1508h-185z" />
    <glyph glyph-name="summation" unicode="&#x2211;" horiz-adv-x="1261" 
d="M1184 -35v-170h-1102v187l577 663v4l-577 639v176h1081v-161h-866v-5l559 -604v-82l-573 -643v-4h901z" />
    <glyph glyph-name="minus" unicode="&#x2212;" horiz-adv-x="1146" 
d="M1038 602h-929v131h929v-131z" />
    <glyph glyph-name="uni2215" unicode="&#x2215;" horiz-adv-x="346" 
d="M-217 0h-148l928 1464h148z" />
    <glyph glyph-name="uni2219" unicode="&#x2219;" horiz-adv-x="378" 
d="M295 539h-199v202h199v-202z" />
    <glyph glyph-name="radical" unicode="&#x221a;" horiz-adv-x="1185" 
d="M180 489h-151v152h266l162 -422l84 -248h4q42 151 71 248l377 1245h172l-524 -1669h-188z" />
    <glyph glyph-name="infinity" unicode="&#x221e;" horiz-adv-x="1464" 
d="M381 268q-144 0 -226.5 100t-82.5 257q0 151 82 252q82 102 227 102q203 0 356 -240q153 240 344 240q141 0 226.5 -97t85.5 -257t-85.5 -258.5t-226.5 -98.5q-191 0 -344 240q-153 -240 -356 -240zM393 831q-78 0 -119 -55.5t-41 -150.5q0 -96 41 -152.5t119 -56.5
q128 0 252 207q-120 208 -252 208zM1069 416q78 0 120 57t42 152q0 94 -42 150t-120 56q-66 0 -124 -52.5t-116 -155.5q124 -207 240 -207z" />
    <glyph glyph-name="integral" unicode="&#x222b;" horiz-adv-x="690" 
d="M240 -70v1307q0 139 74 210t202 71q85 0 150 -19v-147h-7q-53 18 -114 18q-139 0 -139 -143v-1307q0 -139 -74 -209.5t-203 -70.5q-85 0 -149 20v147h6q53 -20 114 -20q140 0 140 143z" />
    <glyph glyph-name="approxequal" unicode="&#x2248;" horiz-adv-x="1146" 
d="M817 690q-88 0 -276 43q-196 41 -244 41q-87 0 -90 -100h-133q1 111 60.5 173t160.5 62q88 0 278 -41q185 -43 234 -43q95 0 98 101h133q-5 -113 -60 -174.5t-161 -61.5zM817 365q-88 0 -276 43q-196 41 -244 41q-87 0 -90 -101h-133q1 111 60.5 173.5t160.5 62.5
q88 0 278 -41q185 -43 234 -43q95 0 98 100h133q-5 -113 -60 -174t-161 -61z" />
    <glyph glyph-name="notequal" unicode="&#x2260;" horiz-adv-x="1146" 
d="M563 756h-454v131h514l92 196h139l-92 -196h276v-131h-336l-106 -228h442v-131h-501l-105 -225h-139l104 225h-288v131h348z" />
    <glyph glyph-name="lessequal" unicode="&#x2264;" horiz-adv-x="1046" 
d="M936 371v-152l-834 344v170l834 344v-149l-703 -275v-4zM936 0h-834v131h834v-131z" />
    <glyph glyph-name="greaterequal" unicode="&#x2265;" horiz-adv-x="1046" 
d="M944 733v-170l-833 -344v152l702 278v4l-702 275v149zM111 131h833v-131h-833v131z" />
    <glyph glyph-name="uni24C5" unicode="&#x24c5;" horiz-adv-x="1662" 
d="M1366 182q-217 -217 -535 -217t-532 217q-217 217 -217 545q0 330 217 547q214 217 532 217t535 -217q215 -218 215 -547q0 -327 -215 -545zM362 240q189 -195 469 -195t469 195q187 193 187 487q0 297 -187 490q-188 194 -469 194q-278 0 -466 -194q-189 -195 -189 -490
t186 -487zM694 309h-147v844h362q141 0 215 -80q66 -72 66 -180q0 -122 -73 -190t-206 -68h-217v-326zM893 1028h-199v-276h195q74 0 113.5 36.5t39.5 100.5q0 67 -38.5 103t-110.5 36z" />
    <glyph glyph-name="lozenge" unicode="&#x25ca;" horiz-adv-x="1118" 
d="M465 1464h186l414 -733l-412 -731h-186l-414 733zM559 1303h-4l-309 -566l313 -575h4l307 563z" />
    <glyph glyph-name="uniF8FF" unicode="&#xf8ff;" horiz-adv-x="1732" 
d="M1599 0h-1466v1466h1466v-1466zM719 883h-344v-295h344v-346h295v346h344v295h-344v334h-295v-334z" />
    <glyph glyph-name="null" horiz-adv-x="0" 
 />
    <glyph glyph-name="idotaccent" horiz-adv-x="391" 
d="M279 0h-166v1059h166v-1059zM279 1260h-166v204h166v-204z" />
    <glyph glyph-name="grave.cap" 
d="M594 1542h-141l-168 248h204z" />
    <glyph glyph-name="acute.cap" 
d="M571 1542h-141l105 248h204z" />
    <glyph glyph-name="circumflex.cap" 
d="M406 1550h-175l191 217h188l183 -217h-179l-100 129h-4z" />
    <glyph glyph-name="caron.cap" 
d="M602 1550h-188l-183 217h179l100 -129h4l104 129h175z" />
    <glyph glyph-name="caron.alt" 
d="M424 1464h174v-164q0 -167 -174 -188v78q82 24 82 110h-82v164z" />
    <glyph glyph-name="tilde.cap" 
d="M641 1556q-60 0 -139 33t-107 33q-44 0 -47 -61h-123q15 188 158 188q63 0 133 -33t107 -33q46 0 55 62h119q-9 -189 -156 -189z" />
    <glyph glyph-name="dieresis.cap" 
d="M760 1556h-160v195h160v-195zM424 1556h-160v195h160v-195z" />
    <glyph glyph-name="macron.cap" 
d="M776 1556h-528v138h528v-138z" />
    <glyph glyph-name="breve.cap" 
d="M512 1554q-107 0 -180.5 63t-79.5 165h123q21 -101 135 -101q122 0 143 101h119q-5 -98 -77 -163t-183 -65z" />
    <glyph glyph-name="ring.cap" horiz-adv-x="1042" 
d="M647 1579q-53 -51 -126 -51t-126 51t-53 123t53 123t126 51t126 -51t53 -123t-53 -123zM451 1630q26 -31 69.5 -31t69.5 31q26 29 26 72t-26 74q-26 29 -69.5 29t-69.5 -29q-26 -31 -26 -74t26 -72z" />
    <glyph glyph-name="hungarumlaut.cap" 
d="M672 1542h-125l63 260h168zM406 1542h-125l63 260h168z" />
    <glyph glyph-name="dotaccent.cap" 
d="M592 1556h-160v195h160v-195z" />
    <glyph glyph-name="space_uni0326" 
d="M424 -467v78q43 13 62.5 38.5t19.5 78.5h-80v182h174v-182q0 -174 -176 -195z" />
    <glyph glyph-name="space_uni0326.alt" 
d="M600 1614v-78q-43 -13 -62.5 -38.5t-19.5 -78.5h80v-182h-174v182q0 174 176 195z" />
    <glyph glyph-name="R.alt" horiz-adv-x="1335" 
d="M1284 0h-209l-336 614h-417v-614h-185v1464h660q228 0 348 -141q98 -113 98 -279q0 -155 -84.5 -264t-234.5 -147zM766 1305h-444v-541h434q305 0 305 272q0 269 -295 269z" />
    <glyph glyph-name="Racute.alt" horiz-adv-x="1335" 
d="M1284 0h-209l-336 614h-417v-614h-185v1464h660q228 0 348 -141q98 -113 98 -279q0 -155 -84.5 -264t-234.5 -147zM766 1305h-444v-541h434q305 0 305 272q0 269 -295 269zM733 1542h-141l104 248h205z" />
    <glyph glyph-name="Rcaron.alt" horiz-adv-x="1335" 
d="M1284 0h-209l-336 614h-417v-614h-185v1464h660q228 0 348 -141q98 -113 98 -279q0 -155 -84.5 -264t-234.5 -147zM766 1305h-444v-541h434q305 0 305 272q0 269 -295 269zM758 1550h-189l-182 217h178l101 -129h4l104 129h174z" />
    <glyph glyph-name="Rcommaaccent.alt" horiz-adv-x="1335" 
d="M1284 0h-209l-336 614h-417v-614h-185v1464h660q228 0 348 -141q98 -113 98 -279q0 -155 -84.5 -264t-234.5 -147zM766 1305h-444v-541h434q305 0 305 272q0 269 -295 269zM580 -467v78q43 13 62.5 38.5t19.5 78.5h-80v182h174v-182q0 -174 -176 -195z" />
    <glyph glyph-name="a.alt" horiz-adv-x="1021" 
d="M954 0h-161q-30 30 -33 145h-2q-128 -165 -344 -165q-163 0 -264 79t-101 222q0 108 48 173.5t141 100.5q107 41 276 55q138 14 194 47.5t56 110.5q0 91 -59.5 138.5t-172.5 47.5q-254 0 -272 -233h-160q11 163 122.5 260.5t307.5 97.5q385 0 385 -336v-591
q0 -120 39 -146v-6zM446 106q153 0 238 91q82 88 82 194v162q-98 -51 -246 -66q-164 -20 -229.5 -61t-65.5 -141q0 -179 221 -179z" />
    <glyph glyph-name="aacute.alt" horiz-adv-x="1021" 
d="M954 0h-161q-30 30 -33 145h-2q-128 -165 -344 -165q-163 0 -264 79t-101 222q0 108 48 173.5t141 100.5q107 41 276 55q138 14 194 47.5t56 110.5q0 91 -59.5 138.5t-172.5 47.5q-254 0 -272 -233h-160q11 163 122.5 260.5t307.5 97.5q385 0 385 -336v-591
q0 -120 39 -146v-6zM446 106q153 0 238 91q82 88 82 194v162q-98 -51 -246 -66q-164 -20 -229.5 -61t-65.5 -141q0 -179 221 -179zM614 1225h-141l105 260h204z" />
    <glyph glyph-name="abreve.alt" horiz-adv-x="1021" 
d="M954 0h-161q-30 30 -33 145h-2q-128 -165 -344 -165q-163 0 -264 79t-101 222q0 108 48 173.5t141 100.5q107 41 276 55q138 14 194 47.5t56 110.5q0 91 -59.5 138.5t-172.5 47.5q-254 0 -272 -233h-160q11 163 122.5 260.5t307.5 97.5q385 0 385 -336v-591
q0 -120 39 -146v-6zM446 106q153 0 238 91q82 88 82 194v162q-98 -51 -246 -66q-164 -20 -229.5 -61t-65.5 -141q0 -179 221 -179zM539 1237q-107 0 -180.5 63t-79.5 164h122q21 -100 136 -100q122 0 143 100h119q-5 -98 -77 -162.5t-183 -64.5z" />
    <glyph glyph-name="acircumflex.alt" horiz-adv-x="1021" 
d="M954 0h-161q-30 30 -33 145h-2q-128 -165 -344 -165q-163 0 -264 79t-101 222q0 108 48 173.5t141 100.5q107 41 276 55q138 14 194 47.5t56 110.5q0 91 -59.5 138.5t-172.5 47.5q-254 0 -272 -233h-160q11 163 122.5 260.5t307.5 97.5q385 0 385 -336v-591
q0 -120 39 -146v-6zM446 106q153 0 238 91q82 88 82 194v162q-98 -51 -246 -66q-164 -20 -229.5 -61t-65.5 -141q0 -179 221 -179zM432 1233h-174l191 217h188l182 -217h-178l-100 129h-4z" />
    <glyph glyph-name="adieresis.alt" horiz-adv-x="1021" 
d="M954 0h-161q-30 30 -33 145h-2q-128 -165 -344 -165q-163 0 -264 79t-101 222q0 108 48 173.5t141 100.5q107 41 276 55q138 14 194 47.5t56 110.5q0 91 -59.5 138.5t-172.5 47.5q-254 0 -272 -233h-160q11 163 122.5 260.5t307.5 97.5q385 0 385 -336v-591
q0 -120 39 -146v-6zM446 106q153 0 238 91q82 88 82 194v162q-98 -51 -246 -66q-164 -20 -229.5 -61t-65.5 -141q0 -179 221 -179zM786 1260h-159v194h159v-194zM451 1260h-160v194h160v-194z" />
    <glyph glyph-name="agrave.alt" horiz-adv-x="1021" 
d="M954 0h-161q-30 30 -33 145h-2q-128 -165 -344 -165q-163 0 -264 79t-101 222q0 108 48 173.5t141 100.5q107 41 276 55q138 14 194 47.5t56 110.5q0 91 -59.5 138.5t-172.5 47.5q-254 0 -272 -233h-160q11 163 122.5 260.5t307.5 97.5q385 0 385 -336v-591
q0 -120 39 -146v-6zM446 106q153 0 238 91q82 88 82 194v162q-98 -51 -246 -66q-164 -20 -229.5 -61t-65.5 -141q0 -179 221 -179zM627 1225h-142l-168 260h205z" />
    <glyph glyph-name="amacron.alt" horiz-adv-x="1021" 
d="M954 0h-161q-30 30 -33 145h-2q-128 -165 -344 -165q-163 0 -264 79t-101 222q0 108 48 173.5t141 100.5q107 41 276 55q138 14 194 47.5t56 110.5q0 91 -59.5 138.5t-172.5 47.5q-254 0 -272 -233h-160q11 163 122.5 260.5t307.5 97.5q385 0 385 -336v-591
q0 -120 39 -146v-6zM446 106q153 0 238 91q82 88 82 194v162q-98 -51 -246 -66q-164 -20 -229.5 -61t-65.5 -141q0 -179 221 -179zM803 1274h-529v137h529v-137z" />
    <glyph glyph-name="aogonek.alt" horiz-adv-x="1021" 
d="M874 -352q-97 0 -151.5 44t-54.5 118q0 110 131 186q-36 29 -39 149h-2q-128 -165 -344 -165q-163 0 -264 79t-101 222q0 108 48 173.5t141 100.5q107 41 276 55q138 14 194 47.5t56 110.5q0 91 -59.5 138.5t-172.5 47.5q-254 0 -272 -233h-160q11 163 122.5 260.5
t307.5 97.5q385 0 385 -336v-591q0 -102 33 -146v-6q-125 -91 -125 -164q0 -69 82 -69q44 0 76 14h6v-115q-58 -18 -113 -18zM446 106q153 0 238 91q82 88 82 194v162q-98 -51 -246 -66q-164 -20 -229.5 -61t-65.5 -141q0 -179 221 -179z" />
    <glyph glyph-name="aring.alt" horiz-adv-x="1021" 
d="M954 0h-161q-30 30 -33 145h-2q-128 -165 -344 -165q-163 0 -264 79t-101 222q0 108 48 173.5t141 100.5q107 41 276 55q138 14 194 47.5t56 110.5q0 91 -59.5 138.5t-172.5 47.5q-254 0 -272 -233h-160q11 163 122.5 260.5t307.5 97.5q385 0 385 -336v-591
q0 -120 39 -146v-6zM446 106q153 0 238 91q82 88 82 194v162q-98 -51 -246 -66q-164 -20 -229.5 -61t-65.5 -141q0 -179 221 -179zM666 1196q-52 -51 -126 -51t-126 51t-52 123t52 123t126 51t126 -51t52 -123t-52 -123zM469 1247q26 -31 69.5 -31t69.5 31q26 29 26 72
t-26 74q-26 29 -69.5 29t-69.5 -29q-26 -31 -26 -74t26 -72z" />
    <glyph glyph-name="atilde.alt" horiz-adv-x="1021" 
d="M954 0h-161q-30 30 -33 145h-2q-128 -165 -344 -165q-163 0 -264 79t-101 222q0 108 48 173.5t141 100.5q107 41 276 55q138 14 194 47.5t56 110.5q0 91 -59.5 138.5t-172.5 47.5q-254 0 -272 -233h-160q11 163 122.5 260.5t307.5 97.5q385 0 385 -336v-591
q0 -120 39 -146v-6zM446 106q153 0 238 91q82 88 82 194v162q-98 -51 -246 -66q-164 -20 -229.5 -61t-65.5 -141q0 -179 221 -179zM670 1231q-61 0 -140 33q-77 32 -106 32q-44 0 -47 -61h-123q15 188 158 188q65 0 133 -32q70 -33 106 -33q47 0 56 61h118
q-9 -188 -155 -188z" />
    <glyph glyph-name="Ccedilla.alt" horiz-adv-x="1452" 
d="M655 -342v63q97 3 97 82h-95v146h181v-121q0 -89 -44 -127t-139 -43zM768 -29q-309 0 -498 213q-188 212 -188 549q0 331 188 549q188 215 506 215q246 0 401.5 -127t186.5 -340h-180q-27 141 -135.5 224t-276.5 83q-238 0 -369 -168q-133 -171 -133 -436
q0 -268 140 -434q138 -166 364 -166q190 0 301 112t125 292h182q-2 -109 -50 -223t-126 -189q-157 -154 -438 -154z" />
    <glyph glyph-name="Scedilla.alt" horiz-adv-x="1282" 
d="M670 -29q-295 0 -453 146q-160 145 -172 379h180q37 -377 453 -377q161 0 254.5 71.5t93.5 202.5q-8 93 -46 145t-126 87t-266 73q-116 25 -189 51.5t-145 69.5q-145 87 -145 287q0 179 135 283t362 104q494 0 555 -457h-174q-20 155 -116 234.5t-261 79.5
q-153 0 -241 -62t-88 -174q0 -72 39 -118.5t116 -77.5q100 -38 228 -62q113 -22 176 -39.5t137 -50.5q80 -34 125 -80q106 -110 106 -287q0 -199 -147 -313q-151 -115 -391 -115zM532 -342v63q97 3 97 82h-94v146h180v-121q0 -89 -44 -127t-139 -43z" />
    <glyph glyph-name="ccedilla.alt" horiz-adv-x="1062" 
d="M565 -29q-231 0 -370 160q-142 160 -142 397q0 238 142 398q138 159 370 159q185 0 304.5 -98t148.5 -270h-168q-19 109 -93 170t-192 61q-164 0 -252 -119q-90 -122 -90 -301q0 -187 90.5 -302t251.5 -115q127 0 202.5 68.5t86.5 193.5h164q-17 -191 -136 -296.5
t-317 -105.5zM449 -342v63q96 3 96 82h-94v146h180v-121q0 -89 -44 -127t-138 -43z" />
    <glyph glyph-name="scedilla.alt" horiz-adv-x="978" 
d="M514 -31q-216 0 -336.5 97t-132.5 278h170q27 -235 303 -235q121 0 183.5 46.5t62.5 127.5q0 82 -59 120q-52 33 -218 70q-115 23 -194 51q-50 14 -82 39q-57 40 -88 92.5t-31 135.5q0 136 99.5 213t281.5 77q376 0 416 -331h-170q-12 104 -72 152t-178 48
q-106 0 -159.5 -40.5t-53.5 -110.5q0 -79 61 -109q51 -28 224 -65q105 -22 159 -39t113 -51q119 -71 119 -244q0 -153 -113 -237.5t-305 -84.5zM395 -342v63q97 3 97 82h-95v146h181v-121q0 -89 -44 -127t-139 -43z" />
    <glyph glyph-name="hyphen.cap" horiz-adv-x="745" 
d="M668 584h-590v174h590v-174z" />
    <glyph glyph-name="endash.cap" horiz-adv-x="1071" 
d="M973 600h-875v141h875v-141z" />
    <glyph glyph-name="emdash.cap" horiz-adv-x="1644" 
d="M1546 600h-1448v141h1448v-141z" />
    <glyph glyph-name="questiondown.cap" horiz-adv-x="1032" 
d="M508 -27q-209 0 -328 113q-119 110 -119 279q0 108 46.5 185.5t142.5 158.5q139 117 176 182q38 66 41 219h156q-3 -171 -48 -262q-45 -95 -167 -205q-66 -60 -89 -80q-27 -27 -53 -80q-28 -58 -28 -116q0 -107 75 -176.5t201 -69.5q151 0 230.5 91.5t84.5 258.5h168
q-5 -231 -128.5 -364.5t-360.5 -133.5zM645 1262h-199v202h199v-202z" />
    <glyph glyph-name="exclamdown.cap" horiz-adv-x="481" 
d="M332 0h-182v469l45 641h92l45 -641v-469zM340 1262h-199v202h199v-202z" />
    <glyph glyph-name="parenleft.cap" horiz-adv-x="622" 
d="M580 -180h-136q-149 229 -224 450t-75 478q0 439 299 858h136q-240 -408 -240 -858q0 -489 240 -928z" />
    <glyph glyph-name="parenright.cap" horiz-adv-x="622" 
d="M180 -180h-135q240 439 240 928q0 450 -240 858h135q299 -419 299 -858q0 -257 -75 -478t-224 -450z" />
    <glyph glyph-name="bracketleft.cap" horiz-adv-x="606" 
d="M545 -180h-387v1786h387v-136h-215v-1509h215v-141z" />
    <glyph glyph-name="bracketright.cap" horiz-adv-x="606" 
d="M449 -180h-388v141h215v1509h-215v136h388v-1786z" />
    <glyph glyph-name="braceleft.cap" horiz-adv-x="606" 
d="M545 -180h-37q-163 0 -240.5 78t-77.5 252v364q0 71 -31.5 103.5t-109.5 33.5v137q76 1 108.5 34t32.5 104v356q0 173 77.5 248.5t240.5 75.5h37v-136h-33q-83 0 -116.5 -41.5t-33.5 -148.5v-367q0 -155 -114 -190v-6q114 -35 114 -191v-374q0 -108 33.5 -149.5
t116.5 -41.5h33v-141z" />
    <glyph glyph-name="braceright.cap" horiz-adv-x="606" 
d="M98 -180h-37v141h33q86 0 118 38.5t32 145.5v375q0 156 114 191v6q-114 35 -114 190v367q0 109 -34 152.5t-116 43.5h-33v136h37q163 0 240.5 -78t77.5 -252v-356q0 -71 31.5 -104t109.5 -34v-137q-77 -1 -109 -34t-32 -103v-365q0 -173 -77 -248t-241 -75z" />
    <glyph glyph-name="guillemotleft.cap" horiz-adv-x="868" 
d="M766 485v-161l-281 235v178l281 236v-162l-191 -160v-4zM383 485v-161l-281 235v178l281 236v-162l-190 -160v-4z" />
    <glyph glyph-name="guillemotright.cap" horiz-adv-x="868" 
d="M766 559l-281 -235v161l191 160v4l-191 162v162l281 -236v-178zM383 559l-281 -235v161l191 160v4l-191 162v162l281 -236v-178z" />
    <glyph glyph-name="guilsinglleft.cap" horiz-adv-x="503" 
d="M401 485v-161l-299 235v178l299 236v-162l-213 -160v-4z" />
    <glyph glyph-name="guilsinglright.cap" horiz-adv-x="503" 
d="M401 559l-299 -235v161l213 160v4l-213 162v162l299 -236v-178z" />
    <glyph glyph-name="registered.alt" horiz-adv-x="1662" 
d="M1366 182q-217 -217 -535 -217t-532 217q-217 217 -217 545q0 330 217 547q214 217 532 217t535 -217q215 -218 215 -547q0 -327 -215 -545zM362 240q189 -195 469 -195t469 195q187 193 187 487q0 297 -187 490q-188 194 -469 194q-278 0 -466 -194q-189 -195 -189 -490
t186 -487zM670 305h-144v844h389q117 0 191 -65.5t74 -168.5q0 -159 -158 -206v-4q62 -19 90 -60t39 -127q4 -31 7.5 -67.5t5.5 -56t5 -39t8 -29.5t13 -13v-8h-143q-24 14 -33 193q-9 153 -166 153h-178v-346zM883 1028h-213v-264h211q74 0 113.5 34.5t39.5 96.5
q0 133 -151 133z" />
    <glyph glyph-name="dollar.cap" horiz-adv-x="1185" 
d="M653 -160h-114v174q-239 17 -367 144.5t-139 328.5h172q14 -155 94.5 -237.5t239.5 -95.5v530q-115 26 -182 50t-130 65q-129 82 -129 270q0 168 120 270t321 113v113h114v-113q389 -27 439 -375h-166q-27 211 -273 238v-494q121 -24 193.5 -48.5t140.5 -65.5
q137 -83 137 -285q0 -182 -131 -289q-133 -112 -340 -121v-172zM956 416q0 103 -66.5 153t-236.5 88v-505q132 11 217.5 82.5t85.5 181.5zM260 1077q0 -95 64.5 -147.5t214.5 -85.5v473q-129 -11 -204 -74t-75 -166z" />
    <glyph glyph-name="Euro.cap" horiz-adv-x="1306" 
d="M172 803h-125v117h137q43 264 197 421q150 156 373 156q200 0 330 -117.5t155 -316.5h-178q-47 280 -311 280q-153 0 -251.5 -110.5t-127.5 -312.5h428v-117h-441q-4 -74 0 -148h441v-114h-428q31 -201 132 -307.5t261 -106.5q281 0 321 358h172q-9 -226 -147 -370
q-140 -146 -358 -146q-210 0 -367 154q-158 152 -201 418h-137v114h125q-4 25 -4 74t4 74z" />
    <glyph glyph-name="sterling.cap" horiz-adv-x="1167" 
d="M250 643h-176v137h129q-68 183 -68 301q0 182 135 299q132 117 353 117q201 0 340 -121q134 -122 137 -368h-176q-1 171 -83.5 255.5t-224.5 84.5q-139 0 -216.5 -72t-77.5 -197q0 -82 32 -176q3 -11 19.5 -60.5t19.5 -62.5h307v-137h-268q14 -66 14 -125
q0 -190 -170 -328l5 -4q107 35 168 35q81 0 194 -43q110 -45 172 -45q106 0 221 103l105 -127q-157 -136 -332 -136q-101 0 -229 58q-126 57 -209 57q-61 0 -131 -39q-21 -13 -56 -35q-6 -4 -12.5 -8.5t-9.5 -6.5t-4 -3l-103 141q81 59 126 104.5t71.5 106t26.5 137.5
q0 63 -29 158z" />
    <glyph glyph-name="yen.cap" horiz-adv-x="1202" 
d="M516 582h-385v114h354l-444 768h199l366 -659h4l361 659h188l-438 -768h358v-114h-385v-148h385v-115h-385v-319h-178v319h-385v115h385v148z" />
    <glyph glyph-name="zero.cap" horiz-adv-x="1312" 
d="M657 -31q-267 0 -417 205q-152 208 -152 559q0 353 156 559q153 205 415 205q264 0 414 -203q152 -208 152 -561q0 -352 -148 -559q-150 -205 -420 -205zM659 129q377 0 377 604q0 290 -96.5 448t-280.5 158q-189 0 -286 -156.5t-97 -449.5q0 -291 97.5 -447.5
t285.5 -156.5z" />
    <glyph glyph-name="one.cap" horiz-adv-x="724" 
d="M563 0h-184v1065h-322v121q326 9 363 287h143v-1473z" />
    <glyph glyph-name="two.cap" horiz-adv-x="1171" 
d="M1069 0h-1016q7 130 68 272q29 71 149 191q24 24 101 78q82 54 98 63q6 4 43 25t68 39q23 13 24 14q161 90 238 170q69 69 69 192q0 136 -86 220t-231 84q-142 0 -229 -93q-84 -90 -84 -292h-191q0 258 139 397q137 137 381 137q223 0 357 -125q133 -127 133 -325
q0 -191 -119 -302q-67 -61 -119 -96q-45 -29 -162 -94q-20 -10 -26 -14q-116 -65 -170 -101q-71 -48 -139 -116q-76 -79 -93 -152h797v-172z" />
    <glyph glyph-name="three.cap" horiz-adv-x="1216" 
d="M623 -31q-254 0 -416 137q-165 136 -168 377h178q6 -173 111 -267.5t288 -94.5q162 0 253.5 78t91.5 227q0 139 -98 211t-285 72h-93v141h90q166 0 253 65t87 187q0 115 -88 183.5t-227 68.5q-157 0 -246.5 -90.5t-89.5 -245.5h-176q2 220 140.5 349.5t377.5 129.5
q215 0 350 -106q138 -108 138 -295q0 -229 -242 -308v-6q297 -76 297 -374q0 -202 -148 -320q-149 -119 -378 -119z" />
    <glyph glyph-name="four.cap" horiz-adv-x="1206" 
d="M922 0h-181v358h-690v164l725 957h146v-975h241v-146h-241v-358zM737 1186l-514 -676v-6h518v682h-4z" />
    <glyph glyph-name="five.cap" horiz-adv-x="1181" 
d="M588 -31q-228 0 -379 127t-160 328h182q17 -140 109.5 -217.5t245.5 -77.5q156 0 249 95.5t93 256.5q0 158 -95.5 252t-246.5 94q-219 0 -328 -151h-174l162 788h780v-161h-653l-97 -441h5q131 125 335 125q207 0 353 -137q145 -139 145 -373q0 -230 -147 -368
q-149 -140 -379 -140z" />
    <glyph glyph-name="six.cap" horiz-adv-x="1239" 
d="M666 -31q-233 0 -371 129q-111 101 -159 253.5t-48 389.5q0 351 150 553q147 203 421 203q205 0 326 -115q117 -117 135 -290h-178q-11 112 -85 181.5t-193 69.5q-202 0 -296.5 -146.5t-99.5 -438.5h4q147 203 402 203q206 0 344 -144q136 -142 139 -348
q3 -207 -139 -352q-142 -148 -352 -148zM662 117q141 0 230 95.5t89 248.5q0 155 -92.5 252.5t-235.5 97.5q-158 0 -256 -95.5t-98 -250.5q0 -157 102 -252q104 -96 261 -96z" />
    <glyph glyph-name="seven.cap" horiz-adv-x="1095" 
d="M455 0h-197q24 373 201 737q173 355 426 561v5h-836v161h1024v-149q-243 -215 -420 -561t-198 -754z" />
    <glyph glyph-name="eight.cap" horiz-adv-x="1249" 
d="M831 -6q-68 -17 -141 -22.5t-147 2t-142.5 26.5t-128.5 55.5t-104.5 86.5t-70.5 121t-27 157q0 280 303 379v8q-107 39 -168.5 120.5t-61.5 190.5q0 172 138 277q137 104 344 104t344 -104t137 -277q0 -223 -225 -311v-8q134 -39 215.5 -140t81.5 -239q0 -91 -27.5 -165
t-77 -124.5t-109.5 -84t-133 -52.5zM631 121q171 0 265.5 79t94.5 220q0 146 -96.5 228.5t-269.5 82.5q-172 0 -270.5 -82.5t-98.5 -228.5q0 -142 98 -220.5t277 -78.5zM403 938q79 -64 222 -64q141 0 223 64q80 62 80 174q0 110 -81 173t-222 63t-222 -63t-81 -173
q0 -114 81 -174z" />
    <glyph glyph-name="nine.cap" horiz-adv-x="1241" 
d="M606 -31q-219 0 -356 119q-141 117 -150 309h185q11 -127 94 -200.5t223 -73.5q163 0 248 94q119 125 131 475h-4q-149 -186 -404 -186q-209 0 -346 143q-138 144 -141 348q-3 209 143 355q145 145 369 145q200 0 338 -108q121 -91 172 -248t51 -416q0 -457 -209 -639
q-129 -117 -344 -117zM596 655q164 0 262 96t98 255q0 150 -102 245q-106 95 -256 95q-151 0 -244 -93q-92 -92 -92 -247q0 -158 94 -252q94 -99 240 -99z" />
    <glyph glyph-name="percent.cap" horiz-adv-x="1665" 
d="M618 797q-88 -111 -237 -111t-240 111q-92 112 -92 295q0 184 94 294q95 111 238 111t235 -108q93 -113 93 -297q0 -181 -91 -295zM1526 80q-88 -111 -238 -111q-148 0 -239 111q-93 113 -93 295q0 183 95 295q94 110 237 110q144 0 236 -108q92 -112 92 -297
q0 -182 -90 -295zM459 0h-140l887 1464h140zM252 889q47 -80 129 -80q84 0 131 78q45 74 45 205q0 125 -47.5 203.5t-128.5 78.5q-84 0 -130 -76t-46 -206q0 -126 47 -203zM1159 172q47 -80 129 -80q84 0 131 78q45 74 45 205q0 125 -47.5 203.5t-128.5 78.5q-84 0 -130 -76
t-46 -206q0 -126 47 -203z" />
    <glyph glyph-name="perthousand.cap" horiz-adv-x="2361" 
d="M618 797q-88 -111 -237 -111t-240 111q-92 112 -92 295q0 184 94 294q95 111 238 111t235 -108q93 -113 93 -297q0 -181 -91 -295zM1485 80q-89 -111 -238 -111q-147 0 -239 111q-93 113 -93 295q0 183 95 295q94 110 237 110q145 0 236 -108q92 -112 92 -297
q0 -182 -90 -295zM2222 80q-88 -111 -237 -111t-240 111q-92 112 -92 295q0 185 94 295t238 110q143 0 235 -108q92 -112 92 -297q0 -182 -90 -295zM438 0h-139l887 1464h139zM252 889q47 -80 129 -80q84 0 131 78q45 74 45 205q0 125 -47.5 203.5t-128.5 78.5
q-84 0 -130 -76t-46 -206q0 -126 47 -203zM1118 172q47 -80 129 -80q84 0 131 78q45 74 45 205q0 125 -47.5 203.5t-128.5 78.5q-84 0 -130 -76t-46 -206q0 -126 47 -203zM1855 172q47 -80 130 -80q84 0 131 78q45 74 45 205q0 125 -47.5 203.5t-128.5 78.5
q-84 0 -130.5 -76.5t-46.5 -205.5q0 -126 47 -203z" />
    <glyph glyph-name="zero.numerator" horiz-adv-x="808" 
d="M403 602q-159 0 -251.5 118.5t-92.5 321.5q0 201 95 322q94 119 252 119q156 0 251 -117q93 -122 93 -324q0 -203 -93 -321.5t-254 -118.5zM406 725q190 0 190 317q0 151 -49 236.5t-141 85.5q-95 0 -144 -85t-49 -237q0 -151 49 -234t144 -83z" />
    <glyph glyph-name="one.numerator" horiz-adv-x="520" 
d="M397 623h-147v591h-203v101q204 3 225 155h125v-847z" />
    <glyph glyph-name="two.numerator" horiz-adv-x="714" 
d="M659 623h-612q6 120 67 201t187 163q8 5 46 30t46 30q63 45 72 57q45 61 45 110q0 67 -39.5 106.5t-105.5 39.5q-74 0 -116 -49t-42 -140h-139q0 148 80.5 229t224.5 81q128 0 208.5 -75t80.5 -189q0 -110 -70 -175q-34 -32 -64 -53q-17 -12 -84 -53q-6 -6 -22 -14
q-182 -108 -203 -179h440v-120z" />
    <glyph glyph-name="three.numerator" horiz-adv-x="751" 
d="M383 604q-154 0 -245.5 81t-92.5 220h139q9 -184 193 -184q81 0 126.5 39t45.5 112q0 140 -182 140h-54v112h52q75 0 117 33t42 90q0 56 -40.5 90.5t-104.5 34.5q-77 0 -120 -44.5t-48 -123.5h-139q5 128 87 203.5t222 75.5q128 0 206.5 -63.5t78.5 -168.5
q0 -127 -138 -174v-4q170 -41 170 -213q0 -119 -88 -187.5t-227 -68.5z" />
    <glyph glyph-name="four.numerator" horiz-adv-x="792" 
d="M614 623h-141v192h-416v146l418 514h139v-547h134v-113h-134v-192zM469 1286l-293 -354v-4h297v358h-4z" />
    <glyph glyph-name="five.numerator" horiz-adv-x="745" 
d="M375 604q-141 0 -232 71t-98 191h145q7 -66 57 -103.5t126 -37.5q75 0 122.5 49t47.5 127q0 79 -47.5 126.5t-122.5 47.5q-107 0 -162 -67h-135l86 456h483v-123h-385l-41 -211h4q70 64 183 64q119 0 202 -80q84 -84 84 -213q0 -130 -90 -213.5t-227 -83.5z" />
    <glyph glyph-name="six.numerator" horiz-adv-x="761" 
d="M403 602q-147 0 -229 88q-113 113 -113 344q-2 207 82.5 327t255.5 120q120 0 195.5 -61.5t87.5 -162.5h-143q-18 107 -133 107q-197 0 -197 -268h4q73 94 207 94q118 0 205 -84q84 -84 84 -211t-88 -209q-90 -84 -218 -84zM399 719q72 0 120 49.5t48 124.5t-48 126.5
t-120 51.5q-81 0 -128.5 -48.5t-47.5 -127.5q0 -78 49 -127t127 -49z" />
    <glyph glyph-name="seven.numerator" horiz-adv-x="724" 
d="M338 623h-158q9 204 107 405q94 189 221 307v2h-457v127h611v-121q-139 -129 -226.5 -316.5t-97.5 -403.5z" />
    <glyph glyph-name="eight.numerator" horiz-adv-x="792" 
d="M639 674q-98 -70 -240 -70q-138 0 -241 68q-101 67 -101 192q0 158 162 219v4q-119 55 -119 173q0 101 83 162t214 61t213 -60t82 -159q0 -122 -117 -174v-5q73 -25 116.5 -81.5t43.5 -133.5q0 -127 -96 -196zM397 719q86 0 137.5 40.5t51.5 108.5q0 74 -49.5 116
t-139.5 42q-88 0 -138 -42t-50 -116q0 -71 49.5 -110t138.5 -39zM397 1128q52 -4 90 18.5t53 56t8.5 72t-36.5 64.5q-39 33 -115 33q-73 0 -112 -33q-41 -35 -41 -88q0 -58 40 -90.5t113 -32.5z" />
    <glyph glyph-name="nine.numerator" horiz-adv-x="765" 
d="M375 604q-126 0 -204.5 61.5t-90.5 165.5h145q21 -112 146 -112q84 0 127 55q56 65 59 221h-2q-79 -98 -207 -98q-125 0 -209 84q-86 83 -86 209q0 125 90 209t222 84q115 0 192 -53q150 -99 150 -379q0 -278 -134 -385q-74 -62 -198 -62zM244 1067q46 -49 127 -49
q79 0 131 49q49 46 49 125q0 74 -52 124t-128 50q-75 0 -125.5 -49.5t-50.5 -122.5q0 -78 49 -127z" />
    <glyph glyph-name="zero.denominator" horiz-adv-x="808" 
d="M403 -20q-159 0 -251.5 118.5t-92.5 321.5q0 200 95 321q94 119 252 119q156 0 251 -117q93 -122 93 -323q0 -203 -93 -321.5t-254 -118.5zM406 102q190 0 190 318q0 150 -49 235.5t-141 85.5q-95 0 -144 -84.5t-49 -236.5q0 -151 49 -234.5t144 -83.5z" />
    <glyph glyph-name="one.denominator" horiz-adv-x="520" 
d="M397 0h-147v592h-203v100q204 3 225 156h125v-848z" />
    <glyph glyph-name="two.denominator" horiz-adv-x="714" 
d="M659 0h-612q6 120 67 201.5t187 163.5q8 5 46 29.5t46 29.5q63 45 72 57q45 61 45 111q0 67 -39.5 106t-105.5 39q-74 0 -116 -48.5t-42 -139.5h-139q0 148 80.5 228.5t224.5 80.5q128 0 208.5 -75t80.5 -189q0 -109 -70 -174q-34 -32 -64 -53q-27 -19 -84 -54
q-6 -6 -22 -14q-182 -108 -203 -178h440v-121z" />
    <glyph glyph-name="three.denominator" horiz-adv-x="751" 
d="M383 -18q-154 0 -245.5 81t-92.5 220h139q9 -185 193 -185q80 0 126 39.5t46 112.5q0 139 -182 139h-54v113h52q75 0 117 33t42 90q0 56 -40.5 90.5t-104.5 34.5q-77 0 -120 -44.5t-48 -123.5h-139q5 128 87 203t222 75q128 0 206.5 -63t78.5 -168q0 -127 -138 -174v-4
q170 -41 170 -213q0 -119 -88 -187.5t-227 -68.5z" />
    <glyph glyph-name="four.denominator" horiz-adv-x="792" 
d="M614 0h-141v193h-416v145l418 514h139v-547h134v-112h-134v-193zM469 664l-293 -355v-4h297v359h-4z" />
    <glyph glyph-name="five.denominator" horiz-adv-x="745" 
d="M375 -18q-141 0 -232 71t-98 191h145q7 -67 57 -104.5t126 -37.5q75 0 122.5 49.5t47.5 127.5q0 79 -47.5 126.5t-122.5 47.5q-106 0 -162 -68h-135l86 457h483v-123h-385l-41 -211h4q69 63 183 63q120 0 202 -79q84 -84 84 -213q0 -130 -90 -213.5t-227 -83.5z" />
    <glyph glyph-name="six.denominator" horiz-adv-x="761" 
d="M403 -20q-147 0 -229 88q-113 113 -113 344q-2 206 82.5 326t255.5 120q121 0 196 -61.5t87 -161.5h-143q-18 106 -133 106q-197 0 -197 -268h4q73 94 207 94q118 0 205 -84q84 -84 84 -211t-88 -209q-89 -83 -218 -83zM399 96q72 0 120 49.5t48 124.5t-48 127t-120 52
q-81 0 -128.5 -49t-47.5 -128q0 -78 49 -127t127 -49z" />
    <glyph glyph-name="seven.denominator" horiz-adv-x="724" 
d="M338 0h-158q9 205 107 406q94 189 221 307v2h-457v127h611v-121q-139 -129 -226.5 -317t-97.5 -404z" />
    <glyph glyph-name="eight.denominator" horiz-adv-x="792" 
d="M639 51q-97 -69 -240 -69q-140 0 -241 67t-101 193q0 158 162 219v4q-119 55 -119 172q0 101 83 162t214 61t213 -60t82 -159q0 -121 -117 -174v-4q73 -25 116.5 -81.5t43.5 -133.5q0 -128 -96 -197zM397 96q86 0 137.5 41t51.5 109q0 74 -49.5 115.5t-139.5 41.5
q-88 0 -138 -42t-50 -115q0 -72 50 -111t138 -39zM397 506q52 -4 90 18.5t53 56t8.5 72t-36.5 64.5q-39 33 -115 33q-73 0 -112 -33q-41 -35 -41 -88q0 -58 40 -90.5t113 -32.5z" />
    <glyph glyph-name="nine.denominator" horiz-adv-x="765" 
d="M375 -18q-126 0 -204.5 61.5t-90.5 165.5h145q21 -113 146 -113q83 0 127 56q56 65 59 221h-2q-80 -99 -207 -99q-125 0 -209 84q-86 83 -86 209q0 125 90 209t222 84q115 0 192 -53q150 -99 150 -379q0 -278 -134 -385q-73 -61 -198 -61zM244 444q46 -49 127 -49
q79 0 131 49q49 46 49 125q0 74 -52 124t-128 50q-75 0 -125.5 -49.5t-50.5 -122.5q0 -78 49 -127z" />
    </font>
</defs>
</svg>
