<?xml version="1.0" standalone="no"?>
<!DOCTYPE svg PUBLIC "-//W3C//DTD SVG 1.1//EN" "http://www.w3.org/Graphics/SVG/1.1/DTD/svg11.dtd" >
<svg xmlns="http://www.w3.org/2000/svg" xmlns:xlink="http://www.w3.org/1999/xlink" version="1.1">
<metadata>
Created by FontForge 20201107 at Tue Jan  9 13:50:02 2024
 By 
Copyright 2011 Schwartzco Inc dba Commercial Type.
</metadata>
<defs>
<font id="NeueHaasGroteskPro-45Light" horiz-adv-x="1024" >
  <font-face 
    font-family="Neue Haas Grotesk DispLight"
    font-weight="400"
    font-stretch="normal"
    units-per-em="2048"
    panose-1="2 13 3 4 3 5 2 5 2 3"
    ascent="1675"
    descent="-373"
    x-height="1059"
    cap-height="1464"
    bbox="-375 -438 2265 1872"
    underline-thickness="102"
    underline-position="-409"
    unicode-range="U+0020-FB04"
  />
<missing-glyph 
 />
    <glyph glyph-name="f_f" unicode="ff" horiz-adv-x="1011" 
d="M311 0h-125v954h-153v105h153v178q0 227 248 227q64 0 70 -2v-108h-55q-74 0 -106 -28.5t-32 -92.5v-174h334v188q0 228 248 228q5 0 37 -1t35 -1v-109h-56q-74 0 -105.5 -29t-31.5 -92v-184h197v-105h-197v-954h-127v954h-334v-954z" />
    <glyph glyph-name="fi" unicode="fi" horiz-adv-x="880" 
d="M311 0h-125v954h-153v105h153v188q0 228 248 228q6 0 38 -1t34 -1v-109h-55q-76 0 -108 -29t-32 -92v-184h197v-105h-197v-954zM772 0h-127v1059h127v-1059zM772 1284h-127v180h127v-180z" />
    <glyph glyph-name="fl" unicode="fl" horiz-adv-x="886" 
d="M311 0h-125v954h-153v105h153v188q0 228 248 228q6 0 38 -1t34 -1v-109h-55q-76 0 -108 -29t-32 -92v-184h197v-105h-197v-954zM774 0h-127v1464h127v-1464z" />
    <glyph glyph-name="f_f_i" unicode="ffi" horiz-adv-x="1339" 
d="M311 0h-125v954h-153v105h153v178q0 227 248 227q64 0 70 -2v-108h-55q-74 0 -106 -28.5t-32 -92.5v-174h334v188q0 228 248 228q5 0 37 -1t35 -1v-109h-56q-74 0 -105.5 -29t-31.5 -92v-184h197v-105h-197v-954h-127v954h-334v-954zM1231 0h-127v1059h127v-1059z
M1231 1284h-127v180h127v-180z" />
    <glyph glyph-name="f_f_l" unicode="ffl" horiz-adv-x="1345" 
d="M311 0h-125v954h-153v105h153v178q0 227 248 227q64 0 70 -2v-108h-55q-74 0 -106 -28.5t-32 -92.5v-174h334v188q0 228 248 228q5 0 37 -1t35 -1v-109h-56q-74 0 -105.5 -29t-31.5 -92v-184h197v-105h-197v-954h-127v954h-334v-954zM1233 0h-125v1464h125v-1464z" />
    <glyph glyph-name=".notdef" 
 />
    <glyph glyph-name=".null" horiz-adv-x="0" 
 />
    <glyph glyph-name="nonmarkingreturn" horiz-adv-x="681" 
 />
    <glyph glyph-name="space" unicode=" " horiz-adv-x="307" 
 />
    <glyph glyph-name="exclam" unicode="!" horiz-adv-x="434" 
d="M258 354h-80l-31 641v469h140v-469zM295 0h-156v178h156v-178z" />
    <glyph glyph-name="quotedbl" unicode="&#x22;" horiz-adv-x="565" 
d="M209 1026h-121v438h121v-438zM477 1026h-121v438h121v-438z" />
    <glyph glyph-name="numbersign" unicode="#" horiz-adv-x="1150" 
d="M330 0h-111l57 424h-208l16 113h207l49 348h-207l17 112h206l58 408h110l-55 -408h295l57 408h113l-57 -408h206l-16 -112h-207l-49 -348h205l-17 -113h-202l-58 -424h-112l57 424h-295zM453 885l-50 -348h297l48 348h-295z" />
    <glyph glyph-name="dollar" unicode="$" horiz-adv-x="1136" 
d="M621 -174h-95v178q-222 17 -347 141.5t-136 321.5h129q11 -155 102.5 -248t251.5 -106v579q-216 46 -321 125q-105 77 -105 246q0 161 117 262t309 109v116h95v-116q182 -13 288 -112.5t125 -266.5h-125q-13 116 -88.5 186t-199.5 82v-526q116 -25 185.5 -48.5
t133.5 -64.5q133 -84 133 -276q0 -175 -125 -285q-124 -112 -327 -121v-176zM526 815v510q-139 -7 -220 -77t-81 -181q0 -104 67.5 -159.5t233.5 -92.5zM621 672v-561q142 8 231.5 85.5t89.5 202.5q0 119 -72 179q-67 53 -249 94z" />
    <glyph glyph-name="percent" unicode="%" horiz-adv-x="1636" 
d="M377 731q89 0 141.5 79.5t52.5 223.5q0 139 -54 220t-140 81q-89 0 -142 -78.5t-53 -222.5q0 -140 53.5 -221.5t141.5 -81.5zM377 635q-141 0 -228.5 108t-87.5 291q0 182 91 293q88 107 225 107q135 0 223 -107t88 -293q0 -182 -86.5 -290.5t-224.5 -108.5zM471 0h-113
l809 1403h111zM1262 70q89 0 141.5 78.5t52.5 222.5q0 140 -53.5 221.5t-140.5 81.5q-88 0 -141.5 -80t-53.5 -223q0 -139 54 -220t141 -81zM1262 -29q-139 0 -226.5 109t-87.5 291q0 183 88 291t226 108t225.5 -107t87.5 -292q0 -183 -86 -291.5t-227 -108.5z" />
    <glyph glyph-name="ampersand" unicode="&#x26;" horiz-adv-x="1181" 
d="M502 -27q-184 0 -309 107q-127 109 -127 282q0 101 39.5 180.5t109 139t186.5 125.5l-36 47q-119 155 -119 301q0 125 88 207q90 84 219 84q131 0 216 -81t85 -218q0 -117 -67.5 -196.5t-217.5 -164.5l326 -419q54 128 57 299h117q0 -224 -94 -402l205 -264h-154
l-123 158q-150 -185 -401 -185zM461 928l45 -60q119 69 170 133t51 150t-47.5 136t-126.5 50t-129.5 -50t-50.5 -134q0 -109 88 -225zM508 86q200 0 323 166l-366 471q-69 -41 -115.5 -77.5t-82 -79.5t-52 -93t-16.5 -111q0 -123 86 -199.5t223 -76.5z" />
    <glyph glyph-name="quotesingle" unicode="'" horiz-adv-x="296" 
d="M209 1026h-121v438h121v-438z" />
    <glyph glyph-name="parenleft" unicode="(" horiz-adv-x="581" 
d="M541 -242h-111q-280 435 -280 928q0 458 280 858h111q-246 -402 -246 -858q0 -506 246 -928z" />
    <glyph glyph-name="parenright" unicode=")" horiz-adv-x="581" 
d="M152 -242h-111q246 414 246 887q0 494 -246 899h111q282 -419 282 -899q0 -473 -282 -887z" />
    <glyph glyph-name="asterisk" unicode="*" horiz-adv-x="737" 
d="M369 1108l-140 -201l-71 54l131 186l-205 72l31 79l204 -71v237h97v-237l207 71l30 -79l-204 -72l131 -186l-74 -54z" />
    <glyph glyph-name="plus" unicode="+" horiz-adv-x="1085" 
d="M600 215h-115v397h-372v111h372v393h115v-393h373v-111h-373v-397z" />
    <glyph glyph-name="comma" unicode="," horiz-adv-x="327" 
d="M86 -221v74q70 27 70 139v8h-70v178h156v-184q0 -185 -156 -215z" />
    <glyph glyph-name="hyphen" unicode="-" horiz-adv-x="667" 
d="M596 516h-524v115h524v-115z" />
    <glyph glyph-name="period" unicode="." horiz-adv-x="327" 
d="M242 0h-156v178h156v-178z" />
    <glyph glyph-name="slash" unicode="/" horiz-adv-x="780" 
d="M166 0h-133l581 1464h134z" />
    <glyph glyph-name="zero" unicode="0" horiz-adv-x="1193" 
d="M598 86q187 0 284 160t97 456q0 290 -99.5 454.5t-281.5 164.5q-184 0 -283.5 -162.5t-99.5 -456.5q0 -290 100 -453t283 -163zM596 -29q-246 0 -381 197q-137 195 -137 534q0 340 141 537q139 195 379 195t379 -195t139 -537q0 -340 -135 -534q-138 -197 -385 -197z" />
    <glyph glyph-name="one" unicode="1" horiz-adv-x="669" 
d="M496 0h-134v1055h-294v90q166 9 237 63q72 54 90 203h101v-1411z" />
    <glyph glyph-name="two" unicode="2" horiz-adv-x="1064" 
d="M975 0h-909q3 132 55 260q28 64 137 180q20 20 92 72q67 48 90 61q5 3 37.5 22t59.5 36q182 110 229 157q92 92 92 232q0 139 -81.5 219t-221.5 80q-149 0 -233 -90q-86 -95 -89 -277h-135q0 228 125 353q127 127 340 127q193 0 314 -115q116 -116 116 -293
q0 -98 -26 -168.5t-88 -128.5q-64 -61 -109 -92q-65 -42 -143 -88q-8 -5 -20.5 -12.5t-20.5 -12.5q-44 -26 -125 -78q-48 -31 -105 -82q-117 -97 -139 -239h758v-123z" />
    <glyph glyph-name="three" unicode="3" horiz-adv-x="1083" 
d="M547 -29q-217 0 -354 125q-141 126 -144 338h133q6 -164 103 -255t260 -91q158 0 247 82t89 225q0 140 -91 217.5t-255 77.5h-99v109h96q142 0 222 69t80 191q0 123 -80 194.5t-211 71.5q-146 0 -232 -93t-86 -243h-131q2 200 124 322.5t329 122.5q180 0 299 -101
t119 -274q0 -223 -211 -305v-6q262 -83 262 -363q0 -190 -129 -301q-131 -113 -340 -113z" />
    <glyph glyph-name="four" unicode="4" horiz-adv-x="1099" 
d="M834 0h-129v358h-656v123l674 936h111v-948h217v-111h-217v-358zM182 475v-6h523v725h-5z" />
    <glyph glyph-name="five" unicode="5" horiz-adv-x="1048" 
d="M516 -29q-198 0 -328 115q-132 114 -135 293h131q38 -287 330 -287q152 0 242 99t90 262q0 158 -90 253t-234 95q-208 0 -307 -144h-127l125 746h698v-119h-602l-78 -479h5q122 113 309 113q184 0 309 -125q127 -127 127 -344q0 -212 -127 -345q-130 -133 -338 -133z" />
    <glyph glyph-name="six" unicode="6" horiz-adv-x="1114" 
d="M592 -29q-195 0 -326 119q-188 170 -188 621q0 326 137 524q135 199 385 199q173 0 279 -100.5t125 -264.5h-134q-11 112 -82.5 181t-185.5 69q-195 0 -295 -168.5t-98 -474.5h4q131 227 383 227q193 0 319 -129q125 -131 125 -328q3 -197 -125 -337q-126 -138 -323 -138
zM588 82q144 0 233 102q90 104 90 258q0 155 -90 253t-233 98q-152 0 -246 -99q-98 -101 -98 -256q0 -160 95 -258t249 -98z" />
    <glyph glyph-name="seven" unicode="7" horiz-adv-x="1001" 
d="M406 0h-144q26 350 187 715q159 356 378 565v4h-780v119h918v-115q-222 -216 -375 -553q-154 -343 -184 -735z" />
    <glyph glyph-name="eight" unicode="8" horiz-adv-x="1120" 
d="M911 82q-141 -111 -348 -111q-208 0 -352 111q-145 112 -145 311q0 136 72.5 230t203.5 139v6q-99 39 -154 118t-55 187q0 158 123 260q119 101 303 101q186 0 307 -103q119 -101 119 -258q0 -105 -56 -184.5t-155 -118.5v-6q124 -39 201.5 -139.5t77.5 -231.5
q0 -202 -142 -311zM563 84q163 0 260 85.5t97 223.5q0 142 -98.5 228t-264.5 86q-164 0 -259 -86t-95 -228q0 -141 96 -225t264 -84zM557 815q133 0 215 71t82 181q0 114 -80 185t-215 71t-215 -71t-80 -185q0 -112 79 -182t214 -70z" />
    <glyph glyph-name="nine" unicode="9" horiz-adv-x="1112" 
d="M524 -29q-185 0 -301.5 101.5t-126.5 271.5h135q11 -119 88 -188.5t201 -69.5q156 0 242 92q142 145 145 543h-4q-127 -219 -383 -219q-194 0 -319 131q-127 130 -127 325q-3 200 129 338t329 138q182 0 314 -111q102 -84 146 -235t44 -394q0 -419 -184 -600
q-126 -123 -328 -123zM530 612q154 0 248 99q96 101 96 254q0 159 -94.5 258.5t-244.5 99.5t-240 -100q-92 -103 -92 -260q0 -156 90.5 -253.5t236.5 -97.5z" />
    <glyph glyph-name="colon" unicode=":" horiz-adv-x="344" 
d="M250 0h-156v178h156v-178zM250 629h-156v178h156v-178z" />
    <glyph glyph-name="semicolon" unicode=";" horiz-adv-x="344" 
d="M94 -221v74q70 27 70 139v8h-70v178h156v-184q0 -185 -156 -215zM250 629h-156v178h156v-178z" />
    <glyph glyph-name="less" unicode="&#x3c;" horiz-adv-x="1021" 
d="M911 344v-121l-809 346v138l809 346v-121l-702 -291v-4z" />
    <glyph glyph-name="equal" unicode="=" horiz-adv-x="1085" 
d="M973 418h-860v108h860v-108zM973 745h-860v109h860v-109z" />
    <glyph glyph-name="greater" unicode="&#x3e;" horiz-adv-x="1021" 
d="M920 569l-809 -346v121l702 291v4l-702 293v121l809 -346v-138z" />
    <glyph glyph-name="question" unicode="?" horiz-adv-x="1017" 
d="M530 354h-122q0 171 45 262q49 96 163 193q50 40 70 61q1 1 53 62q60 74 60 182q0 118 -77.5 190t-205.5 72q-151 0 -238 -93.5t-92 -250.5h-131q3 196 123 328q116 131 344 131q188 0 301 -107t113 -268q0 -85 -33.5 -162.5t-73.5 -117.5q-41 -41 -106 -95
q-119 -98 -156 -168t-37 -219zM545 0h-154v178h154v-178z" />
    <glyph glyph-name="at" unicode="@" horiz-adv-x="1781" 
d="M889 -209q-368 0 -590 219q-221 218 -221 582q0 266 125 467q127 201 317 301q189 98 410 98q151 0 289 -49.5t246.5 -141t173.5 -236.5t65 -322q0 -233 -96 -379t-269 -146q-89 0 -146 43.5t-71 112.5h-4q-43 -78 -125.5 -126t-175.5 -48q-154 0 -246 106.5t-92 280.5
q0 233 117 377q117 141 293 141q185 0 262 -158h6l21 140h114l-69 -574q-12 -92 18.5 -143t101.5 -51q116 0 182 111.5t66 308.5q0 312 -184 481q-186 168 -481 168q-306 0 -518 -209q-215 -209 -215 -553q0 -317 182 -508q181 -190 512 -190q190 0 391 77l37 -92
q-201 -88 -426 -88zM823 266q145 0 223 115.5t78 306.5q0 134 -58.5 208.5t-174.5 74.5q-135 0 -209 -117q-76 -119 -76 -299q0 -135 55 -212t162 -77z" />
    <glyph glyph-name="A" unicode="A" horiz-adv-x="1298" 
d="M156 0h-140l553 1464h156l557 -1464h-147l-170 461h-637zM573 1120l-204 -547h555l-201 547l-74 213h-4q-52 -161 -72 -213z" />
    <glyph glyph-name="B" unicode="B" horiz-adv-x="1275" 
d="M766 0h-635v1464h608q200 0 312 -106q106 -93 106 -262q0 -242 -223 -318v-6q134 -38 209.5 -130t75.5 -230q0 -177 -107 -287q-119 -125 -346 -125zM268 702v-577h490q158 0 248 84q73 73 73 201q0 136 -86.5 214t-234.5 78h-490zM268 1343v-522h469q132 0 206.5 71
t74.5 193t-73.5 190t-203.5 68h-473z" />
    <glyph glyph-name="C" unicode="C" horiz-adv-x="1386" 
d="M733 -27q-302 0 -481 209q-178 208 -178 549t180 551q183 213 485 213q228 0 377.5 -118t186.5 -326h-136q-31 150 -145 237.5t-285 87.5q-249 0 -383 -180q-137 -180 -137 -465t137 -459q135 -178 381 -178q198 0 319 120.5t140 317.5h133q-12 -231 -151 -382
q-157 -177 -443 -177z" />
    <glyph glyph-name="D" unicode="D" horiz-adv-x="1351" 
d="M268 1343v-1222h365q250 0 376 156.5t126 449.5q0 616 -488 616h-379zM637 0h-506v1464h520q316 0 471 -198q156 -200 156 -539q0 -342 -165 -534.5t-476 -192.5z" />
    <glyph glyph-name="E" unicode="E" horiz-adv-x="1224" 
d="M1149 0h-1018v1464h995v-121h-858v-526h787v-119h-787v-571h881v-127z" />
    <glyph glyph-name="F" unicode="F" horiz-adv-x="1138" 
d="M268 0h-137v1464h954v-121h-817v-520h697v-118h-697v-705z" />
    <glyph glyph-name="G" unicode="G" horiz-adv-x="1478" 
d="M745 -29q-313 0 -491 211q-180 210 -180 549q0 335 184 549q186 213 508 213q232 0 385.5 -118t191.5 -335h-141q-32 160 -148 247t-288 87q-273 0 -410 -180q-139 -183 -139 -463q0 -279 139 -459q137 -180 392 -180q239 0 362 141q121 139 121 347v51h-471v121h606
v-752h-96l-29 233h-6q-170 -262 -490 -262z" />
    <glyph glyph-name="H" unicode="H" horiz-adv-x="1366" 
d="M268 0h-137v1464h137v-633h830v633h137v-1464h-137v717h-830v-717z" />
    <glyph glyph-name="I" unicode="I" horiz-adv-x="413" 
d="M274 0h-137v1464h137v-1464z" />
    <glyph glyph-name="J" unicode="J" horiz-adv-x="972" 
d="M459 -27q-414 0 -414 435v55h135v-49q0 -171 69 -247.5t214 -76.5q252 0 252 270v1104h137v-1114q0 -171 -102.5 -274t-290.5 -103z" />
    <glyph glyph-name="K" unicode="K" horiz-adv-x="1280" 
d="M268 0h-137v1464h137v-780l791 780h178l-612 -596l649 -868h-164l-580 774l-262 -258v-516z" />
    <glyph glyph-name="L" unicode="L" horiz-adv-x="1097" 
d="M1049 0h-918v1464h137v-1337h781v-127z" />
    <glyph glyph-name="M" unicode="M" horiz-adv-x="1644" 
d="M258 0h-127v1464h186l506 -1278h4l494 1278h192v-1464h-133v1276h-4q-67 -192 -69 -199l-424 -1077h-121l-428 1077l-72 199h-4v-1276z" />
    <glyph glyph-name="N" unicode="N" horiz-adv-x="1366" 
d="M262 0h-131v1464h150l673 -1028q84 -129 127 -207l19 -34h4v1269h131v-1464h-143l-672 1016l-154 248h-4v-1264z" />
    <glyph glyph-name="O" unicode="O" horiz-adv-x="1511" 
d="M754 94q255 0 399 182q141 181 141 457q0 277 -141 459q-143 180 -399 180t-396 -180q-141 -182 -141 -459q0 -275 141 -457t396 -182zM754 -29q-304 0 -492 215t-188 547t188 547t492 215q307 0 495 -215q189 -216 189 -547t-189 -547q-188 -215 -495 -215z" />
    <glyph glyph-name="P" unicode="P" horiz-adv-x="1200" 
d="M268 0h-137v1464h576q223 0 344 -127q102 -108 102 -282q0 -204 -118.5 -311t-346.5 -107h-420v-637zM268 1343v-589h410q336 0 336 297q0 141 -83 216.5t-241 75.5h-422z" />
    <glyph glyph-name="Q" unicode="Q" horiz-adv-x="1511" 
d="M754 94q148 0 258 64l-158 131l74 92l184 -150q182 173 182 502q0 277 -141 459q-143 180 -399 180t-396 -180q-141 -182 -141 -459q0 -275 141 -457t396 -182zM1405 -6l-76 -94l-213 174q-158 -103 -362 -103q-304 0 -492 215t-188 547t188 547t492 215q307 0 495 -215
q189 -216 189 -547q0 -368 -226 -583z" />
    <glyph glyph-name="R" unicode="R" horiz-adv-x="1292" 
d="M268 0h-137v1464h653q196 0 306 -105t110 -290q0 -276 -246 -352v-6q109 -36 156 -125t55 -264q12 -280 64 -314v-8h-148q-23 14 -32 78q-13 92 -21 250q-7 184 -77 254.5t-236 70.5h-447v-653zM268 1343v-573h469q157 0 239.5 74.5t82.5 212.5q0 144 -73 215t-230 71
h-488z" />
    <glyph glyph-name="S" unicode="S" horiz-adv-x="1226" 
d="M639 -27q-271 0 -425.5 135.5t-166.5 366.5h137q10 -184 130 -285.5t327 -101.5q169 0 272 81.5t103 225.5q0 145 -96 207q-96 60 -355 113q-120 23 -202 53t-142 75.5t-88.5 110t-28.5 152.5q0 171 136 280q134 107 354 107q230 0 362.5 -113.5t153.5 -314.5h-133
q-19 151 -119.5 232t-261.5 81q-165 0 -261.5 -72.5t-96.5 -195.5q0 -122 92 -178q86 -57 305 -98q112 -21 174.5 -38t130.5 -48q74 -34 117 -78q98 -102 98 -269q0 -194 -141 -311q-144 -117 -375 -117z" />
    <glyph glyph-name="T" unicode="T" horiz-adv-x="1204" 
d="M672 0h-137v1341h-496v123h1126v-123h-493v-1341z" />
    <glyph glyph-name="U" unicode="U" horiz-adv-x="1302" 
d="M647 -23q-252 0 -392 124t-140 364v999h137v-987q0 -381 401 -381q400 0 400 381v987h137v-999q0 -241 -143.5 -364.5t-399.5 -123.5z" />
    <glyph glyph-name="V" unicode="V" horiz-adv-x="1236" 
d="M690 0h-149l-525 1464h144l379 -1081l77 -242h5q57 193 79 248l381 1075h140z" />
    <glyph glyph-name="W" unicode="W" horiz-adv-x="1802" 
d="M559 0h-145l-389 1464h141l254 -987l67 -289h5q29 124 69 281l268 995h148l268 -993l68 -283h4q44 195 67 289l256 987h138l-398 -1464h-139l-278 1067l-58 238h-4q-25 -119 -55 -238z" />
    <glyph glyph-name="X" unicode="X" horiz-adv-x="1208" 
d="M180 0h-155l503 748l-475 716h158l399 -618h4l396 618h151l-473 -719l496 -745h-162l-416 647h-4z" />
    <glyph glyph-name="Y" unicode="Y" horiz-adv-x="1228" 
d="M682 0h-139v639l-529 825h152l446 -708h4l451 708h147l-532 -829v-635z" />
    <glyph glyph-name="Z" unicode="Z" horiz-adv-x="1214" 
d="M1147 0h-1094v133l895 1208v7h-839v116h1005v-116l-901 -1219v-6h934v-123z" />
    <glyph glyph-name="bracketleft" unicode="[" horiz-adv-x="589" 
d="M522 -242h-358v1786h358v-108h-227v-1565h227v-113z" />
    <glyph glyph-name="backslash" unicode="\" horiz-adv-x="780" 
d="M748 0h-134l-581 1464h133z" />
    <glyph glyph-name="bracketright" unicode="]" horiz-adv-x="589" 
d="M426 -242h-358v113h227v1565h-227v108h358v-1786z" />
    <glyph glyph-name="asciicircum" unicode="^" horiz-adv-x="839" 
d="M158 913h-133l321 551h148l321 -551h-135l-258 451h-4z" />
    <glyph glyph-name="underscore" unicode="_" horiz-adv-x="786" 
d="M791 -340h-795v100h795v-100z" />
    <glyph glyph-name="grave" unicode="`" 
d="M596 1212h-111l-192 261h168z" />
    <glyph glyph-name="a" unicode="a" horiz-adv-x="1021" 
d="M393 -25q-157 0 -251.5 77.5t-94.5 217.5q0 182 131 250q64 34 131.5 52t173.5 30q171 21 230 45q55 21 55 98v21q0 213 -254 213q-282 0 -297 -236h-125q11 161 119 249.5t303 88.5q375 0 375 -327v-576q0 -89 69 -92q15 0 48 8h6v-92q-40 -16 -86 -16q-147 0 -156 149
v23h-6q-130 -183 -371 -183zM416 78q166 0 260 94q94 91 94 211v190q-73 -41 -274 -69q-112 -13 -187 -41q-44 -14 -69 -39q-60 -56 -60 -154q0 -192 236 -192z" />
    <glyph glyph-name="b" unicode="b" horiz-adv-x="1085" 
d="M588 -29q-226 0 -350 189h-5v-160h-127v1464h127v-587h5q122 204 358 204q195 0 315 -147q121 -151 121 -408q0 -249 -119 -401q-121 -154 -325 -154zM582 78q152 0 236.5 122.5t84.5 323.5q0 205 -85.5 328t-237.5 123q-171 0 -263 -127q-94 -125 -94 -324
q0 -205 94.5 -325.5t264.5 -120.5z" />
    <glyph glyph-name="c" unicode="c" horiz-adv-x="1005" 
d="M532 -27q-226 0 -352 156q-129 156 -129 399q0 244 129 400q128 155 355 155q176 0 288 -91t138 -253h-127q-47 238 -299 238q-169 0 -261 -123.5t-92 -325.5t91 -324t259 -122q132 0 214 76t100 207h121q-19 -183 -134 -287.5t-301 -104.5z" />
    <glyph glyph-name="d" unicode="d" horiz-adv-x="1089" 
d="M508 -29q-210 0 -334 154q-123 153 -123 401q0 256 129 406q128 149 324 149q241 0 348 -198h4v581h127v-1464h-127v158h-4q-120 -187 -344 -187zM512 78q168 0 261 120.5t93 325.5q0 204 -94.5 327.5t-259.5 123.5q-152 0 -241 -123.5t-89 -327.5q0 -201 87 -323.5
t243 -122.5z" />
    <glyph glyph-name="e" unicode="e" horiz-adv-x="1040" 
d="M545 -27q-231 0 -363 156q-131 152 -131 399q0 243 133 400q131 155 351 155q99 0 177.5 -32t129.5 -85.5t85 -128.5t48 -156.5t14 -174.5h-807q5 -194 99.5 -309t263.5 -115q241 0 309 237h123q-36 -162 -148.5 -254t-283.5 -92zM184 606h672q-5 171 -87.5 272
t-233.5 101q-150 0 -241 -100.5t-110 -272.5z" />
    <glyph glyph-name="f" unicode="f" horiz-adv-x="550" 
d="M311 0h-125v954h-153v105h153v188q0 228 248 228q6 0 38 -1t34 -1v-109h-55q-76 0 -108 -29t-32 -92v-184h197v-105h-197v-954z" />
    <glyph glyph-name="g" unicode="g" horiz-adv-x="1079" 
d="M520 -371q-186 0 -298 76t-126 201h123q30 -172 297 -172q163 0 247.5 79t84.5 224v168h-6q-120 -185 -336 -185q-206 0 -330 148q-125 143 -125 381q0 248 131 391q132 141 324 141q223 0 336 -186h6v164h125v-1018q0 -177 -99 -285q-121 -127 -354 -127zM512 127
q169 0 256.5 112t87.5 312q0 198 -88.5 311t-253.5 113q-155 0 -243.5 -115.5t-88.5 -312.5q0 -193 86 -306.5t244 -113.5z" />
    <glyph glyph-name="h" unicode="h" horiz-adv-x="1034" 
d="M240 0h-127v1464h127v-567h4q126 184 354 184q154 0 246 -87.5t92 -241.5v-752h-127v739q0 234 -242 234q-136 0 -231 -86q-96 -87 -96 -215v-672z" />
    <glyph glyph-name="i" unicode="i" horiz-adv-x="346" 
d="M238 0h-127v1059h127v-1059zM238 1284h-127v180h127v-180z" />
    <glyph glyph-name="j" unicode="j" horiz-adv-x="346" 
d="M-41 -322v107h2q6 -2 35 -2q115 0 115 121v1155h127v-1161q0 -119 -56 -170.5t-170 -51.5q-47 0 -53 2zM238 1284h-127v180h127v-180z" />
    <glyph glyph-name="k" unicode="k" horiz-adv-x="974" 
d="M233 0h-127v1464h127v-915l527 510h162l-406 -383l455 -676h-148l-395 594l-195 -186v-408z" />
    <glyph glyph-name="l" unicode="l" horiz-adv-x="352" 
d="M240 0h-127v1464h127v-1464z" />
    <glyph glyph-name="m" unicode="m" horiz-adv-x="1605" 
d="M233 0h-127v1059h127v-160h5q114 182 321 182q101 0 177 -50.5t106 -141.5h4q110 192 340 192q142 0 230.5 -88t88.5 -241v-752h-125v741q0 113 -60 172.5t-163 59.5q-124 0 -205.5 -82.5t-81.5 -216.5v-674h-127v741q0 113 -57 172.5t-156 59.5q-117 0 -206 -86
q-91 -91 -91 -213v-674z" />
    <glyph glyph-name="n" unicode="n" horiz-adv-x="1028" 
d="M233 0h-127v1059h127v-162h5q126 184 354 184q154 0 246 -87.5t92 -241.5v-752h-127v739q0 234 -242 234q-136 0 -231 -86q-97 -88 -97 -215v-672z" />
    <glyph glyph-name="o" unicode="o" horiz-adv-x="1083" 
d="M543 80q169 0 264 127q94 125 94 321q0 197 -94 322q-95 127 -264 127q-172 0 -267 -127q-94 -125 -94 -322q0 -196 94 -321q95 -127 267 -127zM543 -27q-225 0 -359 158q-133 157 -133 397q0 243 133 400q131 155 359 155q225 0 356 -155t131 -400q0 -242 -131 -397
q-134 -158 -356 -158z" />
    <glyph glyph-name="p" unicode="p" horiz-adv-x="1085" 
d="M233 -340h-127v1399h127v-182h5q119 204 358 204q194 0 317 -147q121 -148 121 -406q0 -249 -119 -401q-121 -154 -327 -154q-227 0 -350 181h-5v-494zM582 80q156 0 239 127q84 128 84 319q0 205 -86 327t-239 122q-171 0 -263 -127q-94 -125 -94 -324
q0 -207 92.5 -325.5t266.5 -118.5z" />
    <glyph glyph-name="q" unicode="q" horiz-adv-x="1089" 
d="M983 -340h-127v498h-4q-126 -185 -346 -185q-209 0 -330 154q-121 151 -121 399q0 256 129 406q125 149 322 149q229 0 346 -190h4v168h127v-1399zM512 80q169 0 261.5 119t92.5 325t-92.5 328.5t-259.5 122.5q-154 0 -242 -123t-88 -328q0 -202 85.5 -323t242.5 -121z
" />
    <glyph glyph-name="r" unicode="r" horiz-adv-x="630" 
d="M233 0h-127v1059h127v-197h5q108 205 323 205q15 0 35 -4v-125q-122 20 -225 -51q-138 -102 -138 -285v-602z" />
    <glyph glyph-name="s" unicode="s" horiz-adv-x="923" 
d="M477 -29q-200 0 -313.5 97t-124.5 262h129q27 -250 311 -250q128 0 198.5 55t70.5 150q0 87 -58 127q-56 39 -225 77q-102 24 -157 43.5t-113 51.5q-117 64 -117 211q0 130 101.5 208t266.5 78q354 0 394 -313h-127q-21 209 -267 209q-116 0 -178.5 -48t-62.5 -128
q0 -84 65 -119q64 -37 238 -78q196 -42 278 -102q88 -64 88 -215q0 -143 -107.5 -229.5t-289.5 -86.5z" />
    <glyph glyph-name="t" unicode="t" horiz-adv-x="577" 
d="M397 -8q-202 0 -202 190v772h-160v105h160v325h127v-325h196v-105h-196v-751q0 -55 23.5 -78t78.5 -23q42 0 84 17h6v-109q-52 -18 -117 -18z" />
    <glyph glyph-name="u" unicode="u" horiz-adv-x="1013" 
d="M446 -25q-157 0 -252.5 90t-95.5 246v748h127v-740q0 -116 65 -176.5t185 -60.5q134 0 221 90q86 89 86 225v662h125v-1059h-125v156h-4q-67 -92 -143.5 -136.5t-188.5 -44.5z" />
    <glyph glyph-name="v" unicode="v" horiz-adv-x="933" 
d="M537 0h-150l-375 1059h135l228 -672l86 -268h4q36 115 88 268l238 672h129z" />
    <glyph glyph-name="w" unicode="w" horiz-adv-x="1456" 
d="M479 0h-143l-316 1059h134l184 -656l68 -276h4q46 192 67 266l180 666h138l174 -666l63 -266h4q38 155 74 276l197 656h129l-334 -1059h-139l-183 676l-55 239h-4q-23 -120 -55 -239z" />
    <glyph glyph-name="x" unicode="x" horiz-adv-x="985" 
d="M160 0h-144l398 559l-355 500h148l276 -408h4l277 408h143l-344 -490l406 -569h-150l-330 477h-4z" />
    <glyph glyph-name="y" unicode="y" horiz-adv-x="960" 
d="M217 -350q-52 0 -108 16v113h6q43 -15 96 -15q123 0 176 144l35 94l-408 1057h136l253 -684l84 -242h5q67 209 79 242l244 684h131l-436 -1170q-50 -134 -116 -186.5t-177 -52.5z" />
    <glyph glyph-name="z" unicode="z" horiz-adv-x="915" 
d="M864 0h-807v109l619 833v6h-578v111h748v-90l-631 -850v-6h649v-113z" />
    <glyph glyph-name="braceleft" unicode="{" horiz-adv-x="589" 
d="M504 -242h-37q-277 0 -277 285v418q0 73 -32 107.5t-109 35.5v111q77 1 109 34.5t32 106.5v406q0 147 69 214.5t208 67.5h37v-108h-33q-82 0 -115.5 -39t-33.5 -137v-412q0 -151 -115 -186v-5q115 -35 115 -186v-426q0 -98 33.5 -136t115.5 -38h33v-113z" />
    <glyph glyph-name="bar" unicode="|" horiz-adv-x="430" 
d="M272 -242h-114v1786h114v-1786z" />
    <glyph glyph-name="braceright" unicode="}" horiz-adv-x="589" 
d="M123 -242h-37v113h33q81 0 115 37.5t34 134.5v426q0 149 115 184v6q-115 35 -115 185v413q0 98 -34.5 138.5t-114.5 40.5h-33v108h37q276 0 276 -284v-406q0 -73 32 -106.5t110 -34.5v-113q-77 -1 -109.5 -34.5t-32.5 -106.5v-418q0 -147 -68.5 -215t-207.5 -68z" />
    <glyph glyph-name="asciitilde" unicode="~" horiz-adv-x="788" 
d="M532 575q-57 0 -145 48q-109 53 -129 53q-68 0 -74 -98h-108q6 101 55 159t125 58q64 0 158 -58q76 -43 110 -43q75 0 78 97h109q-5 -100 -52.5 -158t-126.5 -58z" />
    <glyph glyph-name="uni00A0" unicode="&#xa0;" horiz-adv-x="307" 
 />
    <glyph glyph-name="exclamdown" unicode="&#xa1;" horiz-adv-x="434" 
d="M287 -260h-140v469l31 641h80l29 -641v-469zM295 1026h-156v178h156v-178z" />
    <glyph glyph-name="cent" unicode="&#xa2;" horiz-adv-x="1013" 
d="M578 -174h-95v149q-200 21 -315 172t-115 381q0 228 115 379t315 172v131h95v-129q158 -11 259 -100.5t124 -241.5h-125q-44 216 -258 234v-889q115 12 185.5 87t82.5 194h123q-19 -173 -122 -276.5t-269 -113.5v-149zM483 84v889q-145 -18 -223 -139t-78 -306t78 -305.5
t223 -138.5z" />
    <glyph glyph-name="sterling" unicode="&#xa3;" horiz-adv-x="1095" 
d="M758 -23q-96 0 -209 52q-111 51 -191 51q-88 0 -213 -88l-75 108q211 150 211 365q0 76 -33 166h-170v104h135q-72 182 -72 299q0 171 117 285q116 113 324 113q188 0 311 -117q122 -116 125 -330h-127q-1 164 -88 250t-228 86q-142 0 -221.5 -77.5t-79.5 -211.5
q0 -63 33 -174q23 -79 43 -123h328v-104h-295q20 -90 20 -146q0 -206 -153 -335l2 -5q78 37 151 37q76 0 189 -43q107 -45 172 -45q102 0 213 99l74 -93q-138 -123 -293 -123z" />
    <glyph glyph-name="currency" unicode="&#xa4;" horiz-adv-x="995" 
d="M250 381l-144 -152l-71 72l145 154q-76 110 -76 262q0 149 76 256l-145 155l71 70l142 -149q107 84 250 84q140 0 247 -84l144 149l72 -70l-146 -153q74 -109 74 -258q0 -152 -76 -262l148 -154l-72 -72l-146 152q-101 -82 -245 -82q-147 0 -248 82zM301 492
q72 -91 197 -91q124 0 196 91q70 88 70 225q0 139 -72 227t-194 88q-125 0 -197 -87.5t-72 -227.5q0 -135 72 -225z" />
    <glyph glyph-name="yen" unicode="&#xa5;" horiz-adv-x="1112" 
d="M621 0h-129v330h-371v94h371v149h-371v95h346l-444 737h149l383 -668h4l389 668h142l-445 -737h346v-95h-370v-149h370v-94h-370v-330z" />
    <glyph glyph-name="brokenbar" unicode="&#xa6;" horiz-adv-x="430" 
d="M272 -242h-114v842h114v-842zM272 735h-114v809h114v-809z" />
    <glyph glyph-name="section" unicode="&#xa7;" horiz-adv-x="1150" 
d="M594 -377q-196 0 -309 113q-118 115 -121 276h133q8 -128 85.5 -200t213.5 -72q108 0 163.5 45.5t55.5 130.5q0 74 -57 125q-66 56 -223 145q-37 22 -54 31q-53 29 -143 84q-40 23 -113 78q-68 49 -94 84q-74 88 -74 196q0 206 230 279q-78 84 -78 190q0 137 99 221.5
t263 84.5q174 0 277.5 -97.5t114.5 -261.5h-134q-7 116 -75.5 179t-186.5 63q-106 0 -164.5 -50t-58.5 -132q0 -47 18 -82.5t68 -71.5q57 -44 90 -61q56 -33 142 -80q26 -14 52.5 -28.5t51.5 -28t35 -19.5q47 -25 114 -74q71 -51 99 -84q80 -100 80 -209q0 -214 -232 -282
q88 -91 88 -197q0 -134 -95.5 -214.5t-260.5 -80.5zM782 182q181 49 181 211q0 69 -56 137q-22 25 -78 64q-78 50 -94 59q-57 30 -131 72q-182 102 -235 141q-181 -40 -181 -196q0 -95 70 -156q61 -56 277 -180q193 -111 247 -152z" />
    <glyph glyph-name="dieresis" unicode="&#xa8;" horiz-adv-x="1048" 
d="M426 1284h-123v176h123v-176zM745 1284h-122v176h122v-176z" />
    <glyph glyph-name="copyright" unicode="&#xa9;" horiz-adv-x="1662" 
d="M836 254q-188 0 -306 133q-116 131 -116 340q0 211 114 346t312 135q147 0 242.5 -78.5t119.5 -211.5h-125q-18 86 -79 135t-158 49q-140 0 -219.5 -103t-79.5 -272q0 -166 80 -267.5t215 -101.5q109 0 177 64t79 170h120q-6 -140 -98 -232q-100 -106 -278 -106zM360 233
q187 -196 471 -196q287 0 474 196q186 195 186 494q0 301 -186 496q-187 196 -474 196q-284 0 -471 -196q-188 -197 -188 -496q0 -297 188 -494zM1364 182q-214 -217 -533 -217q-318 0 -532 217q-215 218 -215 545q0 329 215 547q214 217 532 217q319 0 533 -217
q215 -218 215 -547q0 -327 -215 -545z" />
    <glyph glyph-name="ordfeminine" unicode="&#xaa;" horiz-adv-x="962" 
d="M391 467q-138 0 -225.5 71t-87.5 193q0 155 117 217q56 30 115.5 44.5t156.5 25.5q144 12 192 36t48 89v14q0 180 -211 180q-231 0 -252 -202h-119q12 139 108 219t261 80q331 0 331 -291v-484q0 -86 66 -86q16 0 43 9h6v-90q-40 -15 -82 -15q-140 0 -149 139v9h-4
q-115 -158 -314 -158zM412 565q142 0 219 80q78 78 78 180v156q-70 -38 -234 -57q-150 -18 -209 -56.5t-59 -136.5q0 -84 55 -125t150 -41z" />
    <glyph glyph-name="guillemotleft" unicode="&#xab;" horiz-adv-x="841" 
d="M379 389v-141l-264 231v154l264 231v-141l-191 -166v-4zM727 389v-141l-264 231v154l264 231v-141l-190 -166v-4z" />
    <glyph glyph-name="logicalnot" unicode="&#xac;" horiz-adv-x="1085" 
d="M924 285h-115v389h-688v108h803v-497z" />
    <glyph glyph-name="uni00AD" unicode="&#xad;" horiz-adv-x="667" 
d="M596 516h-524v115h524v-115z" />
    <glyph glyph-name="registered" unicode="&#xae;" horiz-adv-x="1081" 
d="M440 737h-90v531h242q73 0 118.5 -41t45.5 -107q0 -100 -99 -127v-2q76 -21 82 -114q2 -18 4 -42.5t3 -37.5t3 -26.5t5 -20.5t8 -9v-4h-88q-14 6 -23 121q-3 100 -104 100h-107v-221zM440 1194v-166h131q95 0 95 82q0 84 -93 84h-133zM248 686q115 -121 293 -121t293 121
q114 120 114 309q0 187 -114 310q-114 120 -293 120t-293 -120q-115 -124 -115 -310q0 -188 115 -309zM887 641q-141 -141 -346 -141q-206 0 -344 141q-142 142 -142 354q0 213 142 355q138 141 344 141q205 0 346 -141q139 -142 139 -355q0 -212 -139 -354z" />
    <glyph glyph-name="overscore" unicode="&#xaf;" 
d="M766 1284h-508v115h508v-115z" />
    <glyph glyph-name="degree" unicode="&#xb0;" horiz-adv-x="651" 
d="M326 1024q67 0 107 44.5t40 117.5q0 70 -41 116t-106 46t-106.5 -46t-41.5 -116q0 -72 41 -117t107 -45zM326 940q-102 0 -174 72q-74 71 -74 174q0 102 74 176q72 72 174 72q104 0 176 -72q71 -74 71 -176q0 -103 -71.5 -174.5t-175.5 -71.5z" />
    <glyph glyph-name="plusminus" unicode="&#xb1;" horiz-adv-x="1085" 
d="M600 272h-115v369h-372v111h372v364h115v-364h373v-111h-373v-369zM973 0h-860v109h860v-109z" />
    <glyph glyph-name="twosuperior" unicode="&#xb2;" horiz-adv-x="694" 
d="M627 578h-570q3 137 88 225q39 40 71.5 65.5t94.5 67.5q9 5 51.5 33.5t49.5 34.5q12 9 39 30q32 28 44 55.5t17 77.5q0 73 -42 114.5t-112 41.5q-80 0 -125.5 -50.5t-46.5 -146.5h-108q0 139 76 216t208 77q120 0 194.5 -71.5t74.5 -178.5q0 -77 -45 -151
q-10 -16 -58 -57q-39 -31 -59 -43q-4 -3 -13.5 -9t-26.5 -17t-30 -20q-10 -6 -33.5 -20.5t-30.5 -19t-23 -15t-24 -18t-20 -18.5t-24 -25q-38 -41 -47 -82h430v-96z" />
    <glyph glyph-name="threesuperior" unicode="&#xb3;" horiz-adv-x="716" 
d="M362 559q-141 0 -226 77t-85 206h113q5 -91 53.5 -139t138.5 -48q86 0 133.5 42.5t47.5 117.5q0 73 -48.5 113.5t-136.5 40.5h-55v90h53q75 0 117.5 36t42.5 99q0 62 -42 99.5t-110 37.5q-78 0 -123 -48.5t-47 -129.5h-110q2 122 77 194t205 72q118 0 191.5 -61
t73.5 -160q0 -130 -129 -176v-4q159 -44 159 -211q0 -115 -81.5 -181.5t-211.5 -66.5z" />
    <glyph glyph-name="acute" unicode="&#xb4;" 
d="M539 1212h-111l135 261h168z" />
    <glyph glyph-name="mu" unicode="&#xb5;" horiz-adv-x="1021" 
d="M233 -340h-127v1399h127v-740q0 -116 65 -176.5t185 -60.5q132 0 219 90q86 89 86 225v662h127v-1059h-127v156h-4q-65 -92 -141 -136.5t-186 -44.5q-148 0 -219 95h-5v-410z" />
    <glyph glyph-name="paragraph" unicode="&#xb6;" horiz-adv-x="1046" 
d="M643 0h-123v758h-67q-191 0 -292.5 93.5t-101.5 264.5q0 151 101 252q90 96 278 96h477v-1464h-124v1339h-148v-1339z" />
    <glyph glyph-name="middot" unicode="&#xb7;" horiz-adv-x="327" 
d="M244 549h-156v178h156v-178z" />
    <glyph glyph-name="cedilla" unicode="&#xb8;" 
d="M457 -383q-119 0 -199 51l31 56q73 -29 141 -29q117 0 117 72q0 57 -84 57q-44 0 -82 -14l-29 47l146 143h104l-117 -102v-4q72 6 123 -28t51 -99q0 -71 -54.5 -110.5t-147.5 -39.5z" />
    <glyph glyph-name="onesuperior" unicode="&#xb9;" horiz-adv-x="493" 
d="M362 578h-114v598h-191v79q96 2 147.5 38t63.5 116h94v-831z" />
    <glyph glyph-name="ordmasculine" unicode="&#xba;" horiz-adv-x="980" 
d="M266 674q80 -109 226 -109q145 0 225 109q78 110 78 274q0 174 -80 280.5t-223 106.5q-146 0 -226 -108q-80 -112 -80 -279q0 -165 80 -274zM492 463q-200 0 -316 137q-117 138 -117 348t117 348t316 138q196 0 313 -138t117 -348t-117 -348q-116 -137 -313 -137z" />
    <glyph glyph-name="guillemotright" unicode="&#xbb;" horiz-adv-x="841" 
d="M379 479l-264 -231v141l190 166v4l-190 164v141l264 -231v-154zM727 479l-264 -231v141l190 166v4l-190 164v141l264 -231v-154z" />
    <glyph glyph-name="onequarter" unicode="&#xbc;" horiz-adv-x="1503" 
d="M1317 0h-111v199h-395v112l397 525h109v-547h127v-90h-127v-199zM909 293v-4h297v387h-4zM373 639h-117v598h-188v80q96 2 146 37.5t62 115.5h97v-831zM283 0h-125l1001 1464h123z" />
    <glyph glyph-name="onehalf" unicode="&#xbd;" horiz-adv-x="1570" 
d="M1495 0h-571q3 137 88 225q40 43 73.5 70t92.5 65q1 1 39 25.5t40 26.5t17.5 12t30 20.5t18.5 14.5q40 50 43 57q14 42 14 74q0 73 -41.5 114t-111.5 41q-80 0 -125.5 -50.5t-46.5 -143.5h-111q0 138 77.5 214.5t209.5 76.5q117 0 192.5 -71.5t75.5 -178.5t-67 -174
q-43 -40 -64 -53q-35 -26 -82 -54q-4 -2 -11.5 -7.5t-10.5 -6.5q-9 -5 -33.5 -20.5t-30.5 -19.5t-23 -15t-24.5 -18t-20 -18.5t-24.5 -25.5q-38 -41 -47 -84h434v-96zM373 639h-117v598h-188v80q96 2 146 37.5t62 115.5h97v-831zM262 0h-125l1002 1464h123z" />
    <glyph glyph-name="threequarters" unicode="&#xbe;" horiz-adv-x="1638" 
d="M371 621q-140 0 -225.5 77t-84.5 205h111q9 -186 195 -186q86 0 133 42.5t47 117.5q0 73 -48.5 113t-136.5 40h-55v90h53q75 0 117.5 36t42.5 99t-41.5 100.5t-109.5 37.5q-78 0 -122.5 -48t-49.5 -131h-109q2 122 77.5 194.5t205.5 72.5q116 0 189 -61t73 -160
q0 -130 -129 -177v-4q162 -43 162 -211q0 -115 -81.5 -181t-213.5 -66zM1452 0h-111v199h-395v112l397 525h109v-547h127v-90h-127v-199zM1044 293v-4h297v387h-4zM434 0h-125l1002 1464h123z" />
    <glyph glyph-name="questiondown" unicode="&#xbf;" horiz-adv-x="1017" 
d="M498 -287q-188 0 -301 107t-113 268q0 85 34.5 164t74.5 119q34 33 104 92q116 98 154 170q35 66 38 217h123q-3 -176 -47 -262q-48 -94 -164 -193q-44 -36 -69 -61q-13 -13 -53 -60q-60 -74 -60 -184q0 -117 78 -189.5t207 -72.5q151 0 238 93.5t92 250.5h129
q-3 -195 -121 -328q-116 -131 -344 -131zM629 1026h-156v178h156v-178z" />
    <glyph glyph-name="Agrave" unicode="&#xc0;" horiz-adv-x="1298" 
d="M156 0h-140l553 1464h156l557 -1464h-147l-170 461h-637zM573 1120l-204 -547h555l-201 547l-74 213h-4q-52 -161 -72 -213zM723 1542h-111l-192 234h168z" />
    <glyph glyph-name="Aacute" unicode="&#xc1;" horiz-adv-x="1298" 
d="M156 0h-140l553 1464h156l557 -1464h-147l-170 461h-637zM573 1120l-204 -547h555l-201 547l-74 213h-4q-52 -161 -72 -213zM690 1542h-110l135 234h168z" />
    <glyph glyph-name="Acircumflex" unicode="&#xc2;" horiz-adv-x="1298" 
d="M156 0h-140l553 1464h156l557 -1464h-147l-170 461h-637zM573 1120l-204 -547h555l-201 547l-74 213h-4q-52 -161 -72 -213zM522 1544h-139l192 211h152l188 -211h-143l-123 139h-4z" />
    <glyph glyph-name="Atilde" unicode="&#xc3;" horiz-adv-x="1298" 
d="M156 0h-140l553 1464h156l557 -1464h-147l-170 461h-637zM573 1120l-204 -547h555l-201 547l-74 213h-4q-52 -161 -72 -213zM774 1556q-49 0 -133 41q-79 39 -109 39q-24 0 -40 -20t-17 -55h-100q15 178 151 178q54 0 131 -39q74 -39 107 -39q57 0 63 74h99
q-5 -83 -45 -131t-107 -48z" />
    <glyph glyph-name="Adieresis" unicode="&#xc4;" horiz-adv-x="1298" 
d="M156 0h-140l553 1464h156l557 -1464h-147l-170 461h-637zM573 1120l-204 -547h555l-201 547l-74 213h-4q-52 -161 -72 -213zM551 1550h-123v176h123v-176zM870 1550h-122v176h122v-176z" />
    <glyph glyph-name="Aring" unicode="&#xc5;" horiz-adv-x="1298" 
d="M156 0h-140l553 1464h156l557 -1464h-147l-170 461h-637zM573 1120l-204 -547h555l-201 547l-74 213h-4q-52 -161 -72 -213zM580 1622q28 -31 70.5 -31t70.5 31t28 76t-28 76q-28 29 -70.5 29t-70.5 -29q-28 -31 -28 -76t28 -76zM776 1575q-52 -51 -126 -51t-126 51
t-52 123t52 123t125.5 51t126.5 -51q52 -51 52 -123t-52 -123z" />
    <glyph glyph-name="AE" unicode="&#xc6;" horiz-adv-x="1935" 
d="M162 0h-139l577 1464h1239v-121h-774v-526h700v-119h-700v-571h797v-127h-934v461h-586zM688 1343l-303 -770h543v770h-240z" />
    <glyph glyph-name="Ccedilla" unicode="&#xc7;" horiz-adv-x="1386" 
d="M672 -383q-119 0 -199 51l31 56q72 -29 141 -29q117 0 117 72q0 57 -84 57q-44 0 -82 -14l-29 47l119 118q-280 15 -446 224q-166 205 -166 532q0 341 180 551q183 213 485 213q228 0 377.5 -118t186.5 -326h-136q-31 150 -145 237.5t-285 87.5q-249 0 -383 -180
q-137 -180 -137 -465t137 -459q135 -178 381 -178q198 0 319 120.5t140 317.5h133q-12 -231 -151 -382q-139 -157 -388 -175l-88 -77v-4q72 6 123 -28t51 -99q0 -71 -54.5 -110.5t-147.5 -39.5z" />
    <glyph glyph-name="Egrave" unicode="&#xc8;" horiz-adv-x="1224" 
d="M727 1542h-111l-192 234h168zM1149 0h-1018v1464h995v-121h-858v-526h787v-119h-787v-571h881v-127z" />
    <glyph glyph-name="Eacute" unicode="&#xc9;" horiz-adv-x="1224" 
d="M692 1542h-110l135 234h168zM1149 0h-1018v1464h995v-121h-858v-526h787v-119h-787v-571h881v-127z" />
    <glyph glyph-name="Ecircumflex" unicode="&#xca;" horiz-adv-x="1224" 
d="M1149 0h-1018v1464h995v-121h-858v-526h787v-119h-787v-571h881v-127zM526 1544h-139l193 211h151l189 -211h-144l-123 139h-4z" />
    <glyph glyph-name="Edieresis" unicode="&#xcb;" horiz-adv-x="1224" 
d="M555 1550h-123v176h123v-176zM874 1550h-122v176h122v-176zM1149 0h-1018v1464h995v-121h-858v-526h787v-119h-787v-571h881v-127z" />
    <glyph glyph-name="Igrave" unicode="&#xcc;" horiz-adv-x="413" 
d="M274 0h-137v1464h137v-1464zM272 1542h-110l-193 234h168z" />
    <glyph glyph-name="Iacute" unicode="&#xcd;" horiz-adv-x="413" 
d="M274 0h-137v1464h137v-1464zM258 1542h-111l136 234h168z" />
    <glyph glyph-name="Icircumflex" unicode="&#xce;" horiz-adv-x="413" 
d="M274 0h-137v1464h137v-1464zM80 1544h-139l192 211h152l188 -211h-143l-123 139h-4z" />
    <glyph glyph-name="Idieresis" unicode="&#xcf;" horiz-adv-x="413" 
d="M274 0h-137v1464h137v-1464zM109 1550h-123v176h123v-176zM428 1550h-123v176h123v-176z" />
    <glyph glyph-name="Eth" unicode="&#xd0;" horiz-adv-x="1380" 
d="M291 676v-555h362q252 0 378 156.5t126 449.5q0 616 -489 616h-377v-550h485v-117h-485zM657 0h-505v676h-146v117h146v671h520q316 0 471 -198t155 -539q0 -342 -165 -534.5t-476 -192.5z" />
    <glyph glyph-name="Ntilde" unicode="&#xd1;" horiz-adv-x="1366" 
d="M842 1556q-49 0 -133 41q-79 39 -109 39q-24 0 -40 -20t-17 -55h-101q15 178 152 178q54 0 131 -39q74 -39 106 -39q58 0 64 74h98q-5 -83 -44.5 -131t-106.5 -48zM262 0h-131v1464h150l673 -1028q84 -129 127 -207l19 -34h4v1269h131v-1464h-143l-672 1016l-154 248h-4
v-1264z" />
    <glyph glyph-name="Ograve" unicode="&#xd2;" horiz-adv-x="1511" 
d="M834 1542h-111l-193 234h168zM754 94q255 0 399 182q141 181 141 457q0 277 -141 459q-143 180 -399 180t-396 -180q-141 -182 -141 -459q0 -275 141 -457t396 -182zM754 -29q-304 0 -492 215t-188 547t188 547t492 215q307 0 495 -215q189 -216 189 -547t-189 -547
q-188 -215 -495 -215z" />
    <glyph glyph-name="Oacute" unicode="&#xd3;" horiz-adv-x="1511" 
d="M791 1542h-111l135 234h168zM754 94q255 0 399 182q141 181 141 457q0 277 -141 459q-143 180 -399 180t-396 -180q-141 -182 -141 -459q0 -275 141 -457t396 -182zM754 -29q-304 0 -492 215t-188 547t188 547t492 215q307 0 495 -215q189 -216 189 -547t-189 -547
q-188 -215 -495 -215z" />
    <glyph glyph-name="Ocircumflex" unicode="&#xd4;" horiz-adv-x="1511" 
d="M754 94q255 0 399 182q141 181 141 457q0 277 -141 459q-143 180 -399 180t-396 -180q-141 -182 -141 -459q0 -275 141 -457t396 -182zM754 -29q-304 0 -492 215t-188 547t188 547t492 215q307 0 495 -215q189 -216 189 -547t-189 -547q-188 -215 -495 -215zM629 1544
h-140l193 211h152l188 -211h-143l-123 139h-4z" />
    <glyph glyph-name="Otilde" unicode="&#xd5;" horiz-adv-x="1511" 
d="M881 1556q-49 0 -133 41q-79 39 -109 39q-24 0 -40 -20t-17 -55h-101q15 178 152 178q54 0 131 -39q74 -39 106 -39q58 0 64 74h98q-5 -83 -44.5 -131t-106.5 -48zM754 94q255 0 399 182q141 181 141 457q0 277 -141 459q-143 180 -399 180t-396 -180
q-141 -182 -141 -459q0 -275 141 -457t396 -182zM754 -29q-304 0 -492 215t-188 547t188 547t492 215q307 0 495 -215q189 -216 189 -547t-189 -547q-188 -215 -495 -215z" />
    <glyph glyph-name="Odieresis" unicode="&#xd6;" horiz-adv-x="1511" 
d="M657 1550h-122v176h122v-176zM977 1550h-123v176h123v-176zM754 94q255 0 399 182q141 181 141 457q0 277 -141 459q-143 180 -399 180t-396 -180q-141 -182 -141 -459q0 -275 141 -457t396 -182zM754 -29q-304 0 -492 215t-188 547t188 547t492 215q307 0 495 -215
q189 -216 189 -547t-189 -547q-188 -215 -495 -215z" />
    <glyph glyph-name="multiply" unicode="&#xd7;" horiz-adv-x="1081" 
d="M541 588l-310 -316l-75 76l311 318l-311 317l75 74l310 -316l309 316l76 -74l-310 -317l310 -318l-76 -76z" />
    <glyph glyph-name="Oslash" unicode="&#xd8;" horiz-adv-x="1511" 
d="M293 152l-168 -185l-68 62l174 192q-157 210 -157 512q0 332 188 547t492 215q278 0 467 -186l165 184l68 -61l-172 -191q156 -212 156 -508q0 -331 -189 -547q-188 -215 -495 -215q-277 0 -461 181zM324 322l809 890q-145 160 -379 160q-256 0 -396 -180
q-141 -182 -141 -459q0 -249 107 -411zM754 94q255 0 399 182q141 181 141 457q0 248 -106 408l-809 -893q151 -154 375 -154z" />
    <glyph glyph-name="Ugrave" unicode="&#xd9;" horiz-adv-x="1302" 
d="M725 1542h-111l-192 234h168zM647 -23q-252 0 -392 124t-140 364v999h137v-987q0 -381 401 -381q400 0 400 381v987h137v-999q0 -241 -143.5 -364.5t-399.5 -123.5z" />
    <glyph glyph-name="Uacute" unicode="&#xda;" horiz-adv-x="1302" 
d="M690 1542h-110l135 234h168zM647 -23q-252 0 -392 124t-140 364v999h137v-987q0 -381 401 -381q400 0 400 381v987h137v-999q0 -241 -143.5 -364.5t-399.5 -123.5z" />
    <glyph glyph-name="Ucircumflex" unicode="&#xdb;" horiz-adv-x="1302" 
d="M647 -23q-252 0 -392 124t-140 364v999h137v-987q0 -381 401 -381q400 0 400 381v987h137v-999q0 -241 -143.5 -364.5t-399.5 -123.5zM524 1544h-139l193 211h151l189 -211h-144l-123 139h-4z" />
    <glyph glyph-name="Udieresis" unicode="&#xdc;" horiz-adv-x="1302" 
d="M553 1550h-123v176h123v-176zM872 1550h-122v176h122v-176zM647 -23q-252 0 -392 124t-140 364v999h137v-987q0 -381 401 -381q400 0 400 381v987h137v-999q0 -241 -143.5 -364.5t-399.5 -123.5z" />
    <glyph glyph-name="Yacute" unicode="&#xdd;" horiz-adv-x="1228" 
d="M682 0h-139v639l-529 825h152l446 -708h4l451 708h147l-532 -829v-635zM653 1542h-110l135 234h168z" />
    <glyph glyph-name="Thorn" unicode="&#xde;" horiz-adv-x="1202" 
d="M268 0h-137v1464h137v-274h439q225 0 344 -125q102 -108 102 -283q0 -204 -118.5 -310.5t-346.5 -106.5h-420v-365zM268 1069v-588h410q336 0 336 297q0 141 -83 216t-241 75h-422z" />
    <glyph glyph-name="germandbls" unicode="&#xdf;" horiz-adv-x="989" 
d="M502 -14q-64 0 -113 12v104h4q65 -10 105 -10q143 5 225 91.5t82 238.5q0 162 -84.5 253t-241.5 91h-76v100h82q117 0 184.5 72.5t67.5 191.5q0 111 -67 178.5t-181 67.5q-119 0 -187.5 -72t-68.5 -196v-1108h-127v1114q0 167 104.5 267t281.5 100q163 0 268 -99
q104 -98 104 -247q0 -229 -209 -306v-4q132 -42 206.5 -143.5t74.5 -253.5q0 -209 -117 -325.5t-317 -116.5z" />
    <glyph glyph-name="agrave" unicode="&#xe0;" horiz-adv-x="1021" 
d="M393 -25q-157 0 -251.5 77.5t-94.5 217.5q0 182 131 250q64 34 131.5 52t173.5 30q171 21 230 45q55 21 55 98v21q0 213 -254 213q-282 0 -297 -236h-125q11 161 119 249.5t303 88.5q375 0 375 -327v-576q0 -89 69 -92q15 0 48 8h6v-92q-40 -16 -86 -16q-147 0 -156 149
v23h-6q-130 -183 -371 -183zM416 78q166 0 260 94q94 91 94 211v190q-73 -41 -274 -69q-112 -13 -187 -41q-44 -14 -69 -39q-60 -56 -60 -154q0 -192 236 -192zM598 1212h-111l-192 261h168z" />
    <glyph glyph-name="aacute" unicode="&#xe1;" horiz-adv-x="1021" 
d="M393 -25q-157 0 -251.5 77.5t-94.5 217.5q0 182 131 250q64 34 131.5 52t173.5 30q171 21 230 45q55 21 55 98v21q0 213 -254 213q-282 0 -297 -236h-125q11 161 119 249.5t303 88.5q375 0 375 -327v-576q0 -89 69 -92q15 0 48 8h6v-92q-40 -16 -86 -16q-147 0 -156 149
v23h-6q-130 -183 -371 -183zM416 78q166 0 260 94q94 91 94 211v190q-73 -41 -274 -69q-112 -13 -187 -41q-44 -14 -69 -39q-60 -56 -60 -154q0 -192 236 -192zM551 1212h-111l135 261h168z" />
    <glyph glyph-name="acircumflex" unicode="&#xe2;" horiz-adv-x="1021" 
d="M393 -25q-157 0 -251.5 77.5t-94.5 217.5q0 182 131 250q64 34 131.5 52t173.5 30q171 21 230 45q55 21 55 98v21q0 213 -254 213q-282 0 -297 -236h-125q11 161 119 249.5t303 88.5q375 0 375 -327v-576q0 -89 69 -92q15 0 48 8h6v-92q-40 -16 -86 -16q-147 0 -156 149
v23h-6q-130 -183 -371 -183zM416 78q166 0 260 94q94 91 94 211v190q-73 -41 -274 -69q-112 -13 -187 -41q-44 -14 -69 -39q-60 -56 -60 -154q0 -192 236 -192zM403 1221h-135l174 217h152l170 -217h-141l-107 145h-4z" />
    <glyph glyph-name="atilde" unicode="&#xe3;" horiz-adv-x="1021" 
d="M393 -25q-157 0 -251.5 77.5t-94.5 217.5q0 182 131 250q64 34 131.5 52t173.5 30q171 21 230 45q55 21 55 98v21q0 213 -254 213q-282 0 -297 -236h-125q11 161 119 249.5t303 88.5q375 0 375 -327v-576q0 -89 69 -92q15 0 48 8h6v-92q-40 -16 -86 -16q-147 0 -156 149
v23h-6q-130 -183 -371 -183zM416 78q166 0 260 94q94 91 94 211v190q-73 -41 -274 -69q-112 -13 -187 -41q-44 -14 -69 -39q-60 -56 -60 -154q0 -192 236 -192zM641 1229q-49 0 -133 41q-79 39 -109 39q-24 0 -40 -20.5t-17 -55.5h-100q15 180 151 180q54 0 131 -39
q77 -41 107 -41q57 0 63 76h99q-5 -85 -45 -132.5t-107 -47.5z" />
    <glyph glyph-name="adieresis" unicode="&#xe4;" horiz-adv-x="1021" 
d="M393 -25q-157 0 -251.5 77.5t-94.5 217.5q0 182 131 250q64 34 131.5 52t173.5 30q171 21 230 45q55 21 55 98v21q0 213 -254 213q-282 0 -297 -236h-125q11 161 119 249.5t303 88.5q375 0 375 -327v-576q0 -89 69 -92q15 0 48 8h6v-92q-40 -16 -86 -16q-147 0 -156 149
v23h-6q-130 -183 -371 -183zM416 78q166 0 260 94q94 91 94 211v190q-73 -41 -274 -69q-112 -13 -187 -41q-44 -14 -69 -39q-60 -56 -60 -154q0 -192 236 -192zM420 1284h-123v176h123v-176zM739 1284h-123v176h123v-176z" />
    <glyph glyph-name="aring" unicode="&#xe5;" horiz-adv-x="1021" 
d="M393 -25q-157 0 -251.5 77.5t-94.5 217.5q0 182 131 250q64 34 131.5 52t173.5 30q171 21 230 45q55 21 55 98v21q0 213 -254 213q-282 0 -297 -236h-125q11 161 119 249.5t303 88.5q375 0 375 -327v-576q0 -89 69 -92q15 0 48 8h6v-92q-40 -16 -86 -16q-147 0 -156 149
v23h-6q-130 -183 -371 -183zM416 78q166 0 260 94q94 91 94 211v190q-73 -41 -274 -69q-112 -13 -187 -41q-44 -14 -69 -39q-60 -56 -60 -154q0 -192 236 -192zM449 1266q28 -31 70.5 -31t70.5 31q28 29 28 73.5t-28 75.5q-28 29 -70.5 29t-70.5 -29q-28 -31 -28 -75.5
t28 -73.5zM645 1217q-53 -51 -126.5 -51t-125.5 51q-53 51 -53 122.5t53 122.5q52 51 125.5 51t126.5 -51t53 -122.5t-53 -122.5z" />
    <glyph glyph-name="ae" unicode="&#xe6;" horiz-adv-x="1724" 
d="M412 -25q-163 0 -264 80.5t-101 220.5q0 182 133 248q64 33 131 49t174 27q169 18 228 45q55 24 55 100v17q0 217 -250 217q-269 0 -293 -236h-125q18 161 124 249.5t294 88.5q280 0 344 -204q120 206 369 206q159 0 268 -92q177 -146 174 -485h-782q5 -196 95.5 -310
t258.5 -114q229 0 293 237h123q-31 -161 -140.5 -253.5t-275.5 -92.5q-283 0 -405 236h-4q-72 -123 -173 -178.5t-251 -55.5zM430 78q159 0 250 94q90 93 90 211v184q-84 -44 -276 -65q-85 -8 -131.5 -18t-92.5 -33q-48 -24 -69 -66.5t-21 -110.5q0 -99 67 -147.5t183 -48.5
zM895 606h645q-5 171 -84.5 272t-224.5 101q-148 0 -233 -100t-103 -273z" />
    <glyph glyph-name="ccedilla" unicode="&#xe7;" horiz-adv-x="1005" 
d="M465 -383q-119 0 -199 51l31 56q73 -29 141 -29q117 0 117 72q0 57 -84 57q-44 0 -82 -14l-29 47l121 120q-199 18 -315 170q-115 151 -115 381q0 244 129 400q128 155 355 155q176 0 288 -91t138 -253h-127q-47 238 -299 238q-169 0 -261 -123.5t-92 -325.5t91 -324
t259 -122q132 0 214 76t100 207h121q-17 -169 -118.5 -273t-266.5 -117l-88 -77v-4q72 6 123 -28t51 -99q0 -71 -54.5 -110.5t-148.5 -39.5z" />
    <glyph glyph-name="egrave" unicode="&#xe8;" horiz-adv-x="1040" 
d="M545 -27q-231 0 -363 156q-131 152 -131 399q0 243 133 400q131 155 351 155q99 0 177.5 -32t129.5 -85.5t85 -128.5t48 -156.5t14 -174.5h-807q5 -194 99.5 -309t263.5 -115q241 0 309 237h123q-36 -162 -148.5 -254t-283.5 -92zM184 606h672q-5 171 -87.5 272
t-233.5 101q-150 0 -241 -100.5t-110 -272.5zM612 1212h-110l-193 261h168z" />
    <glyph glyph-name="eacute" unicode="&#xe9;" horiz-adv-x="1040" 
d="M565 1212h-110l135 261h168zM545 -27q-231 0 -363 156q-131 152 -131 399q0 243 133 400q131 155 351 155q99 0 177.5 -32t129.5 -85.5t85 -128.5t48 -156.5t14 -174.5h-807q5 -194 99.5 -309t263.5 -115q241 0 309 237h123q-36 -162 -148.5 -254t-283.5 -92zM184 606
h672q-5 171 -87.5 272t-233.5 101q-150 0 -241 -100.5t-110 -272.5z" />
    <glyph glyph-name="ecircumflex" unicode="&#xea;" horiz-adv-x="1040" 
d="M418 1221h-135l174 217h151l170 -217h-141l-107 145h-4zM545 -27q-231 0 -363 156q-131 152 -131 399q0 243 133 400q131 155 351 155q99 0 177.5 -32t129.5 -85.5t85 -128.5t48 -156.5t14 -174.5h-807q5 -194 99.5 -309t263.5 -115q241 0 309 237h123
q-36 -162 -148.5 -254t-283.5 -92zM184 606h672q-5 171 -87.5 272t-233.5 101q-150 0 -241 -100.5t-110 -272.5z" />
    <glyph glyph-name="edieresis" unicode="&#xeb;" horiz-adv-x="1040" 
d="M432 1284h-123v176h123v-176zM752 1284h-123v176h123v-176zM545 -27q-231 0 -363 156q-131 152 -131 399q0 243 133 400q131 155 351 155q99 0 177.5 -32t129.5 -85.5t85 -128.5t48 -156.5t14 -174.5h-807q5 -194 99.5 -309t263.5 -115q241 0 309 237h123
q-36 -162 -148.5 -254t-283.5 -92zM184 606h672q-5 171 -87.5 272t-233.5 101q-150 0 -241 -100.5t-110 -272.5z" />
    <glyph glyph-name="igrave" unicode="&#xec;" horiz-adv-x="346" 
d="M238 0h-127v1059h127v-1059zM109 1317l-5 26l33 -26h-28zM104 1343l-28 25h24z" />
    <glyph glyph-name="iacute" unicode="&#xed;" horiz-adv-x="346" 
d="M238 0h-127v1059h127v-1059zM229 1212h-108l110 261h160z" />
    <glyph glyph-name="icircumflex" unicode="&#xee;" horiz-adv-x="346" 
d="M82 1221h-127l143 217h152l139 -217h-131l-84 141h-4zM238 0h-127v1059h127v-1059z" />
    <glyph glyph-name="idieresis" unicode="&#xef;" horiz-adv-x="346" 
d="M117 1284h-125v176h125v-176zM238 0h-127v1059h127v-1059zM354 1284h-125v176h125v-176z" />
    <glyph glyph-name="eth" unicode="&#xf0;" horiz-adv-x="1083" 
d="M633 1255l-285 -104l-29 74l252 92q-69 66 -178 147h162q87 -61 133 -104l205 74l29 -74l-170 -62q278 -297 278 -745q0 -262 -131 -420q-133 -160 -356 -160q-225 0 -359 158q-133 157 -133 397q0 241 131 396t348 155q192 0 318 -153h2q-69 175 -217 329zM543 80
q169 0 264 129q94 125 94 321q0 200 -96.5 322.5t-265.5 122.5q-172 0 -263 -125q-94 -125 -94 -322q0 -196 94 -321q95 -127 267 -127z" />
    <glyph glyph-name="ntilde" unicode="&#xf1;" horiz-adv-x="1028" 
d="M233 0h-127v1059h127v-162h5q126 184 354 184q154 0 246 -87.5t92 -241.5v-752h-127v739q0 234 -242 234q-136 0 -231 -86q-97 -88 -97 -215v-672zM645 1229q-49 0 -133 41q-79 39 -109 39q-24 0 -40 -20.5t-17 -55.5h-100q15 180 151 180q54 0 131 -39q77 -41 107 -41
q57 0 63 76h99q-5 -85 -45 -132.5t-107 -47.5z" />
    <glyph glyph-name="ograve" unicode="&#xf2;" horiz-adv-x="1083" 
d="M543 80q169 0 264 127q94 125 94 321q0 197 -94 322q-95 127 -264 127q-172 0 -267 -127q-94 -125 -94 -322q0 -196 94 -321q95 -127 267 -127zM543 -27q-225 0 -359 158q-133 157 -133 397q0 243 133 400q131 155 359 155q225 0 356 -155t131 -400q0 -242 -131 -397
q-134 -158 -356 -158zM621 1212h-111l-193 261h168z" />
    <glyph glyph-name="oacute" unicode="&#xf3;" horiz-adv-x="1083" 
d="M575 1212h-110l135 261h168zM543 80q169 0 264 127q94 125 94 321q0 197 -94 322q-95 127 -264 127q-172 0 -267 -127q-94 -125 -94 -322q0 -196 94 -321q95 -127 267 -127zM543 -27q-225 0 -359 158q-133 157 -133 397q0 243 133 400q131 155 359 155q225 0 356 -155
t131 -400q0 -242 -131 -397q-134 -158 -356 -158z" />
    <glyph glyph-name="ocircumflex" unicode="&#xf4;" horiz-adv-x="1083" 
d="M428 1221h-135l174 217h151l170 -217h-141l-106 145h-4zM543 80q169 0 264 127q94 125 94 321q0 197 -94 322q-95 127 -264 127q-172 0 -267 -127q-94 -125 -94 -322q0 -196 94 -321q95 -127 267 -127zM543 -27q-225 0 -359 158q-133 157 -133 397q0 243 133 400
q131 155 359 155q225 0 356 -155t131 -400q0 -242 -131 -397q-134 -158 -356 -158z" />
    <glyph glyph-name="otilde" unicode="&#xf5;" horiz-adv-x="1083" 
d="M543 80q169 0 264 127q94 125 94 321q0 197 -94 322q-95 127 -264 127q-172 0 -267 -127q-94 -125 -94 -322q0 -196 94 -321q95 -127 267 -127zM543 -27q-225 0 -359 158q-133 157 -133 397q0 243 133 400q131 155 359 155q225 0 356 -155t131 -400q0 -242 -131 -397
q-134 -158 -356 -158zM666 1229q-50 0 -134 41q-79 39 -108 39q-24 0 -40 -20.5t-17 -55.5h-101q15 180 152 180q54 0 131 -39q77 -41 106 -41q58 0 64 76h98q-5 -85 -44.5 -132.5t-106.5 -47.5z" />
    <glyph glyph-name="odieresis" unicode="&#xf6;" horiz-adv-x="1083" 
d="M442 1284h-123v176h123v-176zM762 1284h-123v176h123v-176zM543 80q169 0 264 127q94 125 94 321q0 197 -94 322q-95 127 -264 127q-172 0 -267 -127q-94 -125 -94 -322q0 -196 94 -321q95 -127 267 -127zM543 -27q-225 0 -359 158q-133 157 -133 397q0 243 133 400
q131 155 359 155q225 0 356 -155t131 -400q0 -242 -131 -397q-134 -158 -356 -158z" />
    <glyph glyph-name="divide" unicode="&#xf7;" horiz-adv-x="1085" 
d="M621 238h-156v172h156v-172zM973 612h-860v111h860v-111zM621 926h-156v172h156v-172z" />
    <glyph glyph-name="oslash" unicode="&#xf8;" horiz-adv-x="1083" 
d="M211 102l-119 -133l-55 51l123 140q-109 151 -109 368q0 243 133 400q131 155 359 155q197 0 329 -129l117 131l58 -51l-125 -139q108 -144 108 -367q0 -242 -131 -397q-134 -158 -356 -158q-203 0 -332 129zM246 254l547 612q-94 111 -250 111q-172 0 -267 -127
q-94 -125 -94 -322q0 -161 64 -274zM543 80q169 0 264 127q94 125 94 321q0 164 -63 275l-549 -613q98 -110 254 -110z" />
    <glyph glyph-name="ugrave" unicode="&#xf9;" horiz-adv-x="1013" 
d="M446 -25q-157 0 -252.5 90t-95.5 246v748h127v-740q0 -116 65 -176.5t185 -60.5q134 0 221 90q86 89 86 225v662h125v-1059h-125v156h-4q-67 -92 -143.5 -136.5t-188.5 -44.5zM592 1212h-111l-192 261h168z" />
    <glyph glyph-name="uacute" unicode="&#xfa;" horiz-adv-x="1013" 
d="M543 1212h-111l135 261h168zM446 -25q-157 0 -252.5 90t-95.5 246v748h127v-740q0 -116 65 -176.5t185 -60.5q134 0 221 90q86 89 86 225v662h125v-1059h-125v156h-4q-67 -92 -143.5 -136.5t-188.5 -44.5z" />
    <glyph glyph-name="ucircumflex" unicode="&#xfb;" horiz-adv-x="1013" 
d="M397 1221h-135l174 217h152l170 -217h-142l-106 145h-4zM446 -25q-157 0 -252.5 90t-95.5 246v748h127v-740q0 -116 65 -176.5t185 -60.5q134 0 221 90q86 89 86 225v662h125v-1059h-125v156h-4q-67 -92 -143.5 -136.5t-188.5 -44.5z" />
    <glyph glyph-name="udieresis" unicode="&#xfc;" horiz-adv-x="1013" 
d="M412 1284h-123v176h123v-176zM731 1284h-123v176h123v-176zM446 -25q-157 0 -252.5 90t-95.5 246v748h127v-740q0 -116 65 -176.5t185 -60.5q134 0 221 90q86 89 86 225v662h125v-1059h-125v156h-4q-67 -92 -143.5 -136.5t-188.5 -44.5z" />
    <glyph glyph-name="yacute" unicode="&#xfd;" horiz-adv-x="960" 
d="M217 -350q-52 0 -108 16v113h6q43 -15 96 -15q123 0 176 144l35 94l-408 1057h136l253 -684l84 -242h5q67 209 79 242l244 684h131l-436 -1170q-50 -134 -116 -186.5t-177 -52.5zM522 1212h-110l135 261h168z" />
    <glyph glyph-name="thorn" unicode="&#xfe;" horiz-adv-x="1085" 
d="M233 -340h-127v1804h127v-587h5q119 204 358 204q194 0 317 -147q121 -148 121 -406q0 -249 -119 -401q-121 -154 -327 -154q-227 0 -350 181h-5v-494zM582 80q156 0 239 127q84 128 84 319q0 205 -86 327t-239 122q-171 0 -263 -127q-94 -125 -94 -324
q0 -207 92.5 -325.5t266.5 -118.5z" />
    <glyph glyph-name="ydieresis" unicode="&#xff;" horiz-adv-x="960" 
d="M217 -350q-52 0 -108 16v113h6q43 -15 96 -15q123 0 176 144l35 94l-408 1057h136l253 -684l84 -242h5q67 209 79 242l244 684h131l-436 -1170q-50 -134 -116 -186.5t-177 -52.5zM391 1284h-123v176h123v-176zM711 1284h-123v176h123v-176z" />
    <glyph glyph-name="Amacron" unicode="&#x100;" horiz-adv-x="1298" 
d="M156 0h-140l553 1464h156l557 -1464h-147l-170 461h-637zM573 1120l-204 -547h555l-201 547l-74 213h-4q-52 -161 -72 -213zM903 1559h-508v114h508v-114z" />
    <glyph glyph-name="amacron" unicode="&#x101;" horiz-adv-x="1021" 
d="M393 -25q-157 0 -251.5 77.5t-94.5 217.5q0 182 131 250q64 34 131.5 52t173.5 30q171 21 230 45q55 21 55 98v21q0 213 -254 213q-282 0 -297 -236h-125q11 161 119 249.5t303 88.5q375 0 375 -327v-576q0 -89 69 -92q15 0 48 8h6v-92q-40 -16 -86 -16q-147 0 -156 149
v23h-6q-130 -183 -371 -183zM416 78q166 0 260 94q94 91 94 211v190q-73 -41 -274 -69q-112 -13 -187 -41q-44 -14 -69 -39q-60 -56 -60 -154q0 -192 236 -192zM770 1284h-508v115h508v-115z" />
    <glyph glyph-name="Abreve" unicode="&#x102;" horiz-adv-x="1298" 
d="M156 0h-140l553 1464h156l557 -1464h-147l-170 461h-637zM573 1120l-204 -547h555l-201 547l-74 213h-4q-52 -161 -72 -213zM649 1546q-104 0 -173 60t-75 157h105q21 -108 143 -108q125 0 146 108h104q-6 -95 -75.5 -156t-174.5 -61z" />
    <glyph glyph-name="abreve" unicode="&#x103;" horiz-adv-x="1021" 
d="M393 -25q-157 0 -251.5 77.5t-94.5 217.5q0 182 131 250q64 34 131.5 52t173.5 30q171 21 230 45q55 21 55 98v21q0 213 -254 213q-282 0 -297 -236h-125q11 161 119 249.5t303 88.5q375 0 375 -327v-576q0 -89 69 -92q15 0 48 8h6v-92q-40 -16 -86 -16q-147 0 -156 149
v23h-6q-130 -183 -371 -183zM416 78q166 0 260 94q94 91 94 211v190q-73 -41 -274 -69q-112 -13 -187 -41q-44 -14 -69 -39q-60 -56 -60 -154q0 -192 236 -192zM516 1219q-104 0 -173 62t-75 159h105q21 -113 143 -113q60 0 97.5 30.5t48.5 82.5h104q-6 -95 -76 -158
t-174 -63z" />
    <glyph glyph-name="Aogonek" unicode="&#x104;" horiz-adv-x="1298" 
d="M1174 -356q-91 0 -140 40.5t-49 110.5q0 115 150 207l-170 459h-637l-172 -461h-140l553 1464h156l553 -1450q-168 -119 -168 -204q0 -70 82 -70q48 0 92 18h6v-88q-48 -26 -116 -26zM573 1120l-204 -547h555l-201 547l-74 213h-4q-52 -161 -72 -213z" />
    <glyph glyph-name="aogonek" unicode="&#x105;" horiz-adv-x="1021" 
d="M899 -356q-89 0 -137.5 40.5t-48.5 110.5q0 116 149 201q-86 27 -92 139v23h-6q-130 -183 -371 -183q-157 0 -251.5 77.5t-94.5 217.5q0 182 131 250q64 34 131.5 52t173.5 30q171 21 230 45q55 21 55 98v21q0 213 -254 213q-282 0 -297 -236h-125q11 161 119 249.5
t303 88.5q375 0 375 -327v-576q0 -89 69 -92q15 0 48 8h6v-92q-76 -32 -126 -86.5t-50 -105.5q0 -72 84 -72q48 0 92 20h6v-90q-52 -24 -119 -24zM416 78q166 0 260 94q94 91 94 211v190q-73 -41 -274 -69q-112 -13 -187 -41q-44 -14 -69 -39q-60 -56 -60 -154
q0 -192 236 -192z" />
    <glyph glyph-name="Cacute" unicode="&#x106;" horiz-adv-x="1386" 
d="M733 -27q-302 0 -481 209q-178 208 -178 549t180 551q183 213 485 213q228 0 377.5 -118t186.5 -326h-136q-31 150 -145 237.5t-285 87.5q-249 0 -383 -180q-137 -180 -137 -465t137 -459q135 -178 381 -178q198 0 319 120.5t140 317.5h133q-12 -231 -151 -382
q-157 -177 -443 -177zM772 1542h-110l135 234h168z" />
    <glyph glyph-name="cacute" unicode="&#x107;" horiz-adv-x="1005" 
d="M561 1212h-110l135 261h168zM532 -27q-226 0 -352 156q-129 156 -129 399q0 244 129 400q128 155 355 155q176 0 288 -91t138 -253h-127q-47 238 -299 238q-169 0 -261 -123.5t-92 -325.5t91 -324t259 -122q132 0 214 76t100 207h121q-19 -183 -134 -287.5t-301 -104.5z
" />
    <glyph glyph-name="Ccircumflex" unicode="&#x108;" horiz-adv-x="1386" 
d="M733 -27q-302 0 -481 209q-178 208 -178 549t180 551q183 213 485 213q228 0 377.5 -118t186.5 -326h-136q-31 150 -145 237.5t-285 87.5q-249 0 -383 -180q-137 -180 -137 -465t137 -459q135 -178 381 -178q198 0 319 120.5t140 317.5h133q-12 -231 -151 -382
q-157 -177 -443 -177zM606 1544h-139l192 211h152l188 -211h-143l-123 139h-4z" />
    <glyph glyph-name="ccircumflex" unicode="&#x109;" horiz-adv-x="1005" 
d="M414 1221h-135l174 217h151l170 -217h-141l-107 145h-4zM532 -27q-226 0 -352 156q-129 156 -129 399q0 244 129 400q128 155 355 155q176 0 288 -91t138 -253h-127q-47 238 -299 238q-169 0 -261 -123.5t-92 -325.5t91 -324t259 -122q132 0 214 76t100 207h121
q-19 -183 -134 -287.5t-301 -104.5z" />
    <glyph glyph-name="Cdotaccent" unicode="&#x10a;" horiz-adv-x="1386" 
d="M795 1550h-125v176h125v-176zM733 -27q-302 0 -481 209q-178 208 -178 549t180 551q183 213 485 213q228 0 377.5 -118t186.5 -326h-136q-31 150 -145 237.5t-285 87.5q-249 0 -383 -180q-137 -180 -137 -465t137 -459q135 -178 381 -178q198 0 319 120.5t140 317.5h133
q-12 -231 -151 -382q-157 -177 -443 -177z" />
    <glyph glyph-name="cdotaccent" unicode="&#x10b;" horiz-adv-x="1005" 
d="M532 -27q-226 0 -352 156q-129 156 -129 399q0 244 129 400q128 155 355 155q176 0 288 -91t138 -253h-127q-47 238 -299 238q-169 0 -261 -123.5t-92 -325.5t91 -324t259 -122q132 0 214 76t100 207h121q-19 -183 -134 -287.5t-301 -104.5zM590 1284h-125v180h125v-180z
" />
    <glyph glyph-name="Ccaron" unicode="&#x10c;" horiz-adv-x="1386" 
d="M733 -27q-302 0 -481 209q-178 208 -178 549t180 551q183 213 485 213q228 0 377.5 -118t186.5 -326h-136q-31 150 -145 237.5t-285 87.5q-249 0 -383 -180q-137 -180 -137 -465t137 -459q135 -178 381 -178q198 0 319 120.5t140 317.5h133q-12 -231 -151 -382
q-157 -177 -443 -177zM807 1544h-152l-188 211h143l123 -137h4l123 137h139z" />
    <glyph glyph-name="ccaron" unicode="&#x10d;" horiz-adv-x="1005" 
d="M600 1221h-151l-170 217h141l106 -146h4l109 146h135zM532 -27q-226 0 -352 156q-129 156 -129 399q0 244 129 400q128 155 355 155q176 0 288 -91t138 -253h-127q-47 238 -299 238q-169 0 -261 -123.5t-92 -325.5t91 -324t259 -122q132 0 214 76t100 207h121
q-19 -183 -134 -287.5t-301 -104.5z" />
    <glyph glyph-name="Dcaron" unicode="&#x10e;" horiz-adv-x="1351" 
d="M688 1544h-151l-189 211h144l122 -137h4l123 137h140zM268 1343v-1222h365q250 0 376 156.5t126 449.5q0 616 -488 616h-379zM637 0h-506v1464h520q316 0 471 -198q156 -200 156 -539q0 -342 -165 -534.5t-476 -192.5z" />
    <glyph glyph-name="dcaron" unicode="&#x10f;" horiz-adv-x="1089" 
d="M1065 1130v68q68 27 68 107v4h-66v155h143v-155q0 -158 -145 -179zM508 -29q-210 0 -334 154q-123 153 -123 401q0 256 129 406q128 149 324 149q241 0 348 -198h4v581h127v-1464h-127v158h-4q-120 -187 -344 -187zM512 78q168 0 261 120.5t93 325.5q0 204 -94.5 327.5
t-259.5 123.5q-152 0 -241 -123.5t-89 -327.5q0 -201 87 -323.5t243 -122.5z" />
    <glyph glyph-name="Dcroat" unicode="&#x110;" horiz-adv-x="1380" 
d="M291 676v-555h362q252 0 378 156.5t126 449.5q0 616 -489 616h-377v-550h485v-117h-485zM657 0h-505v676h-146v117h146v671h520q316 0 471 -198t155 -539q0 -342 -165 -534.5t-476 -192.5z" />
    <glyph glyph-name="dslash" unicode="&#x111;" horiz-adv-x="1089" 
d="M508 -29q-210 0 -334 154q-123 153 -123 401q0 256 129 406q128 149 324 149q241 0 348 -198h4v313h-266v102h266v166h127v-166h121v-102h-121v-1196h-127v158h-4q-120 -187 -344 -187zM512 78q168 0 261 120.5t93 325.5q0 204 -94.5 327.5t-259.5 123.5
q-152 0 -241 -123.5t-89 -327.5q0 -201 87 -323.5t243 -122.5z" />
    <glyph glyph-name="Emacron" unicode="&#x112;" horiz-adv-x="1224" 
d="M907 1559h-508v114h508v-114zM1149 0h-1018v1464h995v-121h-858v-526h787v-119h-787v-571h881v-127z" />
    <glyph glyph-name="emacron" unicode="&#x113;" horiz-adv-x="1040" 
d="M545 -27q-231 0 -363 156q-131 152 -131 399q0 243 133 400q131 155 351 155q99 0 177.5 -32t129.5 -85.5t85 -128.5t48 -156.5t14 -174.5h-807q5 -194 99.5 -309t263.5 -115q241 0 309 237h123q-36 -162 -148.5 -254t-283.5 -92zM184 606h672q-5 171 -87.5 272
t-233.5 101q-150 0 -241 -100.5t-110 -272.5zM784 1284h-508v115h508v-115z" />
    <glyph glyph-name="Ebreve" unicode="&#x114;" horiz-adv-x="1224" 
d="M651 1546q-104 0 -173 60t-75 157h105q21 -108 143 -108q125 0 146 108h104q-6 -95 -75.5 -156t-174.5 -61zM1149 0h-1018v1464h995v-121h-858v-526h787v-119h-787v-571h881v-127z" />
    <glyph glyph-name="ebreve" unicode="&#x115;" horiz-adv-x="1040" 
d="M545 -27q-231 0 -363 156q-131 152 -131 399q0 243 133 400q131 155 351 155q99 0 177.5 -32t129.5 -85.5t85 -128.5t48 -156.5t14 -174.5h-807q5 -194 99.5 -309t263.5 -115q241 0 309 237h123q-36 -162 -148.5 -254t-283.5 -92zM184 606h672q-5 171 -87.5 272
t-233.5 101q-150 0 -241 -100.5t-110 -272.5zM530 1219q-104 0 -172.5 62t-74.5 159h104q21 -113 143 -113q60 0 97.5 30.5t48.5 82.5h104q-6 -95 -76 -158t-174 -63z" />
    <glyph glyph-name="Edotaccent" unicode="&#x116;" horiz-adv-x="1224" 
d="M715 1550h-125v176h125v-176zM1149 0h-1018v1464h995v-121h-858v-526h787v-119h-787v-571h881v-127z" />
    <glyph glyph-name="edotaccent" unicode="&#x117;" horiz-adv-x="1040" 
d="M545 -27q-231 0 -363 156q-131 152 -131 399q0 243 133 400q131 155 351 155q99 0 177.5 -32t129.5 -85.5t85 -128.5t48 -156.5t14 -174.5h-807q5 -194 99.5 -309t263.5 -115q241 0 309 237h123q-36 -162 -148.5 -254t-283.5 -92zM184 606h672q-5 171 -87.5 272
t-233.5 101q-150 0 -241 -100.5t-110 -272.5zM594 1284h-125v180h125v-180z" />
    <glyph glyph-name="Eogonek" unicode="&#x118;" horiz-adv-x="1224" 
d="M965 -356q-91 0 -140 40.5t-49 110.5q0 119 144 205h-789v1464h995v-121h-858v-526h787v-119h-787v-571h881v-127h-98q-150 -108 -150 -190q0 -70 82 -70q49 0 92 18h6v-88q-48 -26 -116 -26z" />
    <glyph glyph-name="eogonek" unicode="&#x119;" horiz-adv-x="1040" 
d="M686 -356q-91 0 -139.5 40.5t-48.5 110.5q0 103 123 185q-40 -7 -76 -7q-231 0 -363 156q-131 152 -131 399q0 243 133 400q131 155 351 155q177 0 292 -106q165 -149 162 -471h-807q5 -194 99.5 -309t263.5 -115q241 0 309 237h123q-37 -164 -184 -290
q-91 -78 -130.5 -127.5t-39.5 -94.5q0 -69 82 -69q48 0 92 20h6v-90q-53 -24 -117 -24zM184 606h672q-5 171 -87.5 272t-233.5 101q-150 0 -241 -100.5t-110 -272.5z" />
    <glyph glyph-name="Ecaron" unicode="&#x11a;" horiz-adv-x="1224" 
d="M727 1544h-152l-188 211h143l123 -137h4l123 137h140zM1149 0h-1018v1464h995v-121h-858v-526h787v-119h-787v-571h881v-127z" />
    <glyph glyph-name="ecaron" unicode="&#x11b;" horiz-adv-x="1040" 
d="M604 1221h-151l-170 217h141l106 -146h5l108 146h135zM545 -27q-231 0 -363 156q-131 152 -131 399q0 243 133 400q131 155 351 155q99 0 177.5 -32t129.5 -85.5t85 -128.5t48 -156.5t14 -174.5h-807q5 -194 99.5 -309t263.5 -115q241 0 309 237h123
q-36 -162 -148.5 -254t-283.5 -92zM184 606h672q-5 171 -87.5 272t-233.5 101q-150 0 -241 -100.5t-110 -272.5z" />
    <glyph glyph-name="Gcircumflex" unicode="&#x11c;" horiz-adv-x="1478" 
d="M745 -29q-313 0 -491 211q-180 210 -180 549q0 335 184 549q186 213 508 213q232 0 385.5 -118t191.5 -335h-141q-32 160 -148 247t-288 87q-273 0 -410 -180q-139 -183 -139 -463q0 -279 139 -459q137 -180 392 -180q239 0 362 141q121 139 121 347v51h-471v121h606
v-752h-96l-29 233h-6q-170 -262 -490 -262zM621 1544h-140l193 211h151l189 -211h-144l-122 139h-5z" />
    <glyph glyph-name="gcircumflex" unicode="&#x11d;" horiz-adv-x="1079" 
d="M420 1221h-135l174 217h151l170 -217h-141l-107 145h-4zM520 -371q-186 0 -298 76t-126 201h123q30 -172 297 -172q163 0 247.5 79t84.5 224v168h-6q-120 -185 -336 -185q-206 0 -330 148q-125 143 -125 381q0 248 131 391q132 141 324 141q223 0 336 -186h6v164h125
v-1018q0 -177 -99 -285q-121 -127 -354 -127zM512 127q169 0 256.5 112t87.5 312q0 198 -88.5 311t-253.5 113q-155 0 -243.5 -115.5t-88.5 -312.5q0 -193 86 -306.5t244 -113.5z" />
    <glyph glyph-name="Gbreve" unicode="&#x11e;" horiz-adv-x="1478" 
d="M748 1546q-104 0 -173 60t-75 157h104q21 -108 144 -108q124 0 145 108h104q-6 -95 -75 -156t-174 -61zM745 -29q-313 0 -491 211q-180 210 -180 549q0 335 184 549q186 213 508 213q232 0 385.5 -118t191.5 -335h-141q-32 160 -148 247t-288 87q-273 0 -410 -180
q-139 -183 -139 -463q0 -279 139 -459q137 -180 392 -180q239 0 362 141q121 139 121 347v51h-471v121h606v-752h-96l-29 233h-6q-170 -262 -490 -262z" />
    <glyph glyph-name="gbreve" unicode="&#x11f;" horiz-adv-x="1079" 
d="M520 -371q-186 0 -298 76t-126 201h123q30 -172 297 -172q163 0 247.5 79t84.5 224v168h-6q-120 -185 -336 -185q-206 0 -330 148q-125 143 -125 381q0 248 131 391q132 141 324 141q223 0 336 -186h6v164h125v-1018q0 -177 -99 -285q-121 -127 -354 -127zM512 127
q169 0 256.5 112t87.5 312q0 198 -88.5 311t-253.5 113q-155 0 -243.5 -115.5t-88.5 -312.5q0 -193 86 -306.5t244 -113.5zM532 1219q-104 0 -172.5 62t-74.5 159h104q21 -113 143 -113q60 0 97.5 30.5t48.5 82.5h104q-6 -95 -76 -158t-174 -63z" />
    <glyph glyph-name="Gdotaccent" unicode="&#x120;" horiz-adv-x="1478" 
d="M811 1550h-125v176h125v-176zM745 -29q-313 0 -491 211q-180 210 -180 549q0 335 184 549q186 213 508 213q232 0 385.5 -118t191.5 -335h-141q-32 160 -148 247t-288 87q-273 0 -410 -180q-139 -183 -139 -463q0 -279 139 -459q137 -180 392 -180q239 0 362 141
q121 139 121 347v51h-471v121h606v-752h-96l-29 233h-6q-170 -262 -490 -262z" />
    <glyph glyph-name="gdotaccent" unicode="&#x121;" horiz-adv-x="1079" 
d="M520 -371q-186 0 -298 76t-126 201h123q30 -172 297 -172q163 0 247.5 79t84.5 224v168h-6q-120 -185 -336 -185q-206 0 -330 148q-125 143 -125 381q0 248 131 391q132 141 324 141q223 0 336 -186h6v164h125v-1018q0 -177 -99 -285q-121 -127 -354 -127zM512 127
q169 0 256.5 112t87.5 312q0 198 -88.5 311t-253.5 113q-155 0 -243.5 -115.5t-88.5 -312.5q0 -193 86 -306.5t244 -113.5zM594 1284h-125v180h125v-180z" />
    <glyph glyph-name="Gcommaaccent" unicode="&#x122;" horiz-adv-x="1478" 
d="M676 -438v67q67 27 67 113v2h-63v162h141v-160q0 -163 -145 -184zM745 -29q-313 0 -491 211q-180 210 -180 549q0 335 184 549q186 213 508 213q232 0 385.5 -118t191.5 -335h-141q-32 160 -148 247t-288 87q-273 0 -410 -180q-139 -183 -139 -463q0 -279 139 -459
q137 -180 392 -180q239 0 362 141q121 139 121 347v51h-471v121h606v-752h-96l-29 233h-6q-170 -262 -490 -262z" />
    <glyph glyph-name="gcommaaccent" unicode="&#x123;" horiz-adv-x="1079" 
d="M594 1229h-141v160q0 163 145 184v-68q-68 -27 -68 -112v-2h64v-162zM520 -371q-186 0 -298 76t-126 201h123q30 -172 297 -172q163 0 247.5 79t84.5 224v168h-6q-120 -185 -336 -185q-206 0 -330 148q-125 143 -125 381q0 248 131 391q132 141 324 141q223 0 336 -186h6
v164h125v-1018q0 -177 -99 -285q-121 -127 -354 -127zM512 127q169 0 256.5 112t87.5 312q0 198 -88.5 311t-253.5 113q-155 0 -243.5 -115.5t-88.5 -312.5q0 -193 86 -306.5t244 -113.5z" />
    <glyph glyph-name="Hcircumflex" unicode="&#x124;" horiz-adv-x="1366" 
d="M268 0h-137v1464h137v-633h830v633h137v-1464h-137v717h-830v-717zM555 1544h-139l192 211h152l188 -211h-143l-123 139h-4z" />
    <glyph glyph-name="hcircumflex" unicode="&#x125;" horiz-adv-x="1034" 
d="M240 0h-127v1464h127v-567h4q126 184 354 184q154 0 246 -87.5t92 -241.5v-752h-127v739q0 234 -242 234q-136 0 -231 -86q-96 -87 -96 -215v-672zM395 1544h-139l193 211h151l188 -211h-143l-123 139h-4z" />
    <glyph glyph-name="Hbar" unicode="&#x126;" horiz-adv-x="1366" 
d="M268 0h-137v1057h-143v110h143v297h137v-297h830v297h137v-297h143v-110h-143v-1057h-137v717h-830v-717zM268 1057v-226h830v226h-830z" />
    <glyph glyph-name="hbar" unicode="&#x127;" horiz-adv-x="1034" 
d="M240 0h-127v1196h-121v102h121v166h127v-166h266v-102h-266v-299h4q126 184 354 184q154 0 246 -87.5t92 -241.5v-752h-127v739q0 234 -242 234q-136 0 -231 -86q-96 -87 -96 -215v-672z" />
    <glyph glyph-name="Itilde" unicode="&#x128;" horiz-adv-x="413" 
d="M274 0h-137v1464h137v-1464zM332 1556q-49 0 -133 41q-79 39 -109 39q-24 0 -40 -20t-17 -55h-101q15 178 152 178q54 0 131 -39q74 -39 107 -39q57 0 63 74h98q-5 -83 -44.5 -131t-106.5 -48z" />
    <glyph glyph-name="itilde" unicode="&#x129;" horiz-adv-x="346" 
d="M78 1233q-19 54 -19.5 89t19.5 36q21 0 59 -35l37 -37q4 1 5 2t0 3t-3.5 4.5t-5.5 6t-5.5 8t-4.5 11.5t-2 14q1 30 37.5 52t72.5 22q20 -51 20 -88t-20 -37q-17 0 -55 35q-11 10 -21 19t-14.5 13t-5.5 5q-6 -4 -1 -6t12.5 -14.5t4.5 -28.5q0 -29 -36 -51.5t-74 -22.5z
M238 0h-127v1059h127v-1059z" />
    <glyph glyph-name="Imacron" unicode="&#x12a;" horiz-adv-x="413" 
d="M274 0h-137v1464h137v-1464zM395 1561h-377v110h377v-110z" />
    <glyph glyph-name="imacron" unicode="&#x12b;" horiz-adv-x="346" 
d="M238 0h-127v1059h127v-1059zM352 1284h-360v115h360v-115z" />
    <glyph glyph-name="Ibreve" unicode="&#x12c;" horiz-adv-x="413" 
d="M274 0h-137v1464h137v-1464zM207 1546q-104 0 -173 60t-75 157h104q21 -108 144 -108q124 0 145 108h105q-6 -95 -75.5 -156t-174.5 -61z" />
    <glyph glyph-name="ibreve" unicode="&#x12d;" horiz-adv-x="346" 
d="M238 0h-127v1059h127v-1059zM172 1219q-104 0 -173 62t-75 159h105q21 -113 143 -113q60 0 97 30t48 83h105q-6 -95 -76 -158t-174 -63z" />
    <glyph glyph-name="Iogonek" unicode="&#x12e;" horiz-adv-x="413" 
d="M195 -356q-89 0 -138 40.5t-49 110.5q0 118 139 207h-10v1462h137v-1460q-143 -107 -143 -194q0 -70 82 -70q47 0 90 18h6v-88q-48 -26 -114 -26z" />
    <glyph glyph-name="iogonek" unicode="&#x12f;" horiz-adv-x="346" 
d="M156 -356q-87 0 -135 40.5t-48 110.5q0 58 39 113t99 92v1059h127v-1059q-140 -110 -140 -190q0 -72 76 -72q44 0 88 20h6v-88q-48 -26 -112 -26zM238 1284h-127v180h127v-180z" />
    <glyph glyph-name="Idot" unicode="&#x130;" horiz-adv-x="413" 
d="M274 0h-137v1464h137v-1464zM270 1550h-125v176h125v-176z" />
    <glyph glyph-name="dotlessi" unicode="&#x131;" horiz-adv-x="346" 
d="M238 0h-127v1059h127v-1059z" />
    <glyph glyph-name="IJ" unicode="&#x132;" horiz-adv-x="1355" 
d="M274 0h-137v1464h137v-1464zM842 -27q-414 0 -414 435v55h135v-49q0 -171 69 -247.5t214 -76.5q252 0 252 270v1104h137v-1114q0 -171 -102.5 -274t-290.5 -103z" />
    <glyph glyph-name="ij" unicode="&#x133;" horiz-adv-x="694" 
d="M238 0h-127v1059h127v-1059zM238 1284h-127v180h127v-180zM305 -322v107h2q6 -2 35 -2q115 0 115 121v1155h127v-1161q0 -119 -56 -170.5t-170 -51.5q-47 0 -53 2zM584 1284h-127v180h127v-180z" />
    <glyph glyph-name="Jcircumflex" unicode="&#x134;" horiz-adv-x="972" 
d="M459 -27q-414 0 -414 435v55h135v-49q0 -171 69 -247.5t214 -76.5q252 0 252 270v1104h137v-1114q0 -171 -102.5 -274t-290.5 -103zM655 1544h-139l193 211h151l189 -211h-144l-123 139h-4z" />
    <glyph glyph-name="jcircumflex" unicode="&#x135;" horiz-adv-x="346" 
d="M-41 -322v107h2q6 -2 35 -2q115 0 115 121v1155h127v-1161q0 -119 -56 -170.5t-170 -51.5q-47 0 -53 2zM82 1221h-127l143 217h152l139 -217h-131l-84 141h-4z" />
    <glyph glyph-name="Kcommaaccent" unicode="&#x136;" horiz-adv-x="1280" 
d="M555 -438v67q68 27 68 113v2h-64v162h141v-160q0 -163 -145 -184zM268 0h-137v1464h137v-780l791 780h178l-612 -596l649 -868h-164l-580 774l-262 -258v-516z" />
    <glyph glyph-name="kcommaaccent" unicode="&#x137;" horiz-adv-x="974" 
d="M416 -438v67q67 27 67 113v2h-63v162h141v-160q0 -163 -145 -184zM233 0h-127v1464h127v-915l527 510h162l-406 -383l455 -676h-148l-395 594l-195 -186v-408z" />
    <glyph glyph-name="Lacute" unicode="&#x139;" horiz-adv-x="1097" 
d="M256 1542h-111l136 234h168zM1049 0h-918v1464h137v-1337h781v-127z" />
    <glyph glyph-name="lacute" unicode="&#x13a;" horiz-adv-x="352" 
d="M231 1542h-110l135 234h168zM240 0h-127v1464h127v-1464z" />
    <glyph glyph-name="Lcommaaccent" unicode="&#x13b;" horiz-adv-x="1097" 
d="M508 -438v67q67 27 67 113v2h-63v162h141v-160q0 -163 -145 -184zM1049 0h-918v1464h137v-1337h781v-127z" />
    <glyph glyph-name="lcommaaccent" unicode="&#x13c;" horiz-adv-x="352" 
d="M102 -438v67q68 27 68 113v2h-64v162h142v-160q0 -163 -146 -184zM240 0h-127v1464h127v-1464z" />
    <glyph glyph-name="Lcaron" unicode="&#x13d;" horiz-adv-x="1097" 
d="M582 1130v68q67 27 67 107v4h-65v155h143v-155q0 -158 -145 -179zM1049 0h-918v1464h137v-1337h781v-127z" />
    <glyph glyph-name="lcaron" unicode="&#x13e;" horiz-adv-x="352" 
d="M324 1130v68q67 27 67 107v4h-65v155h143v-155q0 -158 -145 -179zM240 0h-127v1464h127v-1464z" />
    <glyph glyph-name="Ldot" unicode="&#x13f;" horiz-adv-x="1097" 
d="M1049 0h-918v1464h137v-1337h781v-127zM870 664h-155v178h155v-178z" />
    <glyph glyph-name="ldot" unicode="&#x140;" horiz-adv-x="532" 
d="M240 0h-127v1464h127v-1464zM516 571h-156v179h156v-179z" />
    <glyph glyph-name="Lslash" unicode="&#x141;" horiz-adv-x="1122" 
d="M1073 0h-917v502l-166 -88v123l166 88v839h137v-766l536 287v-123l-536 -287v-448h780v-127z" />
    <glyph glyph-name="lslash" unicode="&#x142;" horiz-adv-x="425" 
d="M276 0h-126v672l-140 -117v129l140 115v665h126v-559l156 131v-129l-156 -131v-776z" />
    <glyph glyph-name="Nacute" unicode="&#x143;" horiz-adv-x="1366" 
d="M758 1542h-111l135 234h168zM262 0h-131v1464h150l673 -1028q84 -129 127 -207l19 -34h4v1269h131v-1464h-143l-672 1016l-154 248h-4v-1264z" />
    <glyph glyph-name="nacute" unicode="&#x144;" horiz-adv-x="1028" 
d="M555 1212h-111l136 261h168zM233 0h-127v1059h127v-162h5q126 184 354 184q154 0 246 -87.5t92 -241.5v-752h-127v739q0 234 -242 234q-136 0 -231 -86q-97 -88 -97 -215v-672z" />
    <glyph glyph-name="Ncommaaccent" unicode="&#x145;" horiz-adv-x="1366" 
d="M580 -438v67q67 27 67 113v2h-63v162h141v-160q0 -163 -145 -184zM262 0h-131v1464h150l673 -1028q84 -129 127 -207l19 -34h4v1269h131v-1464h-143l-672 1016l-154 248h-4v-1264z" />
    <glyph glyph-name="ncommaaccent" unicode="&#x146;" horiz-adv-x="1028" 
d="M449 -438v67q67 27 67 113v2h-63v162h141v-160q0 -163 -145 -184zM233 0h-127v1059h127v-162h5q126 184 354 184q154 0 246 -87.5t92 -241.5v-752h-127v739q0 234 -242 234q-136 0 -231 -86q-97 -88 -97 -215v-672z" />
    <glyph glyph-name="Ncaron" unicode="&#x147;" horiz-adv-x="1366" 
d="M791 1544h-152l-188 211h143l123 -137h4l123 137h139zM262 0h-131v1464h150l673 -1028q84 -129 127 -207l19 -34h4v1269h131v-1464h-143l-672 1016l-154 248h-4v-1264z" />
    <glyph glyph-name="ncaron" unicode="&#x148;" horiz-adv-x="1028" 
d="M594 1221h-152l-170 217h142l106 -146h4l109 146h135zM233 0h-127v1059h127v-162h5q126 184 354 184q154 0 246 -87.5t92 -241.5v-752h-127v739q0 234 -242 234q-136 0 -231 -86q-97 -88 -97 -215v-672z" />
    <glyph glyph-name="napostrophe" unicode="&#x149;" horiz-adv-x="1028" 
d="M233 0h-127v1059h127v-162h5q126 184 354 184q154 0 246 -87.5t92 -241.5v-752h-127v739q0 234 -242 234q-136 0 -231 -86q-97 -88 -97 -215v-672zM-14 1130v68q67 27 67 107v4h-63v155h141v-155q0 -158 -145 -179z" />
    <glyph glyph-name="Omacron" unicode="&#x14c;" horiz-adv-x="1511" 
d="M1010 1559h-508v114h508v-114zM754 94q255 0 399 182q141 181 141 457q0 277 -141 459q-143 180 -399 180t-396 -180q-141 -182 -141 -459q0 -275 141 -457t396 -182zM754 -29q-304 0 -492 215t-188 547t188 547t492 215q307 0 495 -215q189 -216 189 -547t-189 -547
q-188 -215 -495 -215z" />
    <glyph glyph-name="omacron" unicode="&#x14d;" horiz-adv-x="1083" 
d="M795 1284h-508v115h508v-115zM543 80q169 0 264 127q94 125 94 321q0 197 -94 322q-95 127 -264 127q-172 0 -267 -127q-94 -125 -94 -322q0 -196 94 -321q95 -127 267 -127zM543 -27q-225 0 -359 158q-133 157 -133 397q0 243 133 400q131 155 359 155q225 0 356 -155
t131 -400q0 -242 -131 -397q-134 -158 -356 -158z" />
    <glyph glyph-name="Obreve" unicode="&#x14e;" horiz-adv-x="1511" 
d="M754 1546q-104 0 -173 60t-75 157h104q21 -108 144 -108q124 0 145 108h105q-6 -95 -75.5 -156t-174.5 -61zM754 94q255 0 399 182q141 181 141 457q0 277 -141 459q-143 180 -399 180t-396 -180q-141 -182 -141 -459q0 -275 141 -457t396 -182zM754 -29q-304 0 -492 215
t-188 547t188 547t492 215q307 0 495 -215q189 -216 189 -547t-189 -547q-188 -215 -495 -215z" />
    <glyph glyph-name="obreve" unicode="&#x14f;" horiz-adv-x="1083" 
d="M543 80q169 0 264 127q94 125 94 321q0 197 -94 322q-95 127 -264 127q-172 0 -267 -127q-94 -125 -94 -322q0 -196 94 -321q95 -127 267 -127zM543 -27q-225 0 -359 158q-133 157 -133 397q0 243 133 400q131 155 359 155q225 0 356 -155t131 -400q0 -242 -131 -397
q-134 -158 -356 -158zM539 1219q-104 0 -173 62t-75 159h104q21 -113 144 -113q60 0 97 30t48 83h104q-6 -95 -75.5 -158t-173.5 -63z" />
    <glyph glyph-name="Ohungarumlaut" unicode="&#x150;" horiz-adv-x="1511" 
d="M754 94q255 0 399 182q141 181 141 457q0 277 -141 459q-143 180 -399 180t-396 -180q-141 -182 -141 -459q0 -275 141 -457t396 -182zM754 -29q-304 0 -492 215t-188 547t188 547t492 215q307 0 495 -215q189 -216 189 -547t-189 -547q-188 -215 -495 -215zM676 1542
h-103l76 240h139zM942 1542h-102l73 240h142z" />
    <glyph glyph-name="ohungarumlaut" unicode="&#x151;" horiz-adv-x="1083" 
d="M461 1212h-103l76 261h139zM727 1212h-102l73 261h142zM543 80q169 0 264 127q94 125 94 321q0 197 -94 322q-95 127 -264 127q-172 0 -267 -127q-94 -125 -94 -322q0 -196 94 -321q95 -127 267 -127zM543 -27q-225 0 -359 158q-133 157 -133 397q0 243 133 400
q131 155 359 155q225 0 356 -155t131 -400q0 -242 -131 -397q-134 -158 -356 -158z" />
    <glyph glyph-name="OE" unicode="&#x152;" horiz-adv-x="2224" 
d="M737 -29q-295 0 -479 217q-184 214 -184 545t186 547q185 215 477 215q294 0 445 -238v207h946v-121h-809v-526h747v-119h-747v-571h831v-127h-968v197q-151 -226 -445 -226zM737 94q183 0 316 115q129 114 129 289v487q-9 168 -135 279q-129 108 -310 108
q-244 0 -381 -180q-139 -183 -139 -459q0 -277 137 -457q138 -182 383 -182z" />
    <glyph glyph-name="oe" unicode="&#x153;" horiz-adv-x="1814" 
d="M522 -27q-218 0 -344 156q-127 157 -127 399q0 243 127 400q125 155 344 155q283 0 400 -272q52 129 155 200.5t244 71.5q161 0 270 -92q174 -146 174 -485h-782q5 -195 95 -309.5t257 -114.5q231 0 295 237h121q-31 -161 -140.5 -253.5t-275.5 -92.5q-302 0 -413 273
q-114 -273 -400 -273zM272 207q89 -127 250 -127t250 127q88 125 88 321q0 197 -88 322q-89 127 -250 127t-250 -127q-90 -128 -90 -322q0 -193 90 -321zM981 606h651q-5 173 -83 273t-226 100t-235.5 -100t-106.5 -273z" />
    <glyph glyph-name="Racute" unicode="&#x154;" horiz-adv-x="1292" 
d="M268 0h-137v1464h653q196 0 306 -105t110 -290q0 -276 -246 -352v-6q109 -36 156 -125t55 -264q12 -280 64 -314v-8h-148q-23 14 -32 78q-13 92 -21 250q-7 184 -77 254.5t-236 70.5h-447v-653zM268 1343v-573h469q157 0 239.5 74.5t82.5 212.5q0 144 -73 215t-230 71
h-488zM674 1542h-111l135 234h168z" />
    <glyph glyph-name="racute" unicode="&#x155;" horiz-adv-x="630" 
d="M401 1212h-110l135 261h168zM233 0h-127v1059h127v-197h5q108 205 323 205q15 0 35 -4v-125q-122 20 -225 -51q-138 -102 -138 -285v-602z" />
    <glyph glyph-name="Rcommaaccent" unicode="&#x156;" horiz-adv-x="1292" 
d="M578 -438v67q67 27 67 113v2h-63v162h141v-160q0 -163 -145 -184zM268 0h-137v1464h653q196 0 306 -105t110 -290q0 -276 -246 -352v-6q109 -36 156 -125t55 -264q12 -280 64 -314v-8h-148q-23 14 -32 78q-13 92 -21 250q-7 184 -77 254.5t-236 70.5h-447v-653zM268 1343
v-573h469q157 0 239.5 74.5t82.5 212.5q0 144 -73 215t-230 71h-488z" />
    <glyph glyph-name="rcommaaccent" unicode="&#x157;" horiz-adv-x="630" 
d="M94 -438v67q68 27 68 113v2h-64v162h142v-160q0 -163 -146 -184zM233 0h-127v1059h127v-197h5q108 205 323 205q15 0 35 -4v-125q-122 20 -225 -51q-138 -102 -138 -285v-602z" />
    <glyph glyph-name="Rcaron" unicode="&#x158;" horiz-adv-x="1292" 
d="M709 1544h-152l-188 211h143l123 -137h4l123 137h139zM268 0h-137v1464h653q196 0 306 -105t110 -290q0 -276 -246 -352v-6q109 -36 156 -125t55 -264q12 -280 64 -314v-8h-148q-23 14 -32 78q-13 92 -21 250q-7 184 -77 254.5t-236 70.5h-447v-653zM268 1343v-573h469
q157 0 239.5 74.5t82.5 212.5q0 144 -73 215t-230 71h-488z" />
    <glyph glyph-name="rcaron" unicode="&#x159;" horiz-adv-x="630" 
d="M440 1221h-151l-170 217h141l107 -146h4l108 146h135zM233 0h-127v1059h127v-197h5q108 205 323 205q15 0 35 -4v-125q-122 20 -225 -51q-138 -102 -138 -285v-602z" />
    <glyph glyph-name="Sacute" unicode="&#x15a;" horiz-adv-x="1226" 
d="M639 -27q-271 0 -425.5 135.5t-166.5 366.5h137q10 -184 130 -285.5t327 -101.5q169 0 272 81.5t103 225.5q0 145 -96 207q-96 60 -355 113q-120 23 -202 53t-142 75.5t-88.5 110t-28.5 152.5q0 171 136 280q134 107 354 107q230 0 362.5 -113.5t153.5 -314.5h-133
q-19 151 -119.5 232t-261.5 81q-165 0 -261.5 -72.5t-96.5 -195.5q0 -122 92 -178q86 -57 305 -98q112 -21 174.5 -38t130.5 -48q74 -34 117 -78q98 -102 98 -269q0 -194 -141 -311q-144 -117 -375 -117zM639 1542h-111l136 234h167z" />
    <glyph glyph-name="sacute" unicode="&#x15b;" horiz-adv-x="923" 
d="M498 1212h-111l135 261h168zM477 -29q-200 0 -313.5 97t-124.5 262h129q27 -250 311 -250q128 0 198.5 55t70.5 150q0 87 -58 127q-56 39 -225 77q-102 24 -157 43.5t-113 51.5q-117 64 -117 211q0 130 101.5 208t266.5 78q354 0 394 -313h-127q-21 209 -267 209
q-116 0 -178.5 -48t-62.5 -128q0 -84 65 -119q64 -37 238 -78q196 -42 278 -102q88 -64 88 -215q0 -143 -107.5 -229.5t-289.5 -86.5z" />
    <glyph glyph-name="Scircumflex" unicode="&#x15c;" horiz-adv-x="1226" 
d="M639 -27q-271 0 -425.5 135.5t-166.5 366.5h137q10 -184 130 -285.5t327 -101.5q169 0 272 81.5t103 225.5q0 145 -96 207q-96 60 -355 113q-120 23 -202 53t-142 75.5t-88.5 110t-28.5 152.5q0 171 136 280q134 107 354 107q230 0 362.5 -113.5t153.5 -314.5h-133
q-19 151 -119.5 232t-261.5 81q-165 0 -261.5 -72.5t-96.5 -195.5q0 -122 92 -178q86 -57 305 -98q112 -21 174.5 -38t130.5 -48q74 -34 117 -78q98 -102 98 -269q0 -194 -141 -311q-144 -117 -375 -117zM471 1544h-139l192 211h152l188 -211h-143l-123 139h-4z" />
    <glyph glyph-name="scircumflex" unicode="&#x15d;" horiz-adv-x="923" 
d="M350 1221h-135l174 217h152l170 -217h-142l-106 145h-4zM477 -29q-200 0 -313.5 97t-124.5 262h129q27 -250 311 -250q128 0 198.5 55t70.5 150q0 87 -58 127q-56 39 -225 77q-102 24 -157 43.5t-113 51.5q-117 64 -117 211q0 130 101.5 208t266.5 78q354 0 394 -313
h-127q-21 209 -267 209q-116 0 -178.5 -48t-62.5 -128q0 -84 65 -119q64 -37 238 -78q196 -42 278 -102q88 -64 88 -215q0 -143 -107.5 -229.5t-289.5 -86.5z" />
    <glyph glyph-name="Scedilla" unicode="&#x15e;" horiz-adv-x="1226" 
d="M553 -383q-119 0 -199 51l31 56q73 -29 141 -29q117 0 117 72q0 57 -84 57q-44 0 -82 -14l-28 47l120 120q-240 17 -375.5 150t-146.5 348h137q10 -184 130 -285.5t327 -101.5q169 0 272 81.5t103 225.5q0 145 -96 207q-96 60 -355 113q-120 23 -202 53t-142 75.5
t-88.5 110t-28.5 152.5q0 171 136 280q134 107 354 107q230 0 362.5 -113.5t153.5 -314.5h-133q-19 151 -119.5 232t-261.5 81q-165 0 -261.5 -72.5t-96.5 -195.5q0 -122 92 -178q86 -57 305 -98q112 -21 174.5 -38t130.5 -48q74 -34 117 -78q98 -102 98 -269
q0 -188 -133 -303q-134 -116 -354 -125l-86 -75v-4q72 6 123 -28t51 -99q0 -71 -54.5 -110.5t-148.5 -39.5z" />
    <glyph glyph-name="scedilla" unicode="&#x15f;" horiz-adv-x="923" 
d="M414 -383q-119 0 -199 51l31 56q72 -29 141 -29q117 0 117 72q0 57 -84 57q-44 0 -82 -14l-29 47l117 116q-177 12 -278 108.5t-109 248.5h129q27 -250 311 -250q128 0 198.5 55t70.5 150q0 87 -58 127q-56 39 -225 77q-102 24 -157 43.5t-113 51.5q-117 64 -117 211
q0 130 101.5 208t266.5 78q354 0 394 -313h-127q-21 209 -267 209q-116 0 -178.5 -48t-62.5 -128q0 -84 65 -119q64 -37 238 -78q196 -42 278 -102q88 -64 88 -215q0 -134 -92.5 -218t-253.5 -96l-86 -75v-4q72 6 123 -28t51 -99q0 -71 -54.5 -110.5t-147.5 -39.5z" />
    <glyph glyph-name="Scaron" unicode="&#x160;" horiz-adv-x="1226" 
d="M639 -27q-271 0 -425.5 135.5t-166.5 366.5h137q10 -184 130 -285.5t327 -101.5q169 0 272 81.5t103 225.5q0 145 -96 207q-96 60 -355 113q-120 23 -202 53t-142 75.5t-88.5 110t-28.5 152.5q0 171 136 280q134 107 354 107q230 0 362.5 -113.5t153.5 -314.5h-133
q-19 151 -119.5 232t-261.5 81q-165 0 -261.5 -72.5t-96.5 -195.5q0 -122 92 -178q86 -57 305 -98q112 -21 174.5 -38t130.5 -48q74 -34 117 -78q98 -102 98 -269q0 -194 -141 -311q-144 -117 -375 -117zM672 1544h-152l-188 211h143l123 -137h4l123 137h139z" />
    <glyph glyph-name="scaron" unicode="&#x161;" horiz-adv-x="923" 
d="M537 1221h-152l-170 217h141l107 -146h4l108 146h136zM477 -29q-200 0 -313.5 97t-124.5 262h129q27 -250 311 -250q128 0 198.5 55t70.5 150q0 87 -58 127q-56 39 -225 77q-102 24 -157 43.5t-113 51.5q-117 64 -117 211q0 130 101.5 208t266.5 78q354 0 394 -313h-127
q-21 209 -267 209q-116 0 -178.5 -48t-62.5 -128q0 -84 65 -119q64 -37 238 -78q196 -42 278 -102q88 -64 88 -215q0 -143 -107.5 -229.5t-289.5 -86.5z" />
    <glyph glyph-name="Tcommaaccent" unicode="&#x162;" horiz-adv-x="1204" 
d="M528 -438v67q68 27 68 113v2h-64v162h142v-160q0 -163 -146 -184zM672 0h-137v1341h-496v123h1126v-123h-493v-1341z" />
    <glyph glyph-name="tcommaaccent" unicode="&#x163;" horiz-adv-x="577" 
d="M254 -438v67q68 27 68 113v2h-64v162h141v-160q0 -163 -145 -184zM397 -8q-202 0 -202 190v772h-160v105h160v325h127v-325h196v-105h-196v-751q0 -55 23.5 -78t78.5 -23q42 0 84 17h6v-109q-52 -18 -117 -18z" />
    <glyph glyph-name="Tcaron" unicode="&#x164;" horiz-adv-x="1204" 
d="M676 1544h-152l-188 211h143l123 -137h4l123 137h139zM672 0h-137v1341h-496v123h1126v-123h-493v-1341z" />
    <glyph glyph-name="tcaron" unicode="&#x165;" horiz-adv-x="577" 
d="M397 -8q-202 0 -202 190v772h-160v105h160v325h127v-325h196v-105h-196v-751q0 -55 23.5 -78t78.5 -23q42 0 84 17h6v-109q-52 -18 -117 -18zM440 1145v67q68 21 68 103h-66v149h142v-149q0 -149 -144 -170z" />
    <glyph glyph-name="Tbar" unicode="&#x166;" horiz-adv-x="1204" 
d="M672 0h-137v729h-289v109h289v503h-496v123h1126v-123h-493v-503h286v-109h-286v-729z" />
    <glyph glyph-name="tbar" unicode="&#x167;" horiz-adv-x="577" 
d="M397 -8q-202 0 -202 190v443h-160v104h160v225h-160v105h160v325h127v-325h196v-105h-196v-225h196v-104h-196v-422q0 -55 23.5 -78t78.5 -23q42 0 84 17h6v-109q-52 -18 -117 -18z" />
    <glyph glyph-name="Utilde" unicode="&#x168;" horiz-adv-x="1302" 
d="M776 1556q-49 0 -133 41q-79 39 -108 39q-24 0 -40.5 -20.5t-17.5 -54.5h-100q15 178 151 178q54 0 131 -39q74 -39 107 -39q57 0 63 74h99q-5 -83 -45 -131t-107 -48zM647 -23q-252 0 -392 124t-140 364v999h137v-987q0 -381 401 -381q400 0 400 381v987h137v-999
q0 -241 -143.5 -364.5t-399.5 -123.5z" />
    <glyph glyph-name="utilde" unicode="&#x169;" horiz-adv-x="1013" 
d="M446 -25q-157 0 -252.5 90t-95.5 246v748h127v-740q0 -116 65 -176.5t185 -60.5q134 0 221 90q86 89 86 225v662h125v-1059h-125v156h-4q-67 -92 -143.5 -136.5t-188.5 -44.5zM635 1229q-49 0 -133 41q-79 39 -109 39q-24 0 -40 -20.5t-17 -55.5h-100q15 180 151 180
q54 0 131 -39q77 -41 107 -41q57 0 63 76h98q-5 -85 -44.5 -132.5t-106.5 -47.5z" />
    <glyph glyph-name="Umacron" unicode="&#x16a;" horiz-adv-x="1302" 
d="M905 1559h-508v114h508v-114zM647 -23q-252 0 -392 124t-140 364v999h137v-987q0 -381 401 -381q400 0 400 381v987h137v-999q0 -241 -143.5 -364.5t-399.5 -123.5z" />
    <glyph glyph-name="umacron" unicode="&#x16b;" horiz-adv-x="1013" 
d="M446 -25q-157 0 -252.5 90t-95.5 246v748h127v-740q0 -116 65 -176.5t185 -60.5q134 0 221 90q86 89 86 225v662h125v-1059h-125v156h-4q-67 -92 -143.5 -136.5t-188.5 -44.5zM764 1284h-508v115h508v-115z" />
    <glyph glyph-name="Ubreve" unicode="&#x16c;" horiz-adv-x="1302" 
d="M649 1546q-104 0 -173 60t-75 157h105q21 -108 143 -108q125 0 146 108h104q-6 -95 -75.5 -156t-174.5 -61zM647 -23q-252 0 -392 124t-140 364v999h137v-987q0 -381 401 -381q400 0 400 381v987h137v-999q0 -241 -143.5 -364.5t-399.5 -123.5z" />
    <glyph glyph-name="ubreve" unicode="&#x16d;" horiz-adv-x="1013" 
d="M446 -25q-157 0 -252.5 90t-95.5 246v748h127v-740q0 -116 65 -176.5t185 -60.5q134 0 221 90q86 89 86 225v662h125v-1059h-125v156h-4q-67 -92 -143.5 -136.5t-188.5 -44.5zM510 1219q-104 0 -173 62t-75 159h105q21 -113 143 -113q60 0 97 30t48 83h105
q-6 -95 -76 -158t-174 -63z" />
    <glyph glyph-name="Uring" unicode="&#x16e;" horiz-adv-x="1302" 
d="M647 -23q-252 0 -392 124t-140 364v999h137v-987q0 -381 401 -381q400 0 400 381v987h137v-999q0 -241 -143.5 -364.5t-399.5 -123.5zM582 1597q28 -31 70.5 -31t70.5 31t28 76t-28 76q-28 29 -70.5 29t-70.5 -29q-28 -31 -28 -76t28 -76zM778 1550q-52 -51 -126 -51
t-126 51t-52 123t52 123t126 51t126 -51t52 -123t-52 -123z" />
    <glyph glyph-name="uring" unicode="&#x16f;" horiz-adv-x="1013" 
d="M440 1266q28 -31 71 -31t71 31q28 29 28 73.5t-28 75.5q-28 29 -71 29t-71 -29q-28 -31 -28 -75.5t28 -73.5zM637 1217q-53 -51 -126 -51t-126 51t-53 122.5t53 122.5t126.5 51t125.5 -51q53 -51 53 -122.5t-53 -122.5zM446 -25q-157 0 -252.5 90t-95.5 246v748h127v-740
q0 -116 65 -176.5t185 -60.5q134 0 221 90q86 89 86 225v662h125v-1059h-125v156h-4q-67 -92 -143.5 -136.5t-188.5 -44.5z" />
    <glyph glyph-name="Uhungarumlaut" unicode="&#x170;" horiz-adv-x="1302" 
d="M647 -23q-252 0 -392 124t-140 364v999h137v-987q0 -381 401 -381q400 0 400 381v987h137v-999q0 -241 -143.5 -364.5t-399.5 -123.5zM571 1542h-102l76 240h139zM838 1542h-103l74 240h141z" />
    <glyph glyph-name="uhungarumlaut" unicode="&#x171;" horiz-adv-x="1013" 
d="M446 -25q-157 0 -252.5 90t-95.5 246v748h127v-740q0 -116 65 -176.5t185 -60.5q134 0 221 90q86 89 86 225v662h125v-1059h-125v156h-4q-67 -92 -143.5 -136.5t-188.5 -44.5zM428 1212h-102l75 261h140zM694 1212h-102l74 261h141z" />
    <glyph glyph-name="Uogonek" unicode="&#x172;" horiz-adv-x="1302" 
d="M743 -356q-91 0 -138.5 40.5t-47.5 110.5q0 100 113 182h-23q-252 0 -392 124t-140 364v999h137v-987q0 -381 401 -381q400 0 400 381v987h137v-999q0 -316 -264 -436q-11 -5 -44.5 -21.5t-45.5 -21.5q-23 -8 -76 -45q-80 -65 -80 -131q0 -70 84 -70q50 0 90 18h6v-88
q-48 -26 -117 -26z" />
    <glyph glyph-name="uogonek" unicode="&#x173;" horiz-adv-x="1013" 
d="M815 -356q-91 0 -138.5 40.5t-47.5 110.5q0 60 42.5 115.5t110.5 93.5v152h-4q-67 -92 -143.5 -136.5t-188.5 -44.5q-157 0 -252.5 90t-95.5 246v748h127v-740q0 -116 65 -176.5t185 -60.5q134 0 221 90q86 89 86 225v662h125v-1055q-153 -108 -153 -194q0 -72 82 -72
q46 0 90 20h6v-88q-48 -26 -117 -26z" />
    <glyph glyph-name="Wcircumflex" unicode="&#x174;" horiz-adv-x="1802" 
d="M559 0h-145l-389 1464h141l254 -987l67 -289h5q29 124 69 281l268 995h148l268 -993l68 -283h4q44 195 67 289l256 987h138l-398 -1464h-139l-278 1067l-58 238h-4q-25 -119 -55 -238zM772 1544h-139l192 211h152l188 -211h-143l-123 139h-4z" />
    <glyph glyph-name="wcircumflex" unicode="&#x175;" horiz-adv-x="1456" 
d="M612 1221h-135l174 217h152l170 -217h-142l-106 145h-4zM479 0h-143l-316 1059h134l184 -656l68 -276h4q46 192 67 266l180 666h138l174 -666l63 -266h4q38 155 74 276l197 656h129l-334 -1059h-139l-183 676l-55 239h-4q-23 -120 -55 -239z" />
    <glyph glyph-name="Ycircumflex" unicode="&#x176;" horiz-adv-x="1228" 
d="M682 0h-139v639l-529 825h152l446 -708h4l451 708h147l-532 -829v-635zM485 1544h-139l193 211h151l189 -211h-144l-123 139h-4z" />
    <glyph glyph-name="ycircumflex" unicode="&#x177;" horiz-adv-x="960" 
d="M217 -350q-52 0 -108 16v113h6q43 -15 96 -15q123 0 176 144l35 94l-408 1057h136l253 -684l84 -242h5q67 209 79 242l244 684h131l-436 -1170q-50 -134 -116 -186.5t-177 -52.5zM377 1221h-135l174 217h151l170 -217h-141l-107 145h-4z" />
    <glyph glyph-name="Ydieresis" unicode="&#x178;" horiz-adv-x="1228" 
d="M682 0h-139v639l-529 825h152l446 -708h4l451 708h147l-532 -829v-635zM514 1550h-123v176h123v-176zM834 1550h-123v176h123v-176z" />
    <glyph glyph-name="Zacute" unicode="&#x179;" horiz-adv-x="1214" 
d="M1147 0h-1094v133l895 1208v7h-839v116h1005v-116l-901 -1219v-6h934v-123zM653 1542h-110l135 234h168z" />
    <glyph glyph-name="zacute" unicode="&#x17a;" horiz-adv-x="915" 
d="M514 1212h-111l136 261h168zM864 0h-807v109l619 833v6h-578v111h748v-90l-631 -850v-6h649v-113z" />
    <glyph glyph-name="Zdotaccent" unicode="&#x17b;" horiz-adv-x="1214" 
d="M676 1550h-125v176h125v-176zM1147 0h-1094v133l895 1208v7h-839v116h1005v-116l-901 -1219v-6h934v-123z" />
    <glyph glyph-name="zdotaccent" unicode="&#x17c;" horiz-adv-x="915" 
d="M864 0h-807v109l619 833v6h-578v111h748v-90l-631 -850v-6h649v-113zM543 1284h-125v180h125v-180z" />
    <glyph glyph-name="Zcaron" unicode="&#x17d;" horiz-adv-x="1214" 
d="M686 1544h-151l-189 211h143l123 -137h4l123 137h140zM1147 0h-1094v133l895 1208v7h-839v116h1005v-116l-901 -1219v-6h934v-123z" />
    <glyph glyph-name="zcaron" unicode="&#x17e;" horiz-adv-x="915" 
d="M553 1221h-152l-170 217h142l106 -146h4l109 146h135zM864 0h-807v109l619 833v6h-578v111h748v-90l-631 -850v-6h649v-113z" />
    <glyph glyph-name="florin" unicode="&#x192;" horiz-adv-x="686" 
d="M-41 -303v106h37q126 0 141 119l111 795h-168v102h182l53 363q34 233 258 233q74 0 82 -2v-110q-6 2 -69 2q-69 0 -102 -32t-44 -106l-49 -348h209v-102h-223l-113 -803q-17 -116 -78 -168.5t-174 -52.5q-21 0 -53 4z" />
    <glyph glyph-name="AEacute" unicode="&#x1fc;" horiz-adv-x="1935" 
d="M1225 1542h-111l135 234h168zM162 0h-139l577 1464h1239v-121h-774v-526h700v-119h-700v-571h797v-127h-934v461h-586zM688 1343l-303 -770h543v770h-240z" />
    <glyph glyph-name="aeacute" unicode="&#x1fd;" horiz-adv-x="1724" 
d="M913 1212h-110l135 261h168zM412 -25q-163 0 -264 80.5t-101 220.5q0 182 133 248q64 33 131 49t174 27q169 18 228 45q55 24 55 100v17q0 217 -250 217q-269 0 -293 -236h-125q18 161 124 249.5t294 88.5q280 0 344 -204q120 206 369 206q159 0 268 -92
q177 -146 174 -485h-782q5 -196 95.5 -310t258.5 -114q229 0 293 237h123q-31 -161 -140.5 -253.5t-275.5 -92.5q-283 0 -405 236h-4q-72 -123 -173 -178.5t-251 -55.5zM430 78q159 0 250 94q90 93 90 211v184q-84 -44 -276 -65q-85 -8 -131.5 -18t-92.5 -33
q-48 -24 -69 -66.5t-21 -110.5q0 -99 67 -147.5t183 -48.5zM895 606h645q-5 171 -84.5 272t-224.5 101q-148 0 -233 -100t-103 -273z" />
    <glyph glyph-name="Oslashacute" unicode="&#x1fe;" horiz-adv-x="1511" 
d="M293 152l-168 -185l-68 62l174 192q-157 210 -157 512q0 332 188 547t492 215q278 0 467 -186l165 184l68 -61l-172 -191q156 -212 156 -508q0 -331 -189 -547q-188 -215 -495 -215q-277 0 -461 181zM324 322l809 890q-145 160 -379 160q-256 0 -396 -180
q-141 -182 -141 -459q0 -249 107 -411zM754 94q255 0 399 182q141 181 141 457q0 248 -106 408l-809 -893q151 -154 375 -154zM795 1542h-111l135 234h168z" />
    <glyph glyph-name="oslashacute" unicode="&#x1ff;" horiz-adv-x="1083" 
d="M211 102l-119 -133l-55 51l123 140q-109 151 -109 368q0 243 133 400q131 155 359 155q197 0 329 -129l117 131l58 -51l-125 -139q108 -144 108 -367q0 -242 -131 -397q-134 -158 -356 -158q-203 0 -332 129zM246 254l547 612q-94 111 -250 111q-172 0 -267 -127
q-94 -125 -94 -322q0 -161 64 -274zM543 80q169 0 264 127q94 125 94 321q0 164 -63 275l-549 -613q98 -110 254 -110zM575 1212h-110l135 261h168z" />
    <glyph glyph-name="Scommaaccent" unicode="&#x218;" horiz-adv-x="1226" 
d="M526 -438v67q68 27 68 113v2h-64v162h142v-160q0 -163 -146 -184zM639 -27q-271 0 -425.5 135.5t-166.5 366.5h137q10 -184 130 -285.5t327 -101.5q169 0 272 81.5t103 225.5q0 145 -96 207q-96 60 -355 113q-120 23 -202 53t-142 75.5t-88.5 110t-28.5 152.5
q0 171 136 280q134 107 354 107q230 0 362.5 -113.5t153.5 -314.5h-133q-19 151 -119.5 232t-261.5 81q-165 0 -261.5 -72.5t-96.5 -195.5q0 -122 92 -178q86 -57 305 -98q112 -21 174.5 -38t130.5 -48q74 -34 117 -78q98 -102 98 -269q0 -194 -141 -311
q-144 -117 -375 -117z" />
    <glyph glyph-name="scommaaccent" unicode="&#x219;" horiz-adv-x="923" 
d="M391 -438v67q68 27 68 113v2h-64v162h142v-160q0 -163 -146 -184zM477 -29q-200 0 -313.5 97t-124.5 262h129q27 -250 311 -250q128 0 198.5 55t70.5 150q0 87 -58 127q-56 39 -225 77q-102 24 -157 43.5t-113 51.5q-117 64 -117 211q0 130 101.5 208t266.5 78
q354 0 394 -313h-127q-21 209 -267 209q-116 0 -178.5 -48t-62.5 -128q0 -84 65 -119q64 -37 238 -78q196 -42 278 -102q88 -64 88 -215q0 -143 -107.5 -229.5t-289.5 -86.5z" />
    <glyph glyph-name="uni021A" unicode="&#x21a;" horiz-adv-x="1204" 
d="M528 -438v67q68 27 68 113v2h-64v162h142v-160q0 -163 -146 -184zM672 0h-137v1341h-496v123h1126v-123h-493v-1341z" />
    <glyph glyph-name="uni021B" unicode="&#x21b;" horiz-adv-x="577" 
d="M397 -8q-202 0 -202 190v772h-160v105h160v325h127v-325h196v-105h-196v-751q0 -55 23.5 -78t78.5 -23q42 0 84 17h6v-109q-52 -18 -117 -18zM254 -438v67q68 27 68 113v2h-64v162h141v-160q0 -163 -145 -184z" />
    <glyph glyph-name="uni0237" unicode="&#x237;" horiz-adv-x="346" 
d="M-41 -322v107h2q6 -2 35 -2q115 0 115 121v1155h127v-1161q0 -119 -56 -170.5t-170 -51.5q-47 0 -53 2z" />
    <glyph glyph-name="circumflex" unicode="&#x2c6;" 
d="M399 1221h-135l174 217h152l170 -217h-142l-106 145h-4z" />
    <glyph glyph-name="caron" unicode="&#x2c7;" 
d="M586 1221h-152l-170 217h142l106 -146h4l109 146h135z" />
    <glyph glyph-name="uni02C9" unicode="&#x2c9;" 
d="M766 1284h-508v115h508v-115z" />
    <glyph glyph-name="breve" unicode="&#x2d8;" 
d="M535 1219q-104 0 -173 62t-75 159h104q21 -113 144 -113q60 0 97 30t48 83h104q-6 -95 -75.5 -158t-173.5 -63z" />
    <glyph glyph-name="dotaccent" unicode="&#x2d9;" horiz-adv-x="1048" 
d="M586 1284h-125v180h125v-180z" />
    <glyph glyph-name="ring" unicode="&#x2da;" horiz-adv-x="1042" 
d="M451 1266q28 -31 70.5 -31t70.5 31q28 29 28 73.5t-28 75.5q-28 29 -70.5 29t-70.5 -29q-28 -31 -28 -75.5t28 -73.5zM647 1217q-53 -51 -126 -51t-126 51t-53 122.5t53 122.5t126 51t126 -51t53 -122.5t-53 -122.5z" />
    <glyph glyph-name="ogonek" unicode="&#x2db;" 
d="M469 -356q-91 0 -138.5 40.5t-47.5 110.5q0 61 45 116t114 89h113q-149 -107 -149 -190q0 -70 83 -70q51 0 91 18h6v-88q-48 -26 -117 -26z" />
    <glyph glyph-name="tilde" unicode="&#x2dc;" 
d="M635 1229q-49 0 -133 41q-79 39 -109 39q-24 0 -40 -20.5t-17 -55.5h-100q15 180 151 180q54 0 131 -39q77 -41 107 -41q57 0 63 76h98q-5 -85 -44.5 -132.5t-106.5 -47.5z" />
    <glyph glyph-name="hungarumlaut" unicode="&#x2dd;" 
d="M403 1212h-102l76 261h139zM670 1212h-103l74 261h141z" />
    <glyph glyph-name="pi" unicode="&#x3c0;" horiz-adv-x="1187" 
d="M1022 -8q-95 0 -148 48t-53 142v772h-487v-954h-127v954h-166v105h1081v-105h-176v-751q0 -55 25 -78t80 -23q33 0 75 17h7v-109q-49 -18 -111 -18z" />
    <glyph glyph-name="Wgrave" unicode="&#x1e80;" horiz-adv-x="1802" 
d="M973 1542h-111l-192 234h168zM559 0h-145l-389 1464h141l254 -987l67 -289h5q29 124 69 281l268 995h148l268 -993l68 -283h4q44 195 67 289l256 987h138l-398 -1464h-139l-278 1067l-58 238h-4q-25 -119 -55 -238z" />
    <glyph glyph-name="wgrave" unicode="&#x1e81;" horiz-adv-x="1456" 
d="M479 0h-143l-316 1059h134l184 -656l68 -276h4q46 192 67 266l180 666h138l174 -666l63 -266h4q38 155 74 276l197 656h129l-334 -1059h-139l-183 676l-55 239h-4q-23 -120 -55 -239zM807 1212h-111l-192 261h168z" />
    <glyph glyph-name="Wacute" unicode="&#x1e82;" horiz-adv-x="1802" 
d="M940 1542h-111l136 234h168zM559 0h-145l-389 1464h141l254 -987l67 -289h5q29 124 69 281l268 995h148l268 -993l68 -283h4q44 195 67 289l256 987h138l-398 -1464h-139l-278 1067l-58 238h-4q-25 -119 -55 -238z" />
    <glyph glyph-name="wacute" unicode="&#x1e83;" horiz-adv-x="1456" 
d="M760 1212h-111l135 261h168zM479 0h-143l-316 1059h134l184 -656l68 -276h4q46 192 67 266l180 666h138l174 -666l63 -266h4q38 155 74 276l197 656h129l-334 -1059h-139l-183 676l-55 239h-4q-23 -120 -55 -239z" />
    <glyph glyph-name="Wdieresis" unicode="&#x1e84;" horiz-adv-x="1802" 
d="M801 1550h-123v176h123v-176zM1120 1550h-123v176h123v-176zM559 0h-145l-389 1464h141l254 -987l67 -289h5q29 124 69 281l268 995h148l268 -993l68 -283h4q44 195 67 289l256 987h138l-398 -1464h-139l-278 1067l-58 238h-4q-25 -119 -55 -238z" />
    <glyph glyph-name="wdieresis" unicode="&#x1e85;" horiz-adv-x="1456" 
d="M627 1284h-123v176h123v-176zM946 1284h-123v176h123v-176zM479 0h-143l-316 1059h134l184 -656l68 -276h4q46 192 67 266l180 666h138l174 -666l63 -266h4q38 155 74 276l197 656h129l-334 -1059h-139l-183 676l-55 239h-4q-23 -120 -55 -239z" />
    <glyph glyph-name="Ygrave" unicode="&#x1ef2;" horiz-adv-x="1228" 
d="M682 0h-139v639l-529 825h152l446 -708h4l451 708h147l-532 -829v-635zM686 1542h-111l-192 234h168z" />
    <glyph glyph-name="ygrave" unicode="&#x1ef3;" horiz-adv-x="960" 
d="M217 -350q-52 0 -108 16v113h6q43 -15 96 -15q123 0 176 144l35 94l-408 1057h136l253 -684l84 -242h5q67 209 79 242l244 684h131l-436 -1170q-50 -134 -116 -186.5t-177 -52.5zM569 1212h-110l-193 261h168z" />
    <glyph glyph-name="uni2009" unicode="&#x2009;" horiz-adv-x="112" 
 />
    <glyph glyph-name="endash" unicode="&#x2013;" horiz-adv-x="1021" 
d="M936 467h-850v108h850v-108z" />
    <glyph glyph-name="emdash" unicode="&#x2014;" horiz-adv-x="1570" 
d="M1485 467h-1399v108h1399v-108z" />
    <glyph glyph-name="quoteleft" unicode="&#x2018;" horiz-adv-x="313" 
d="M227 1085h-141v187q0 175 143 196v-67q-65 -27 -65 -123v-16h63v-177z" />
    <glyph glyph-name="quoteright" unicode="&#x2019;" horiz-adv-x="313" 
d="M84 1081v68q66 28 66 125v14h-64v176h141v-186q0 -176 -143 -197z" />
    <glyph glyph-name="quotesinglbase" unicode="&#x201a;" horiz-adv-x="313" 
d="M84 -207v68q66 28 66 123v16h-64v176h141v-186q0 -176 -143 -197z" />
    <glyph glyph-name="quotedblleft" unicode="&#x201c;" horiz-adv-x="577" 
d="M227 1085h-141v187q0 175 143 196v-67q-65 -27 -65 -123v-16h63v-177zM492 1085h-144v187q0 175 144 196v-67q-66 -28 -66 -123v-16h66v-177z" />
    <glyph glyph-name="quotedblright" unicode="&#x201d;" horiz-adv-x="577" 
d="M84 1081v68q66 28 66 125v14h-64v176h141v-186q0 -176 -143 -197zM346 1081v68q66 28 66 125v14h-64v176h144v-186q0 -176 -146 -197z" />
    <glyph glyph-name="quotedblbase" unicode="&#x201e;" horiz-adv-x="577" 
d="M84 -207v68q66 28 66 123v16h-64v176h141v-186q0 -176 -143 -197zM346 -207v68q66 28 66 123v16h-64v176h144v-186q0 -176 -146 -197z" />
    <glyph glyph-name="dagger" unicode="&#x2020;" horiz-adv-x="1056" 
d="M592 -213h-127v1165h-389v113h389v399h127v-399h389v-113h-389v-1165z" />
    <glyph glyph-name="daggerdbl" unicode="&#x2021;" horiz-adv-x="1056" 
d="M592 -213h-127v399h-389v113h389v653h-389v113h389v399h127v-399h389v-113h-389v-653h389v-113h-389v-399z" />
    <glyph glyph-name="bullet" unicode="&#x2022;" horiz-adv-x="589" 
d="M297 446q-92 0 -157.5 64.5t-65.5 155.5t65.5 156t157.5 65q91 0 155 -65t64 -156t-64 -155.5t-155 -64.5z" />
    <glyph glyph-name="ellipsis" unicode="&#x2026;" horiz-adv-x="1128" 
d="M242 0h-156v178h156v-178zM641 0h-154v178h154v-178zM1042 0h-153v178h153v-178z" />
    <glyph glyph-name="perthousand" unicode="&#x2030;" horiz-adv-x="2326" 
d="M377 731q89 0 141.5 79.5t52.5 223.5q0 139 -54 220t-140 81q-89 0 -142 -78.5t-53 -222.5q0 -140 53.5 -221.5t141.5 -81.5zM377 635q-141 0 -228.5 108t-87.5 291q0 182 91 293q88 107 225 107q135 0 223 -107t88 -293q0 -182 -86.5 -290.5t-224.5 -108.5zM451 0h-113
l809 1403h110zM1221 70q89 0 141.5 78.5t52.5 222.5q0 140 -53.5 221.5t-140.5 81.5q-88 0 -141.5 -80t-53.5 -223q0 -139 54 -220t141 -81zM1221 -29q-139 0 -226.5 109t-87.5 291q0 183 88 291t226 108t225.5 -107t87.5 -292q0 -183 -86 -291.5t-227 -108.5zM1952 70
q89 0 141.5 78.5t52.5 222.5q0 140 -53.5 221.5t-140.5 81.5q-89 0 -142 -79.5t-53 -223.5q0 -140 53.5 -220.5t141.5 -80.5zM1952 -29q-141 0 -228.5 108.5t-87.5 291.5q0 182 89 290.5t227 108.5t225.5 -107t87.5 -292q0 -182 -87.5 -291t-225.5 -109z" />
    <glyph glyph-name="uni2032" unicode="&#x2032;" horiz-adv-x="339" 
d="M188 1026h-120l84 438h120z" />
    <glyph glyph-name="uni2033" unicode="&#x2033;" horiz-adv-x="606" 
d="M188 1026h-120l84 438h120zM457 1026h-121l82 438h121z" />
    <glyph glyph-name="guilsinglleft" unicode="&#x2039;" horiz-adv-x="514" 
d="M399 389v-141l-284 231v154l284 231v-141l-213 -166v-4z" />
    <glyph glyph-name="guilsinglright" unicode="&#x203a;" horiz-adv-x="514" 
d="M399 479l-284 -231v141l211 166v4l-211 164v141l284 -231v-154z" />
    <glyph glyph-name="fraction" unicode="&#x2044;" horiz-adv-x="374" 
d="M-250 0h-125l1002 1464h123z" />
    <glyph glyph-name="Euro" unicode="&#x20ac;" horiz-adv-x="1236" 
d="M700 -29q-204 0 -342.5 148.5t-175.5 406.5h-137v95h127q-2 16 -2 79q0 60 2 78h-127v94h137q35 255 174 410q140 152 349 152q180 0 299.5 -111t148.5 -303h-129q-55 301 -322 301q-161 0 -258 -117t-127 -332h431v-94h-437q-2 -18 -2 -78q0 -63 2 -79h437v-95h-429
q30 -210 128.5 -325t257.5 -115q152 0 240.5 107.5t107.5 298.5h123q-12 -231 -140 -377q-129 -144 -336 -144z" />
    <glyph glyph-name="uni2113" unicode="&#x2113;" horiz-adv-x="649" 
d="M387 -8q-242 0 -242 254v145q-68 -28 -110 -35v99q67 20 110 39v731q0 120 59 188t167 68q211 0 211 -291q0 -528 -310 -733v-201q0 -83 29.5 -119.5t97.5 -36.5q80 0 136 39h6v-106q-65 -41 -154 -41zM272 1225v-652q46 43 70 84q127 177 127 535q0 188 -96 188
q-101 0 -101 -155z" />
    <glyph glyph-name="trademark" unicode="&#x2122;" horiz-adv-x="1302" 
d="M725 879h-88v585h137l148 -469h2l147 469h139v-585h-88v471h-4q-29 -101 -57 -187l-92 -284h-92l-93 284l-55 187h-4v-471zM350 879h-94v503h-188v82h471v-82h-189v-503z" />
    <glyph glyph-name="Omega" unicode="&#x2126;" horiz-adv-x="1454" 
d="M625 0h-541v119h319v4q-156 86 -242.5 253.5t-86.5 383.5q0 328 180 532q182 203 471 203q291 0 473 -203q182 -206 182 -532q0 -216 -86.5 -383.5t-242.5 -253.5v-4h319v-119h-541v121q201 53 306 229q102 176 102 414q0 270 -135 440q-134 168 -377 168
q-244 0 -375 -168q-133 -171 -133 -440q0 -240 107 -414q106 -177 301 -229v-121z" />
    <glyph glyph-name="estimated" unicode="&#x212e;" horiz-adv-x="1271" 
d="M670 -23q-286 0 -449 181q-162 180 -162 475q0 289 168 469q170 182 432 182q210 0 355 -121q199 -169 196 -547h-882v-430q123 -123 342 -123q336 0 438 318h94q-42 -187 -180.5 -295.5t-351.5 -108.5zM328 1079v-385h620v412q-101 98 -289 98q-212 0 -331 -125z" />
    <glyph glyph-name="onethird" unicode="&#x2153;" horiz-adv-x="1646" 
d="M373 639h-117v598h-188v80q96 2 146 37.5t62 115.5h97v-831zM283 0h-125l1001 1464h123zM1282 -16q-140 0 -225 77t-84 205h110q9 -188 195 -188q86 0 133 42t47 120q0 72 -48 111.5t-136 39.5h-55v90h53q75 0 117.5 36t42.5 99q0 65 -41.5 101.5t-110.5 36.5
q-78 0 -122.5 -47.5t-49.5 -128.5h-109q2 120 78.5 193t204.5 73q117 0 189.5 -60.5t72.5 -162.5q0 -131 -129 -177v-4q162 -43 162 -211q0 -114 -82 -179.5t-213 -65.5z" />
    <glyph glyph-name="twothirds" unicode="&#x2154;" horiz-adv-x="1744" 
d="M637 639h-571q3 137 88 225q39 41 71.5 66.5t93.5 66.5q6 3 45 29t46 31q13 7 37 25.5t32 29.5q43 62 43 117q0 73 -41.5 114t-111.5 41q-80 0 -125.5 -50t-46.5 -146h-111q0 139 77.5 216t209.5 77q117 0 192.5 -71.5t75.5 -178.5q0 -106 -68 -174q-45 -42 -63 -53
q-35 -26 -82 -54q-4 -2 -11.5 -7.5t-10.5 -6.5q-75 -45 -123 -84q-65 -53 -80 -117h434v-96zM449 0h-125l1001 1464h123zM1378 -16q-140 0 -225 77t-84 205h111q9 -188 194 -188q86 0 133 42t47 120q0 72 -48 111.5t-136 39.5h-55v90h53q75 0 117.5 36t42.5 99
q0 65 -41.5 101.5t-110.5 36.5q-78 0 -122.5 -47.5t-49.5 -128.5h-108q2 120 78 193t204 73q117 0 189.5 -60.5t72.5 -162.5q0 -131 -129 -177v-4q162 -43 162 -211q0 -114 -82 -179.5t-213 -65.5z" />
    <glyph glyph-name="oneeighth" unicode="&#x215b;" horiz-adv-x="1615" 
d="M373 639h-117v598h-188v80q96 2 146 37.5t62 115.5h97v-831zM266 0h-125l1002 1464h123zM1233 -14q-135 0 -225 68.5t-90 183.5q0 156 159 215v4q-119 52 -119 172q0 97 77 157t196 60q121 0 196.5 -59.5t75.5 -153.5q0 -122 -119 -174v-4q73 -25 116.5 -81.5
t43.5 -133.5q0 -119 -87 -186.5t-224 -67.5zM1233 76q87 0 140.5 46t53.5 116q0 76 -52.5 122t-143.5 46q-90 0 -142.5 -46t-52.5 -122q0 -74 52.5 -118t144.5 -44zM1114 526q40 -37 117 -37t119 39q41 38 41 97q0 61 -43 97t-117 36q-73 0 -115.5 -36.5t-42.5 -96.5
q0 -61 41 -99z" />
    <glyph glyph-name="threeeighths" unicode="&#x215c;" horiz-adv-x="1753" 
d="M371 621q-140 0 -225.5 77t-84.5 205h111q9 -186 195 -186q86 0 133 42.5t47 117.5q0 73 -48.5 113t-136.5 40h-55v90h53q75 0 117.5 36t42.5 99t-41.5 100.5t-109.5 37.5q-78 0 -122.5 -48t-49.5 -131h-109q2 122 77.5 194.5t205.5 72.5q116 0 189 -61t73 -160
q0 -130 -129 -177v-4q162 -43 162 -211q0 -115 -81.5 -181t-213.5 -66zM422 0h-125l1001 1464h123zM1370 -14q-135 0 -225 68.5t-90 183.5q0 156 159 215v4q-118 52 -118 172q0 97 77 157t195 60q121 0 196.5 -59.5t75.5 -153.5q0 -122 -118 -174v-4q73 -25 116 -81.5
t43 -133.5q0 -119 -87 -186.5t-224 -67.5zM1370 76q87 0 141 46t54 116q0 76 -53 122t-144 46q-90 0 -142 -46t-52 -122q0 -74 52.5 -118t143.5 -44zM1251 526q40 -37 117 -37t119 39q41 38 41 97q0 61 -43 97t-117 36q-73 0 -115.5 -36.5t-42.5 -96.5q0 -61 41 -99z" />
    <glyph glyph-name="fiveeighths" unicode="&#x215d;" horiz-adv-x="1728" 
d="M360 621q-128 0 -210 67.5t-89 179.5h115q18 -149 182 -149q81 0 129 51.5t48 138.5q0 84 -48 133.5t-127 49.5q-111 0 -165 -72h-107l76 444h446v-98h-366l-41 -240h2q71 62 180 62q113 0 190.5 -77.5t77.5 -203.5q0 -127 -82 -206.5t-211 -79.5zM416 0h-125l1001 1464
h123zM1346 -14q-135 0 -225.5 68.5t-90.5 183.5q0 156 160 215v4q-119 52 -119 172q0 97 77 157t195 60q121 0 197 -59.5t76 -153.5q0 -122 -119 -174v-4q73 -25 116.5 -81.5t43.5 -133.5q0 -119 -87 -186.5t-224 -67.5zM1346 76q87 0 140.5 46t53.5 116q0 76 -53 122
t-144 46q-90 0 -142 -46t-52 -122q0 -74 52.5 -118t144.5 -44zM1227 526q40 -37 116 -37q77 0 119 39q41 38 41 97q0 61 -43 97t-117 36q-73 0 -115 -36t-42 -97t41 -99z" />
    <glyph glyph-name="seveneighths" unicode="&#x215e;" horiz-adv-x="1619" 
d="M260 0h-125l1002 1464h123zM1237 -14q-135 0 -225 68.5t-90 183.5q0 156 159 215v4q-118 52 -118 172q0 97 77 157t195 60q121 0 196.5 -59.5t75.5 -153.5q0 -122 -118 -174v-4q73 -25 116 -81.5t43 -133.5q0 -119 -87 -186.5t-224 -67.5zM1237 76q87 0 141 46t54 116
q0 76 -53 122t-144 46q-90 0 -142.5 -46t-52.5 -122q0 -74 52.5 -118t144.5 -44zM1118 526q40 -37 117 -37t119 39q41 38 41 97q0 61 -43 97t-117 36q-73 0 -115.5 -36.5t-42.5 -96.5q0 -61 41 -99zM311 639h-121q9 203 103 405q89 195 215 318v2h-451v100h572v-96
q-133 -129 -219 -319.5t-99 -409.5z" />
    <glyph glyph-name="partialdiff" unicode="&#x2202;" horiz-adv-x="1058" 
d="M498 -27q-195 0 -310 127q-114 126 -114 326q0 239 131 391q134 152 338 152q205 0 301 -158q-76 488 -563 553v113q195 -20 339 -99t222 -204q143 -230 143 -562q0 -281 -125 -458q-126 -181 -362 -181zM500 80q157 0 252 135q96 134 96 315q0 148 -81.5 239t-219.5 91
q-154 0 -246 -121q-94 -119 -94 -313q0 -153 76 -249.5t217 -96.5z" />
    <glyph glyph-name="increment" unicode="&#x2206;" horiz-adv-x="1298" 
d="M571 1122l-391 -1007h932l-389 1007l-74 213h-4q-42 -132 -74 -213zM1255 0h-1212v117l526 1347h156l530 -1349v-115z" />
    <glyph glyph-name="product" unicode="&#x220f;" horiz-adv-x="1357" 
d="M279 -205h-138v1669h1076v-1669h-138v1546h-800v-1546z" />
    <glyph glyph-name="summation" unicode="&#x2211;" horiz-adv-x="1210" 
d="M1135 -205h-1051v123l618 741v5l-618 665v135h1042v-121h-878v-4l596 -637v-71l-602 -709v-4h893v-123z" />
    <glyph glyph-name="minus" unicode="&#x2212;" horiz-adv-x="1085" 
d="M973 612h-860v111h860v-111z" />
    <glyph glyph-name="uni2215" unicode="&#x2215;" horiz-adv-x="374" 
d="M-250 0h-125l1002 1464h123z" />
    <glyph glyph-name="uni2219" unicode="&#x2219;" horiz-adv-x="327" 
d="M244 549h-156v178h156v-178z" />
    <glyph glyph-name="radical" unicode="&#x221a;" horiz-adv-x="1155" 
d="M608 -205h-141l-289 721h-151v115h247l168 -436l90 -261h5q41 156 75 267l392 1263h129z" />
    <glyph glyph-name="infinity" unicode="&#x221e;" horiz-adv-x="1464" 
d="M383 272q-144 0 -225.5 99.5t-81.5 253.5t81.5 252t225.5 98q198 0 354 -252q78 126 158 189t184 63q141 0 225.5 -96t84.5 -254q0 -160 -84.5 -256.5t-225.5 -96.5q-104 0 -184 63t-158 189q-156 -252 -354 -252zM389 383q81 0 145 58t136 182q-72 125 -136 184t-145 59
q-91 0 -139.5 -66.5t-48.5 -174.5q0 -109 48.5 -175.5t139.5 -66.5zM1073 383q91 0 141 66.5t50 175.5q0 108 -50 174.5t-141 66.5q-74 0 -132.5 -57.5t-133.5 -185.5q51 -87 82 -128t78 -75q52 -37 106 -37z" />
    <glyph glyph-name="integral" unicode="&#x222b;" horiz-adv-x="729" 
d="M172 -360q-76 0 -131 22v111h6q46 -21 107 -21q139 0 139 150v1355q0 122 67.5 191.5t178.5 69.5q75 0 131 -21v-113h-6q-46 21 -107 21q-137 0 -137 -150v-1355q0 -125 -67.5 -192.5t-180.5 -67.5z" />
    <glyph glyph-name="approxequal" unicode="&#x2248;" horiz-adv-x="1085" 
d="M203 365h-111q6 105 62 162t151 57q80 0 234 -49q158 -50 215 -50q110 0 116 111h109q-12 -221 -219 -221q-85 0 -242 49q-162 49 -211 49q-98 0 -104 -108zM203 672h-111q6 105 62.5 163t150.5 58q80 0 234 -49t215 -49q110 0 116 108h109q-6 -107 -61.5 -163
t-157.5 -56q-85 0 -242 49q-162 49 -211 49q-98 0 -104 -110z" />
    <glyph glyph-name="notequal" unicode="&#x2260;" horiz-adv-x="1085" 
d="M389 176h-115l113 242h-274v108h323l105 219h-428v109h477l106 225h115l-106 -225h268v-109h-318l-104 -219h422v-108h-471z" />
    <glyph glyph-name="lessequal" unicode="&#x2264;" horiz-adv-x="1021" 
d="M911 352v-121l-809 342v138l809 342v-121l-702 -287v-4zM911 0h-809v109h809v-109z" />
    <glyph glyph-name="greaterequal" unicode="&#x2265;" horiz-adv-x="1021" 
d="M920 573l-809 -342v121l702 289v4l-702 287v121l809 -342v-138zM920 0h-809v109h809v-109z" />
    <glyph glyph-name="uni24C5" unicode="&#x24c5;" horiz-adv-x="1662" 
d="M674 291h-119v864h354q141 0 213 -78q66 -66 66 -178q0 -122 -73 -189t-208 -67h-233v-352zM674 1055v-316h217q178 0 178 158t-172 158h-223zM360 233q187 -196 471 -196q287 0 474 196q186 195 186 494q0 301 -186 496q-187 196 -474 196q-284 0 -471 -196
q-188 -197 -188 -496q0 -297 188 -494zM1364 182q-214 -217 -533 -217q-318 0 -532 217q-215 218 -215 545q0 329 215 547q214 217 532 217q319 0 533 -217q215 -218 215 -547q0 -327 -215 -545z" />
    <glyph glyph-name="lozenge" unicode="&#x25ca;" horiz-adv-x="1085" 
d="M209 735l334 -606h4l330 598l-334 608h-4zM612 0h-135l-414 731l412 733h135l412 -735z" />
    <glyph glyph-name="uniF8FF" unicode="&#xf8ff;" horiz-adv-x="1732" 
d="M719 588v-346h295v346h344v295h-344v334h-295v-334h-344v-295h344zM1599 0h-1466v1466h1466v-1466z" />
    <glyph glyph-name="null" horiz-adv-x="0" 
 />
    <glyph glyph-name="idotaccent" horiz-adv-x="346" 
d="M238 0h-127v1059h127v-1059zM238 1284h-127v180h127v-180z" />
    <glyph glyph-name="grave.cap" 
d="M596 1542h-111l-192 234h168z" />
    <glyph glyph-name="acute.cap" 
d="M539 1542h-111l135 234h168z" />
    <glyph glyph-name="circumflex.cap" 
d="M385 1544h-139l192 211h152l188 -211h-143l-123 139h-4z" />
    <glyph glyph-name="caron.cap" 
d="M586 1544h-152l-188 211h143l123 -137h4l123 137h139z" />
    <glyph glyph-name="caron.alt" 
d="M438 1130v68q68 27 68 107v4h-66v155h144v-155q0 -158 -146 -179z" />
    <glyph glyph-name="tilde.cap" 
d="M635 1556q-49 0 -133 41q-79 39 -109 39q-24 0 -40 -20t-17 -55h-100q15 178 151 178q54 0 131 -39q74 -39 107 -39q57 0 63 74h98q-5 -83 -44.5 -131t-106.5 -48z" />
    <glyph glyph-name="dieresis.cap" horiz-adv-x="1048" 
d="M426 1550h-123v176h123v-176zM745 1550h-122v176h122v-176z" />
    <glyph glyph-name="macron.cap" 
d="M766 1559h-508v114h508v-114z" />
    <glyph glyph-name="breve.cap" 
d="M535 1546q-104 0 -173 60t-75 157h104q21 -108 144 -108q124 0 145 108h104q-6 -95 -75 -156t-174 -61z" />
    <glyph glyph-name="ring.cap" horiz-adv-x="1042" 
d="M451 1622q28 -31 70.5 -31t70.5 31t28 76t-28 76q-28 29 -70.5 29t-70.5 -29q-28 -31 -28 -76t28 -76zM647 1575q-53 -51 -126 -51t-126 51t-53 123t53 123t126 51t126 -51t53 -123t-53 -123z" />
    <glyph glyph-name="hungarumlaut.cap" 
d="M403 1542h-102l76 240h139zM670 1542h-103l74 240h141z" />
    <glyph glyph-name="dotaccent.cap" horiz-adv-x="1048" 
d="M586 1550h-125v176h125v-176z" />
    <glyph glyph-name="space_uni0326" 
d="M438 -438v67q68 27 68 113v2h-64v162h142v-160q0 -163 -146 -184z" />
    <glyph glyph-name="space_uni0326.alt" 
d="M582 1229h-142v160q0 163 146 184v-68q-68 -27 -68 -112v-2h64v-162z" />
    <glyph glyph-name="R.alt" horiz-adv-x="1265" 
d="M268 0h-137v1464h596q221 0 342 -127q102 -108 102 -282q0 -154 -75.5 -256t-216.5 -140l348 -659h-152l-332 641h-475v-641zM268 1343v-585h434q332 0 332 293q0 142 -83 217t-242 75h-441z" />
    <glyph glyph-name="Racute.alt" horiz-adv-x="1265" 
d="M268 0h-137v1464h596q221 0 342 -127q102 -108 102 -282q0 -154 -75.5 -256t-216.5 -140l348 -659h-152l-332 641h-475v-641zM268 1343v-585h434q332 0 332 293q0 142 -83 217t-242 75h-441zM657 1542h-110l135 234h168z" />
    <glyph glyph-name="Rcaron.alt" horiz-adv-x="1265" 
d="M268 0h-137v1464h596q221 0 342 -127q102 -108 102 -282q0 -154 -75.5 -256t-216.5 -140l348 -659h-152l-332 641h-475v-641zM268 1343v-585h434q332 0 332 293q0 142 -83 217t-242 75h-441zM690 1544h-151l-189 211h144l122 -137h5l122 137h140z" />
    <glyph glyph-name="Rcommaaccent.alt" horiz-adv-x="1265" 
d="M268 0h-137v1464h596q221 0 342 -127q102 -108 102 -282q0 -154 -75.5 -256t-216.5 -140l348 -659h-152l-332 641h-475v-641zM268 1343v-585h434q332 0 332 293q0 142 -83 217t-242 75h-441zM545 -438v67q67 27 67 113v2h-63v162h141v-160q0 -163 -145 -184z" />
    <glyph glyph-name="a.alt" horiz-adv-x="993" 
d="M401 -25q-157 0 -255.5 80.5t-98.5 220.5q0 182 133 248q64 33 131 49t174 27q169 18 228 45q55 24 55 100v17q0 217 -250 217q-269 0 -293 -236h-125q18 161 124 249.5t294 88.5q371 0 371 -333v-596q0 -122 37 -146v-6h-129q-26 29 -29 141v15h-4q-135 -181 -363 -181z
M420 78q163 0 258 92q92 92 92 213v184q-84 -44 -276 -65q-85 -8 -131.5 -18t-92.5 -33q-48 -24 -69 -66.5t-21 -110.5q0 -98 65.5 -147t174.5 -49z" />
    <glyph glyph-name="aacute.alt" horiz-adv-x="993" 
d="M547 1212h-111l135 261h168zM401 -25q-157 0 -255.5 80.5t-98.5 220.5q0 182 133 248q64 33 131 49t174 27q169 18 228 45q55 24 55 100v17q0 217 -250 217q-269 0 -293 -236h-125q18 161 124 249.5t294 88.5q371 0 371 -333v-596q0 -122 37 -146v-6h-129q-26 29 -29 141
v15h-4q-135 -181 -363 -181zM420 78q163 0 258 92q92 92 92 213v184q-84 -44 -276 -65q-85 -8 -131.5 -18t-92.5 -33q-48 -24 -69 -66.5t-21 -110.5q0 -98 65.5 -147t174.5 -49z" />
    <glyph glyph-name="abreve.alt" horiz-adv-x="993" 
d="M401 -25q-157 0 -255.5 80.5t-98.5 220.5q0 182 133 248q64 33 131 49t174 27q169 18 228 45q55 24 55 100v17q0 217 -250 217q-269 0 -293 -236h-125q18 161 124 249.5t294 88.5q371 0 371 -333v-596q0 -122 37 -146v-6h-129q-26 29 -29 141v15h-4q-135 -181 -363 -181z
M420 78q163 0 258 92q92 92 92 213v184q-84 -44 -276 -65q-85 -8 -131.5 -18t-92.5 -33q-48 -24 -69 -66.5t-21 -110.5q0 -98 65.5 -147t174.5 -49zM514 1219q-104 0 -173 62t-75 159h105q21 -113 143 -113q60 0 97 30t48 83h105q-6 -95 -76 -158t-174 -63z" />
    <glyph glyph-name="acircumflex.alt" horiz-adv-x="993" 
d="M399 1221h-135l174 217h152l170 -217h-142l-106 145h-4zM401 -25q-157 0 -255.5 80.5t-98.5 220.5q0 182 133 248q64 33 131 49t174 27q169 18 228 45q55 24 55 100v17q0 217 -250 217q-269 0 -293 -236h-125q18 161 124 249.5t294 88.5q371 0 371 -333v-596
q0 -122 37 -146v-6h-129q-26 29 -29 141v15h-4q-135 -181 -363 -181zM420 78q163 0 258 92q92 92 92 213v184q-84 -44 -276 -65q-85 -8 -131.5 -18t-92.5 -33q-48 -24 -69 -66.5t-21 -110.5q0 -98 65.5 -147t174.5 -49z" />
    <glyph glyph-name="adieresis.alt" horiz-adv-x="993" 
d="M416 1284h-123v176h123v-176zM735 1284h-123v176h123v-176zM401 -25q-157 0 -255.5 80.5t-98.5 220.5q0 182 133 248q64 33 131 49t174 27q169 18 228 45q55 24 55 100v17q0 217 -250 217q-269 0 -293 -236h-125q18 161 124 249.5t294 88.5q371 0 371 -333v-596
q0 -122 37 -146v-6h-129q-26 29 -29 141v15h-4q-135 -181 -363 -181zM420 78q163 0 258 92q92 92 92 213v184q-84 -44 -276 -65q-85 -8 -131.5 -18t-92.5 -33q-48 -24 -69 -66.5t-21 -110.5q0 -98 65.5 -147t174.5 -49z" />
    <glyph glyph-name="agrave.alt" horiz-adv-x="993" 
d="M401 -25q-157 0 -255.5 80.5t-98.5 220.5q0 182 133 248q64 33 131 49t174 27q169 18 228 45q55 24 55 100v17q0 217 -250 217q-269 0 -293 -236h-125q18 161 124 249.5t294 88.5q371 0 371 -333v-596q0 -122 37 -146v-6h-129q-26 29 -29 141v15h-4q-135 -181 -363 -181z
M420 78q163 0 258 92q92 92 92 213v184q-84 -44 -276 -65q-85 -8 -131.5 -18t-92.5 -33q-48 -24 -69 -66.5t-21 -110.5q0 -98 65.5 -147t174.5 -49zM596 1212h-111l-192 261h168z" />
    <glyph glyph-name="amacron.alt" horiz-adv-x="993" 
d="M401 -25q-157 0 -255.5 80.5t-98.5 220.5q0 182 133 248q64 33 131 49t174 27q169 18 228 45q55 24 55 100v17q0 217 -250 217q-269 0 -293 -236h-125q18 161 124 249.5t294 88.5q371 0 371 -333v-596q0 -122 37 -146v-6h-129q-26 29 -29 141v15h-4q-135 -181 -363 -181z
M420 78q163 0 258 92q92 92 92 213v184q-84 -44 -276 -65q-85 -8 -131.5 -18t-92.5 -33q-48 -24 -69 -66.5t-21 -110.5q0 -98 65.5 -147t174.5 -49zM766 1284h-508v115h508v-115z" />
    <glyph glyph-name="aogonek.alt" horiz-adv-x="993" 
d="M823 -356q-89 0 -137.5 40.5t-48.5 110.5q0 119 160 211q-26 33 -29 135v15h-4q-135 -181 -363 -181q-157 0 -255.5 80.5t-98.5 220.5q0 182 133 248q64 33 131 49t174 27q169 18 228 45q55 24 55 100v17q0 217 -250 217q-269 0 -293 -236h-125q18 161 124 249.5
t294 88.5q371 0 371 -333v-596q0 -101 31 -146v-6q-160 -95 -160 -190q0 -72 84 -72q48 0 92 20h6v-90q-53 -24 -119 -24zM420 78q163 0 258 92q92 92 92 213v184q-84 -44 -276 -65q-85 -8 -131.5 -18t-92.5 -33q-48 -24 -69 -66.5t-21 -110.5q0 -98 65.5 -147t174.5 -49z
" />
    <glyph glyph-name="aring.alt" horiz-adv-x="993" 
d="M444 1266q28 -31 71 -31t71 31q28 29 28 73.5t-28 75.5q-28 29 -71 29t-71 -29q-28 -31 -28 -75.5t28 -73.5zM641 1217q-53 -51 -126 -51t-126 51t-53 122.5t53 122.5t126 51t126 -51t53 -122.5t-53 -122.5zM401 -25q-157 0 -255.5 80.5t-98.5 220.5q0 182 133 248
q64 33 131 49t174 27q169 18 228 45q55 24 55 100v17q0 217 -250 217q-269 0 -293 -236h-125q18 161 124 249.5t294 88.5q371 0 371 -333v-596q0 -122 37 -146v-6h-129q-26 29 -29 141v15h-4q-135 -181 -363 -181zM420 78q163 0 258 92q92 92 92 213v184q-84 -44 -276 -65
q-85 -8 -131.5 -18t-92.5 -33q-48 -24 -69 -66.5t-21 -110.5q0 -98 65.5 -147t174.5 -49z" />
    <glyph glyph-name="atilde.alt" horiz-adv-x="993" 
d="M401 -25q-157 0 -255.5 80.5t-98.5 220.5q0 182 133 248q64 33 131 49t174 27q169 18 228 45q55 24 55 100v17q0 217 -250 217q-269 0 -293 -236h-125q18 161 124 249.5t294 88.5q371 0 371 -333v-596q0 -122 37 -146v-6h-129q-26 29 -29 141v15h-4q-135 -181 -363 -181z
M420 78q163 0 258 92q92 92 92 213v184q-84 -44 -276 -65q-85 -8 -131.5 -18t-92.5 -33q-48 -24 -69 -66.5t-21 -110.5q0 -98 65.5 -147t174.5 -49zM637 1229q-49 0 -133 41q-79 39 -109 39q-24 0 -40 -20.5t-17 -55.5h-100q15 180 151 180q54 0 131 -39q77 -41 107 -41
q57 0 63 76h98q-5 -85 -44.5 -132.5t-106.5 -47.5z" />
    <glyph glyph-name="Ccedilla.alt" horiz-adv-x="1386" 
d="M733 -27q-302 0 -481 209q-178 208 -178 549t180 551q183 213 485 213q228 0 377.5 -118t186.5 -326h-136q-31 150 -145 237.5t-285 87.5q-249 0 -383 -180q-137 -180 -137 -465t137 -459q135 -178 381 -178q198 0 319 120.5t140 317.5h133q-12 -231 -151 -382
q-157 -177 -443 -177zM649 -344v61q71 9 74 86h-70v138h144v-119q0 -160 -148 -166z" />
    <glyph glyph-name="Scedilla.alt" horiz-adv-x="1226" 
d="M639 -27q-271 0 -425.5 135.5t-166.5 366.5h137q10 -184 130 -285.5t327 -101.5q169 0 272 81.5t103 225.5q0 145 -96 207q-96 60 -355 113q-120 23 -202 53t-142 75.5t-88.5 110t-28.5 152.5q0 171 136 280q134 107 354 107q230 0 362.5 -113.5t153.5 -314.5h-133
q-19 151 -119.5 232t-261.5 81q-165 0 -261.5 -72.5t-96.5 -195.5q0 -122 92 -178q86 -57 305 -98q112 -21 174.5 -38t130.5 -48q74 -34 117 -78q98 -102 98 -269q0 -194 -141 -311q-144 -117 -375 -117zM526 -344v61q71 9 74 86h-70v138h144v-119q0 -160 -148 -166z" />
    <glyph glyph-name="ccedilla.alt" horiz-adv-x="1005" 
d="M532 -27q-226 0 -352 156q-129 156 -129 399q0 244 129 400q128 155 355 155q176 0 288 -91t138 -253h-127q-47 238 -299 238q-169 0 -261 -123.5t-92 -325.5t91 -324t259 -122q132 0 214 76t100 207h121q-19 -183 -134 -287.5t-301 -104.5zM440 -344v61q72 9 72 86h-70
v138h146v-119q0 -160 -148 -166z" />
    <glyph glyph-name="scedilla.alt" horiz-adv-x="923" 
d="M477 -29q-200 0 -313.5 97t-124.5 262h129q27 -250 311 -250q128 0 198.5 55t70.5 150q0 87 -58 127q-56 39 -225 77q-102 24 -157 43.5t-113 51.5q-117 64 -117 211q0 130 101.5 208t266.5 78q354 0 394 -313h-127q-21 209 -267 209q-116 0 -178.5 -48t-62.5 -128
q0 -84 65 -119q64 -37 238 -78q196 -42 278 -102q88 -64 88 -215q0 -143 -107.5 -229.5t-289.5 -86.5zM389 -344v61q71 9 74 86h-70v138h144v-119q0 -160 -148 -166z" />
    <glyph glyph-name="hyphen.cap" horiz-adv-x="700" 
d="M629 608h-557v125h557v-125z" />
    <glyph glyph-name="endash.cap" horiz-adv-x="1021" 
d="M936 616h-850v109h850v-109z" />
    <glyph glyph-name="emdash.cap" horiz-adv-x="1570" 
d="M1485 616h-1399v109h1399v-109z" />
    <glyph glyph-name="questiondown.cap" horiz-adv-x="1017" 
d="M498 -27q-188 0 -301 107t-113 268q0 85 34.5 164t74.5 119q34 33 104 92q116 98 154 170q35 66 38 217h123q-3 -176 -47 -262q-48 -94 -164 -193q-44 -36 -69 -61q-19 -19 -53 -59q-60 -74 -60 -185q0 -117 78 -189.5t207 -72.5q151 0 238 93.5t92 250.5h129
q-3 -193 -121 -326t-344 -133zM629 1286h-156v178h156v-178z" />
    <glyph glyph-name="exclamdown.cap" horiz-adv-x="434" 
d="M287 0h-140v469l31 641h80l29 -641v-469zM295 1286h-156v178h156v-178z" />
    <glyph glyph-name="parenleft.cap" horiz-adv-x="581" 
d="M541 -180h-111q-280 435 -280 928q0 458 280 858h111q-246 -402 -246 -858q0 -507 246 -928z" />
    <glyph glyph-name="parenright.cap" horiz-adv-x="581" 
d="M152 -180h-111q246 414 246 887q0 494 -246 899h111q282 -418 282 -899q0 -473 -282 -887z" />
    <glyph glyph-name="bracketleft.cap" horiz-adv-x="589" 
d="M522 -180h-358v1786h358v-109h-227v-1565h227v-112z" />
    <glyph glyph-name="bracketright.cap" horiz-adv-x="589" 
d="M426 -180h-358v112h227v1565h-227v109h358v-1786z" />
    <glyph glyph-name="braceleft.cap" horiz-adv-x="589" 
d="M504 -180h-37q-277 0 -277 284v418q0 74 -32.5 108.5t-108.5 35.5v110q77 1 109 35t32 107v405q0 147 69 215t208 68h37v-109h-33q-82 0 -115.5 -39t-33.5 -137v-412q0 -151 -115 -186v-4q115 -35 115 -187v-426q0 -98 33.5 -136t115.5 -38h33v-112z" />
    <glyph glyph-name="braceright.cap" horiz-adv-x="589" 
d="M123 -180h-37v112h33q81 0 115 37.5t34 134.5v426q0 150 115 185v6q-115 35 -115 184v414q0 97 -34.5 137.5t-114.5 40.5h-33v109h37q276 0 276 -285v-406q0 -73 32 -106.5t110 -34.5v-112q-77 -1 -109.5 -35t-32.5 -107v-418q0 -147 -68.5 -214.5t-207.5 -67.5z" />
    <glyph glyph-name="guillemotleft.cap" horiz-adv-x="841" 
d="M379 481v-141l-264 231v154l264 231v-141l-191 -166v-4zM727 481v-141l-264 231v154l264 231v-141l-190 -166v-4z" />
    <glyph glyph-name="guillemotright.cap" horiz-adv-x="841" 
d="M379 571l-264 -231v141l190 166v4l-190 164v141l264 -231v-154zM727 571l-264 -231v141l190 166v4l-190 164v141l264 -231v-154z" />
    <glyph glyph-name="guilsinglleft.cap" horiz-adv-x="514" 
d="M399 481v-141l-284 231v154l284 231v-141l-213 -166v-4z" />
    <glyph glyph-name="guilsinglright.cap" horiz-adv-x="514" 
d="M399 571l-284 -231v141l211 166v4l-211 164v141l284 -231v-154z" />
    <glyph glyph-name="registered.alt" horiz-adv-x="1662" 
d="M647 301h-117v856h385q117 0 188 -64.5t71 -170.5q0 -160 -154 -207v-4q65 -20 93 -65.5t36 -139.5q12 -186 37 -199v-6h-117q-24 12 -33 193q-4 92 -46 132t-130 40h-213v-365zM647 1057v-297h238q81 0 125.5 39t44.5 108q0 150 -162 150h-246zM360 233
q187 -196 471 -196q287 0 474 196q186 195 186 494q0 301 -186 496q-187 196 -474 196q-284 0 -471 -196q-188 -197 -188 -496q0 -297 188 -494zM1364 182q-214 -217 -533 -217q-318 0 -532 217q-215 218 -215 545q0 329 215 547q214 217 532 217q319 0 533 -217
q215 -218 215 -547q0 -327 -215 -545z" />
    <glyph glyph-name="dollar.cap" horiz-adv-x="1150" 
d="M629 -162h-97v180q-226 17 -352 144t-137 325h131q11 -159 103 -253t255 -107v590q-218 46 -325 127q-107 76 -107 248q0 163 121 266q119 101 311 110v117h97v-119q184 -13 292.5 -114t125.5 -269h-127q-12 118 -89.5 190.5t-201.5 84.5v-537q119 -25 188.5 -48
t134.5 -64q133 -84 133 -281q0 -174 -127 -289q-129 -114 -329 -123v-178zM532 840v520q-141 -7 -223 -78t-82 -184q0 -107 69.5 -164.5t235.5 -93.5zM629 696v-571q143 8 234 88t91 207q0 121 -71 180q-74 56 -254 96z" />
    <glyph glyph-name="Euro.cap" horiz-adv-x="1288" 
d="M729 -29q-214 0 -358.5 154.5t-182.5 423.5h-143v98h135q-4 36 -4 84q0 46 4 82h-135v98h143q41 270 185 426q146 158 360 158q190 0 313 -113.5t154 -316.5h-133q-56 311 -334 311q-169 0 -272 -122t-133 -343h450v-98h-459q-2 -18 -2 -82q0 -66 2 -84h459v-98h-448
q30 -218 133.5 -337.5t271.5 -119.5q158 0 250 111.5t111 310.5h131q-15 -245 -148 -393q-132 -150 -350 -150z" />
    <glyph glyph-name="sterling.cap" horiz-adv-x="1138" 
d="M788 -23q-96 0 -219 54q-121 53 -198 53q-91 0 -224 -92l-77 110q111 83 165 173t54 210q0 78 -35 174h-176v109h139q-74 195 -74 311q0 177 123 297q119 119 336 119q196 0 326 -121q128 -122 131 -346h-133q-1 173 -91.5 262.5t-238.5 89.5q-146 0 -230.5 -82.5
t-84.5 -220.5q0 -63 34 -182q4 -12 24 -68.5t21 -58.5h338v-109h-305q21 -82 21 -151q0 -220 -158 -354l4 -4q83 38 156 38q83 0 196 -45q118 -47 183 -47q104 0 221 105l78 -97q-148 -127 -306 -127z" />
    <glyph glyph-name="yen.cap" horiz-adv-x="1126" 
d="M631 0h-135v346h-381v96h381v158h-381v96h354l-438 768h153l381 -686h4l379 686h148l-439 -768h357v-96h-383v-158h383v-96h-383v-346z" />
    <glyph glyph-name="zero.cap" horiz-adv-x="1255" 
d="M326 260q108 -166 305 -166q198 0 303 164q102 163 102 475q0 308 -105 474.5t-300 166.5q-201 0 -306.5 -164t-105.5 -477q0 -308 107 -473zM1034 176q-144 -205 -405 -205q-262 0 -406 205q-145 204 -145 557q0 355 149 559q150 203 404 203q252 0 399 -203
q148 -204 148 -559t-144 -557z" />
    <glyph glyph-name="one.cap" horiz-adv-x="694" 
d="M512 0h-137v1104h-309v90q177 9 251 66q78 57 93 213h102v-1473z" />
    <glyph glyph-name="two.cap" horiz-adv-x="1099" 
d="M1010 0h-949q3 192 105 350q44 63 110 121q69 57 125 94q46 30 140 86q3 1 7 4t7 4q180 110 233 160q101 98 101 248q0 147 -83.5 229t-230.5 82q-149 0 -237 -88q-96 -90 -102 -295h-140q3 245 144 377q132 123 344 123q204 0 323 -119q121 -121 121 -307
q0 -193 -115 -305q-61 -58 -114 -96q-38 -27 -144 -90q-5 -3 -49 -29q-81 -50 -131 -82q-40 -26 -110 -86q-125 -105 -146 -254h791v-127z" />
    <glyph glyph-name="three.cap" horiz-adv-x="1126" 
d="M571 -29q-227 0 -370 131q-147 129 -150 353h137q6 -172 107.5 -267.5t273.5 -95.5q166 0 257.5 84t91.5 236q0 149 -94.5 229t-266.5 80h-100v113h98q149 0 231 71.5t82 200.5q0 131 -82.5 203.5t-220.5 72.5q-154 0 -243 -95t-91 -255h-133q3 207 129 336
q127 127 344 127q190 0 312 -104q123 -108 123 -285q0 -234 -222 -320v-6q275 -89 275 -379q0 -198 -133 -313q-135 -117 -355 -117z" />
    <glyph glyph-name="four.cap" horiz-adv-x="1146" 
d="M868 0h-135v377h-684v127l705 975h114v-990h230v-112h-230v-377zM184 496v-7h549v760h-4z" />
    <glyph glyph-name="five.cap" horiz-adv-x="1091" 
d="M537 -29q-211 0 -342 119q-133 118 -142 305h137q17 -144 105 -222.5t240 -78.5q160 0 254 103.5t94 275.5q0 164 -94 263.5t-244 99.5q-221 0 -324 -152h-129l127 780h731v-121h-631l-81 -503h4q131 116 323 116q191 0 326 -129q133 -130 133 -358q0 -220 -135 -358
q-137 -140 -352 -140z" />
    <glyph glyph-name="six.cap" horiz-adv-x="1153" 
d="M612 -29q-203 0 -340 125q-194 176 -194 645q0 339 141 547q142 207 402 207q182 0 292 -103.5t129 -275.5h-135q-11 120 -85.5 190t-196.5 70q-208 0 -310 -172.5t-100 -498.5h4q137 239 397 239q205 0 334 -135t129 -342q3 -211 -129 -352q-132 -144 -338 -144zM608 86
q150 0 244 107q92 106 92 270t-93 264t-243 100q-156 0 -258 -102q-102 -105 -102 -268q0 -165 100 -268t260 -103z" />
    <glyph glyph-name="seven.cap" horiz-adv-x="1040" 
d="M422 0h-148q27 372 193 748q165 370 395 591v4h-815v121h957v-116q-234 -228 -392 -580q-160 -357 -190 -768z" />
    <glyph glyph-name="eight.cap" horiz-adv-x="1167" 
d="M952 86q-151 -115 -366 -115q-217 0 -367 117q-151 115 -151 324q0 143 76.5 240.5t213.5 142.5v6q-104 42 -162.5 125t-58.5 194q0 162 127 271q125 104 318 104q199 0 323 -106q123 -108 123 -269q0 -109 -59.5 -191.5t-165.5 -125.5v-6q132 -39 214.5 -143.5
t82.5 -241.5q0 -211 -148 -326zM586 88q170 0 271 90t101 234q0 149 -101 238t-277 89q-172 0 -272.5 -89t-100.5 -238q0 -147 101.5 -235.5t277.5 -88.5zM354 926q82 -76 226 -76t229 76q84 78 84 188q0 119 -83.5 192.5t-227.5 73.5q-141 0 -225.5 -74t-84.5 -192
q0 -115 82 -188z" />
    <glyph glyph-name="nine.cap" horiz-adv-x="1155" 
d="M545 -29q-192 0 -314 107q-124 109 -133 280h142q11 -123 92 -195.5t211 -72.5q159 0 252 96q148 154 151 568h-4q-131 -230 -399 -230q-204 0 -336 135q-131 134 -131 342q-3 208 133 353q135 141 344 141q193 0 326 -115q108 -86 155 -244t47 -411q0 -438 -196 -625
q-129 -129 -340 -129zM553 639q159 0 260 104q100 100 100 265q0 168 -100 268q-102 102 -256 102t-250 -103t-96 -269t94 -266.5t248 -100.5z" />
    <glyph glyph-name="percent.cap" horiz-adv-x="1636" 
d="M377 793q89 0 141.5 79.5t52.5 223.5q0 139 -54 220t-140 81q-89 0 -142 -78.5t-53 -222.5q0 -140 53.5 -221.5t141.5 -81.5zM377 696q-141 0 -228.5 108.5t-87.5 291.5q0 182 91 293q87 106 225 106q136 0 223 -106q88 -107 88 -293q0 -182 -86.5 -291t-224.5 -109z
M455 0h-113l842 1464h110zM1262 70q89 0 141.5 78.5t52.5 222.5q0 140 -53.5 221.5t-140.5 81.5q-88 0 -141.5 -80t-53.5 -223q0 -139 54 -220t141 -81zM1262 -29q-139 0 -226.5 109t-87.5 291q0 183 88 291t226 108t225.5 -107t87.5 -292q0 -183 -86 -291.5t-227 -108.5z
" />
    <glyph glyph-name="perthousand.cap" horiz-adv-x="2326" 
d="M377 793q89 0 141.5 79.5t52.5 223.5q0 139 -54 220t-140 81q-89 0 -142 -78.5t-53 -222.5q0 -140 53.5 -221.5t141.5 -81.5zM377 696q-141 0 -228.5 108.5t-87.5 291.5q0 182 91 293q87 106 225 106q136 0 223 -106q88 -107 88 -293q0 -182 -86.5 -291t-224.5 -109z
M434 0h-112l841 1464h111zM1221 70q89 0 141.5 78.5t52.5 222.5q0 140 -53.5 221.5t-140.5 81.5q-88 0 -141.5 -80t-53.5 -223q0 -139 54 -220t141 -81zM1221 -29q-139 0 -226.5 109t-87.5 291q0 183 88 291t226 108t225.5 -107t87.5 -292q0 -183 -86 -291.5t-227 -108.5z
M1952 70q89 0 141.5 78.5t52.5 222.5q0 140 -53.5 221.5t-140.5 81.5q-89 0 -142 -79.5t-53 -223.5q0 -140 53.5 -220.5t141.5 -80.5zM1952 -29q-141 0 -228.5 108.5t-87.5 291.5q0 182 89 290.5t227 108.5t225.5 -107t87.5 -292q0 -182 -87.5 -291t-225.5 -109z" />
    <glyph glyph-name="zero.numerator" horiz-adv-x="786" 
d="M395 719q205 0 205 332q0 159 -53 247t-152 88q-102 0 -155.5 -87t-53.5 -248q0 -159 53.5 -245.5t155.5 -86.5zM635 737q-88 -116 -242 -116t-239 116q-88 113 -88 314t88 315.5t241 114.5q150 0 238 -115t88 -315q0 -199 -86 -314z" />
    <glyph glyph-name="one.numerator" horiz-adv-x="524" 
d="M365 639h-117v598h-189v80q96 2 146.5 37.5t62.5 115.5h97v-831z" />
    <glyph glyph-name="two.numerator" horiz-adv-x="694" 
d="M629 639h-572q3 137 88 225q39 40 71.5 65.5t94.5 67.5q5 3 44 29t46 31q50 29 70 55q43 62 43 117q0 73 -42 114t-112 41q-80 0 -125.5 -50t-46.5 -146h-110q0 139 77.5 216t209.5 77q117 0 192.5 -71.5t75.5 -178.5q0 -106 -68 -174q-45 -42 -63 -53q-35 -26 -82 -54
q-4 -2 -9 -5.5t-8 -5.5t-6 -3q-75 -45 -123 -84q-64 -52 -79 -117h434v-96z" />
    <glyph glyph-name="three.numerator" horiz-adv-x="718" 
d="M362 621q-140 0 -225 77t-84 205h111q9 -186 194 -186q86 0 133.5 42.5t47.5 117.5q0 73 -48.5 113t-136.5 40h-55v90h53q75 0 117.5 36t42.5 99t-42 100.5t-110 37.5q-78 0 -122.5 -48t-49.5 -131h-108q2 122 77 194.5t205 72.5q116 0 189.5 -61t73.5 -160
q0 -130 -129 -177v-4q161 -43 161 -211q0 -115 -81.5 -181t-213.5 -66z" />
    <glyph glyph-name="four.numerator" horiz-adv-x="733" 
d="M555 639h-111v199h-395v112l397 523h109v-545h127v-90h-127v-199zM147 932v-4h297v387h-4z" />
    <glyph glyph-name="five.numerator" horiz-adv-x="706" 
d="M352 621q-128 0 -210 67.5t-89 179.5h115q18 -149 182 -149q81 0 128.5 51.5t47.5 138.5q0 84 -47.5 133.5t-126.5 49.5q-112 0 -166 -72h-106l76 444h446v-98h-366l-41 -240h2q71 62 180 62q113 0 190.5 -77.5t77.5 -203.5q0 -127 -82 -206.5t-211 -79.5z" />
    <glyph glyph-name="six.numerator" horiz-adv-x="741" 
d="M393 621q-130 0 -213 77q-114 108 -114 353q0 199 83 314.5t240 115.5q115 0 185.5 -63t82.5 -163h-114q-6 57 -47 94t-101 37q-212 0 -215 -307h6q76 107 217 107q118 0 197 -82q80 -83 80 -201q0 -119 -82 -201q-81 -81 -205 -81zM391 715q78 0 128 52t50 134
t-51 135.5t-129 53.5q-86 0 -139 -52.5t-53 -134.5t54.5 -135t139.5 -53z" />
    <glyph glyph-name="seven.numerator" horiz-adv-x="671" 
d="M303 639h-121q9 203 103 405q89 195 215 318v2h-451v100h572v-96q-133 -129 -219 -319.5t-99 -409.5z" />
    <glyph glyph-name="eight.numerator" horiz-adv-x="751" 
d="M377 625q-135 0 -225.5 67t-90.5 182q0 159 160 218v4q-119 52 -119 172q0 97 77 157t196 60q121 0 196.5 -59.5t75.5 -153.5q0 -122 -119 -174v-4q73 -25 116.5 -81.5t43.5 -133.5q0 -119 -87 -186.5t-224 -67.5zM377 715q90 0 142 44.5t52 117.5q0 76 -52.5 121.5
t-143.5 45.5q-90 0 -142.5 -45.5t-52.5 -121.5q0 -74 52.5 -118t144.5 -44zM258 1165q40 -37 117 -37q76 0 119 37q41 37 41 96.5t-41 96.5q-43 37 -119 37q-77 0 -117 -37q-41 -37 -41 -96.5t41 -96.5z" />
    <glyph glyph-name="nine.numerator" horiz-adv-x="745" 
d="M365 621q-122 0 -199 63.5t-88 169.5h115q8 -62 52.5 -100.5t114.5 -38.5q90 0 136 55q63 69 69 248h-4q-75 -100 -211 -100q-124 0 -205.5 80.5t-83.5 199.5q0 117 84 201q82 82 211 82q114 0 191 -56q133 -95 133 -366q0 -273 -121 -373q-77 -65 -194 -65zM360 1014
q85 0 138.5 51t54.5 135q0 81 -56.5 135t-136.5 54q-82 0 -134 -52.5t-52 -134.5q0 -84 52 -136t134 -52z" />
    <glyph glyph-name="zero.denominator" horiz-adv-x="786" 
d="M395 80q205 0 205 332q0 160 -53 248t-152 88q-102 0 -155.5 -87.5t-53.5 -248.5q0 -159 53.5 -245.5t155.5 -86.5zM635 98q-88 -116 -242 -116t-239 116q-88 113 -88 314t88.5 316.5t240.5 115.5q150 0 238 -116t88 -316q0 -199 -86 -314z" />
    <glyph glyph-name="one.denominator" horiz-adv-x="524" 
d="M365 0h-117v600h-189v78q96 2 146.5 37.5t62.5 115.5h97v-831z" />
    <glyph glyph-name="two.denominator" horiz-adv-x="694" 
d="M629 0h-572q3 137 88 225q40 43 73.5 70t92.5 65q1 1 39.5 25.5t40.5 26.5t17.5 12t30 20.5t18.5 14.5q40 50 43 57q14 42 14 74q0 73 -42 114t-112 41q-80 0 -125.5 -50.5t-46.5 -143.5h-110q0 138 77.5 214.5t209.5 76.5q117 0 192.5 -71.5t75.5 -178.5
q0 -106 -68 -174q-45 -42 -63 -53q-35 -26 -82 -54q-4 -2 -9 -5.5t-8 -5.5t-6 -3q-8 -5 -29 -18t-27 -16.5t-21 -13.5t-21 -15t-17.5 -14.5t-20.5 -18.5t-19 -21q-38 -41 -47 -84h434v-96z" />
    <glyph glyph-name="three.denominator" horiz-adv-x="718" 
d="M362 -16q-140 0 -225 77t-84 205h111q9 -188 194 -188q86 0 133.5 42t47.5 120q0 72 -48.5 111.5t-136.5 39.5h-55v90h53q75 0 117.5 36t42.5 99q0 65 -41.5 101.5t-110.5 36.5q-78 0 -122.5 -47.5t-49.5 -128.5h-108q2 120 78 193t204 73q117 0 190 -60.5t73 -162.5
q0 -131 -129 -177v-4q161 -43 161 -211q0 -114 -82 -179.5t-213 -65.5z" />
    <glyph glyph-name="four.denominator" horiz-adv-x="733" 
d="M555 0h-111v199h-395v112l397 525h109v-547h127v-90h-127v-199zM147 293v-4h297v387h-4z" />
    <glyph glyph-name="five.denominator" horiz-adv-x="706" 
d="M352 -16q-127 0 -209 67.5t-90 177.5h115q21 -149 182 -149q80 0 128 52t48 138q0 84 -49 134.5t-125 50.5q-113 0 -166 -74h-106l76 444h446v-98h-366l-41 -240h2q71 62 180 62q113 0 190.5 -77.5t77.5 -203.5q0 -127 -81.5 -205.5t-211.5 -78.5z" />
    <glyph glyph-name="six.denominator" horiz-adv-x="741" 
d="M393 -18q-130 0 -213 77q-114 108 -114 353q0 199 83 314.5t240 115.5q115 0 185.5 -62t82.5 -162h-114q-6 57 -47 94.5t-101 37.5q-212 0 -215 -310h6q76 107 217 107q118 0 197 -82q80 -83 80 -201q0 -119 -82 -201q-81 -81 -205 -81zM391 76q78 0 128 52t50 134
t-51 135.5t-129 53.5q-86 0 -139 -52.5t-53 -134.5t54.5 -135t139.5 -53z" />
    <glyph glyph-name="seven.denominator" horiz-adv-x="671" 
d="M303 0h-121q9 204 103 406q89 194 215 317v2h-451v100h572v-96q-133 -129 -219 -319.5t-99 -409.5z" />
    <glyph glyph-name="eight.denominator" horiz-adv-x="751" 
d="M377 -14q-135 0 -225.5 68.5t-90.5 183.5q0 156 160 215v4q-119 52 -119 172q0 97 77 157t196 60q121 0 196.5 -59.5t75.5 -153.5q0 -122 -119 -174v-4q73 -25 116.5 -81.5t43.5 -133.5q0 -119 -87 -186.5t-224 -67.5zM377 76q87 0 140.5 46t53.5 116q0 76 -52.5 122
t-143.5 46q-90 0 -142.5 -46t-52.5 -122q0 -74 52.5 -118t144.5 -44zM258 526q40 -37 117 -37t119 39q41 38 41 97q0 61 -43 97t-117 36q-73 0 -115.5 -36.5t-42.5 -96.5q0 -61 41 -99z" />
    <glyph glyph-name="nine.denominator" horiz-adv-x="745" 
d="M559 47q-69 -63 -194 -63q-124 0 -199 63q-79 67 -88 170h115q8 -63 52.5 -102t114.5 -39q90 0 136 55q63 69 69 250h-4q-80 -102 -211 -102q-124 0 -205.5 80.5t-83.5 199.5q0 119 84 203q82 82 211 82q115 0 191 -58q133 -95 133 -366q0 -270 -121 -373zM360 375
q85 0 138.5 51t54.5 135q0 81 -56.5 136t-136.5 55q-81 0 -133.5 -53.5t-52.5 -135.5q0 -84 52 -136t134 -52z" />
    </font>
</defs>
</svg>
