<?xml version="1.0" standalone="no"?>
<!DOCTYPE svg PUBLIC "-//W3C//DTD SVG 1.1//EN" "http://www.w3.org/Graphics/SVG/1.1/DTD/svg11.dtd" >
<svg xmlns="http://www.w3.org/2000/svg" xmlns:xlink="http://www.w3.org/1999/xlink" version="1.1">
<metadata>
Created by FontForge 20170731 at Tue May 31 23:36:20 2005
 By Aleksey,,,
\251 Dutch Design: Albert-Jan Pool, 1995. Published by FontShop International FontFont release 15
</metadata>
<defs>
<font id="DIN-Medium" horiz-adv-x="533" >
  <font-face 
    font-family="DIN-Medium"
    font-weight="5"
    font-stretch="normal"
    units-per-em="1000"
    panose-1="0 0 0 0 0 0 0 0 0 0"
    ascent="800"
    descent="-200"
    x-height="507"
    cap-height="712"
    bbox="-110 -211 1138 1000"
    underline-thickness="70"
    underline-position="-242"
    unicode-range="U+0020-F002"
  />
<missing-glyph horiz-adv-x="789" 
d="M49 0v789h691v-789h-691zM691 49v691h-593v-691h593z" />
    <glyph glyph-name=".notdef" horiz-adv-x="789" 
d="M49 0v789h691v-789h-691zM691 49v691h-593v-691h593z" />
    <glyph glyph-name="glyph1" horiz-adv-x="0" 
 />
    <glyph glyph-name="glyph2" horiz-adv-x="240" 
 />
    <glyph glyph-name="space" unicode=" " horiz-adv-x="240" 
 />
    <glyph glyph-name="exclam" unicode="!" horiz-adv-x="332" 
d="M223 212h-80l-22 500h124zM127 0v109h112v-109h-112z" />
    <glyph glyph-name="quotedbl" unicode="&#x22;" horiz-adv-x="444" 
d="M265 521v191h101v-191h-101zM78 521v191h101v-191h-101z" />
    <glyph glyph-name="numbersign" unicode="#" horiz-adv-x="672" 
d="M531 426l-20 -124h79v-94h-94l-33 -208h-106l33 208h-137l-32 -208h-107l33 208h-79v94h94l20 124h-81v94h95l31 196h107l-31 -196h136l31 196h106l-31 -196h78v-94h-92zM288 426l-20 -124h137l19 124h-136z" />
    <glyph glyph-name="dollar" unicode="$" horiz-adv-x="608" 
d="M340 -3v-111h-82v108q-71 0 -125.5 23t-102.5 71l72 71q36 -36 76 -52t89 -16v222l-26 3q-40 5 -76 20.5t-73.5 51t-37.5 121.5t54 142t150 65v90h82v-89q57 0 103 -20t88 -60l-69 -68q-26 25 -60 39.5t-71 14.5v-216l34 -5q48 -7 78.5 -19.5t71.5 -48.5t41 -131
q0 -88 -58.5 -142.5t-157.5 -63.5zM267 622q-51 -5 -79.5 -34.5t-28.5 -74.5q0 -42 21 -61t41.5 -27t45.5 -11v208zM421 274q-17 15 -37 20.5t-53 10.5v-212q56 5 87 33t31 74q0 49 -28 74z" />
    <glyph glyph-name="percent" unicode="%" horiz-adv-x="842" 
d="M644 -7q-60 0 -100 37t-40 100v101q0 64 39.5 100.5t100.5 36.5q60 0 100 -37t40 -100v-101q0 -64 -39.5 -100.5t-100.5 -36.5zM294 0h-82l336 712h81zM198 345q-61 0 -100.5 36t-39.5 100v101q0 64 39.5 100.5t100.5 36.5q60 0 100 -37t40 -100v-101q0 -63 -39.5 -99.5
t-100.5 -36.5zM707 228q0 72 -63 72t-63 -72v-95q0 -72 63 -72t63 72v95zM261 579q0 72 -63 72t-63 -72v-95q0 -71 63 -71t63 71v95z" />
    <glyph glyph-name="ampersand" unicode="&#x26;" horiz-adv-x="730" 
d="M553 0l-58 70q-37 -32 -81.5 -54t-115.5 -22q-110 0 -170 57t-60 155q0 67 37.5 112.5t103.5 88.5q-43 50 -58.5 84t-15.5 69q0 69 47.5 113.5t126.5 44.5q75 0 122 -45t47 -114q0 -39 -20 -70t-56 -56l-52 -36l150 -179q38 54 38 143h98q0 -136 -71 -219l119 -142h-131z
M309 629q-32 0 -51 -20t-19 -50q0 -20 13 -42t42 -56l34 23q25 17 38.5 34t13.5 40q0 30 -19.5 50.5t-51.5 20.5zM265 343q-48 -33 -72 -62t-24 -73q0 -53 36 -87t93 -34q39 0 70 12t66 43z" />
    <glyph glyph-name="quotesingle" unicode="'" horiz-adv-x="257" 
d="M78 521v191h101v-191h-101z" />
    <glyph glyph-name="parenleft" unicode="(" horiz-adv-x="317" 
d="M190 -94q-36 36 -52 53.5t-29.5 41.5t-18 52.5t-4.5 63.5v478q0 39 4 64t18 50t29.5 42.5t52.5 54.5l69 -69q-16 -16 -31 -31.5t-27.5 -39.5t-12.5 -77v-466q0 -53 12.5 -76.5t26.5 -39.5l32 -32z" />
    <glyph glyph-name="parenright" unicode=")" horiz-adv-x="317" 
d="M208 1q-14 -25 -28 -41t-52 -54l-70 70q15 16 31 31q13 15 26 39.5t13 76.5v466q0 52 -12 75t-23.5 36t-34.5 36l70 70q29 -29 48.5 -51t33 -46t18 -51t4.5 -63v-478q0 -36 -4.5 -63t-19.5 -53z" />
    <glyph glyph-name="asterisk" unicode="*" horiz-adv-x="485" 
d="M387 401l-111 69l4 -131h-75l4 131l-111 -69l-37 65l115 61l-115 62l37 65l111 -69l-4 130h75l-4 -130l111 69l37 -65l-115 -62l115 -61z" />
    <glyph glyph-name="plus" unicode="+" 
d="M314 225v-168h-95v168h-168v95h168v167h95v-167h168v-95h-168z" />
    <glyph glyph-name="comma" unicode="," horiz-adv-x="272" 
d="M78 -155v271h116v-176z" />
    <glyph glyph-name="hyphen" unicode="-" horiz-adv-x="426" 
d="M67 230v95h292v-95h-292z" />
    <glyph glyph-name="period" unicode="." horiz-adv-x="278" 
d="M78 0v122h122v-122h-122z" />
    <glyph glyph-name="slash" unicode="/" horiz-adv-x="380" 
d="M98 -74h-98l285 860h98z" />
    <glyph glyph-name="zero" unicode="0" 
d="M266 -6q-88 0 -146.5 55.5t-58.5 148.5v316q0 93 58.5 148.5t146.5 55.5q87 0 146.5 -55.5t59.5 -148.5v-316q0 -93 -58.5 -148.5t-147.5 -55.5zM370 511q0 53 -27.5 84.5t-76.5 31.5q-48 0 -75.5 -31.5t-27.5 -84.5v-310q0 -53 27.5 -84.5t75.5 -31.5t76 32t28 84v310z
" />
    <glyph glyph-name="one" unicode="1" 
d="M253 0v601l-139 -122v113l139 120h102v-712h-102z" />
    <glyph glyph-name="two" unicode="2" 
d="M63 0v91l274 333q38 46 38 95t-27.5 78.5t-76.5 29.5q-45 0 -75 -27t-30 -83h-102q0 90 57.5 145.5t149.5 55.5t149 -54t57 -146q0 -44 -15.5 -77t-51.5 -77l-223 -273h290v-91h-414z" />
    <glyph glyph-name="three" unicode="3" 
d="M260 -7q-94 0 -156 50t-62 150h102q0 -53 34 -80.5t82 -27.5q51 0 83.5 31.5t32.5 86.5t-30 86t-89 31h-17v89h17q55 0 81.5 28t26.5 80q0 53 -29.5 81.5t-75.5 28.5q-48 0 -77.5 -27.5t-29.5 -74.5h-102q0 88 60 141t149 53q91 0 149 -55t58 -144q0 -55 -23.5 -93
t-65.5 -59q48 -21 74 -62t26 -106q0 -99 -62 -153t-156 -54z" />
    <glyph glyph-name="four" unicode="4" 
d="M422 107v-107h-99v107h-288v95l251 510h110l-250 -510h177v166h99v-166h76v-95h-76z" />
    <glyph glyph-name="five" unicode="5" 
d="M419 49q-26 -26 -63.5 -41t-86.5 -15q-48 0 -87.5 15t-65.5 41t-39.5 61t-13.5 74h102q13 -99 104 -99q46 0 70 24t31 55t7 74q0 70 -23 109.5t-81 39.5q-41 0 -66.5 -18t-34.5 -46h-93v389h384v-91h-292v-188q39 41 118 41q41 0 73 -11.5t61.5 -41t42.5 -76.5t13 -107
q0 -66 -11.5 -109t-48.5 -80z" />
    <glyph glyph-name="six" unicode="6" 
d="M267 -6q-94 0 -152.5 57.5t-58.5 155.5q0 40 13.5 81.5t39.5 93.5l162 330h109l-153 -306q11 5 29.5 8t33.5 3q79 0 133 -57t54 -149q0 -98 -58.5 -157.5t-151.5 -59.5zM266 332q-49 0 -78.5 -32.5t-29.5 -90.5q0 -56 30 -90t78 -34t78.5 33.5t30.5 90.5q0 54 -29.5 88.5
t-79.5 34.5z" />
    <glyph glyph-name="seven" unicode="7" 
d="M249 0h-110l239 621h-217v-112h-98v203h424v-91z" />
    <glyph glyph-name="eight" unicode="8" 
d="M266 -6q-94 0 -156.5 56.5t-62.5 150.5q0 59 27.5 100t70.5 67q-38 23 -62 61.5t-24 91.5q0 87 59 142t148 55q88 0 148 -55t60 -142q0 -54 -23.5 -91.5t-62.5 -61.5q44 -27 71 -67t27 -100q0 -94 -62.5 -150.5t-157.5 -56.5zM266 627q-47 0 -76 -31t-29 -78
q0 -48 29 -78t76 -30t76.5 30.5t29.5 77.5q0 48 -29.5 78.5t-76.5 30.5zM266 322q-50 0 -83.5 -34.5t-33.5 -84.5t33 -84t84 -34q49 0 83 34t34 84t-33.5 84.5t-83.5 34.5z" />
    <glyph glyph-name="nine" unicode="9" 
d="M424 330l-162 -330h-109l153 306q-26 -11 -64 -11q-79 0 -132.5 56.5t-53.5 149.5q0 98 58.5 157.5t151.5 59.5q94 0 152.5 -57.5t58.5 -155.5q0 -40 -13.5 -81.5t-39.5 -93.5zM266 627q-49 0 -78.5 -33.5t-29.5 -90.5q0 -55 28.5 -89t79.5 -34q49 0 79 33t30 90
q0 56 -30 90t-79 34z" />
    <glyph glyph-name="colon" unicode=":" horiz-adv-x="303" 
d="M104 285v122h121v-122h-121zM104 0v122h121v-122h-121z" />
    <glyph glyph-name="semicolon" unicode=";" horiz-adv-x="303" 
d="M104 285v122h121v-122h-121zM106 -155v271h116v-176z" />
    <glyph glyph-name="less" unicode="&#x3c;" horiz-adv-x="1027" 
d="M230 229l345 -343h-131l-392 391l392 392h131l-345 -343h744v-97h-744z" />
    <glyph glyph-name="equal" unicode="=" 
d="M51 327v95h431v-95h-431zM51 133v95h431v-95h-431z" />
    <glyph glyph-name="greater" unicode="&#x3e;" horiz-adv-x="1027" 
d="M583 -114h-131l345 343h-745v97h745l-345 343h131l392 -392z" />
    <glyph glyph-name="question" unicode="?" horiz-adv-x="511" 
d="M422 404l-77 -108q-18 -25 -18 -54v-30h-102v35q0 30 7.5 52t26.5 47l78 105q15 20 23 38t8 38q0 43 -27.5 71.5t-70.5 28.5q-45 0 -71 -29t-26 -72h-102q0 84 57 138t142 54t142.5 -52t57.5 -139q0 -32 -13 -62.5t-35 -60.5zM219 0v109h113v-109h-113z" />
    <glyph glyph-name="at" unicode="@" horiz-adv-x="736" 
d="M576 0v50q-48 -57 -127 -57q-81 0 -120 43.5t-47.5 83t-8.5 114.5q0 71 8.5 112t45 85t121.5 44q78 0 126 -56v61q0 36 -8 61.5t-28 45.5t-47.5 29t-59.5 9h-126q-34 0 -59.5 -8.5t-46.5 -29.5t-28.5 -44.5t-7.5 -62.5v-312q0 -42 10 -64t40 -46l-70 -70
q-44 36 -61.5 73.5t-17.5 101.5v318q0 59 13.5 100.5t45 73.5t74 46t98.5 14h146q57 0 98 -13.5t73 -45t46 -74.5t14 -101v-483zM472 389q-58 0 -79.5 -40.5t-21.5 -114.5q0 -73 21.5 -113.5t79.5 -40.5t80 40.5t22 113.5q0 75 -21.5 115t-80.5 40z" />
    <glyph glyph-name="A" unicode="A" horiz-adv-x="625" 
d="M502 0l-49 143h-281l-49 -143h-115l261 712h87l261 -712h-115zM315 551l-111 -316h219z" />
    <glyph glyph-name="B" unicode="B" horiz-adv-x="663" 
d="M381 0h-288v712h277q99 0 157 -52t58 -143q0 -54 -28.5 -94.5t-67.5 -56.5q45 -18 76 -60t31 -105q0 -96 -58.5 -148.5t-156.5 -52.5zM361 615h-160v-204h160q53 0 84.5 26.5t31.5 75.5t-31.5 75.5t-84.5 26.5zM371 314h-170v-217h170q55 0 86 30t31 79t-30.5 78.5
t-86.5 29.5z" />
    <glyph glyph-name="C" unicode="C" horiz-adv-x="628" 
d="M323 -6q-111 0 -173 62t-72.5 118t-10.5 182q0 125 10.5 181.5t72.5 118.5t173 62q100 0 167.5 -57t86.5 -162h-110q-13 57 -49.5 89.5t-94.5 32.5q-65 0 -98 -35.5t-41.5 -80.5t-8.5 -149q0 -109 8 -151t41.5 -78t98.5 -36q58 0 95 33t50 89h109q-18 -105 -86 -162
t-168 -57z" />
    <glyph glyph-name="D" unicode="D" horiz-adv-x="666" 
d="M527 67q-33 -33 -80.5 -50t-103.5 -17h-250v712h250q117 0 176 -59t69.5 -120t10.5 -172v-39q0 -91 -12.5 -149.5t-59.5 -105.5zM453 567q-44 48 -121 48h-131v-518h131q77 0 111.5 38t41 86t6.5 140q0 89 -6.5 133.5t-31.5 72.5z" />
    <glyph glyph-name="E" unicode="E" horiz-adv-x="603" 
d="M93 0v712h455v-97h-347v-208h296v-96h-296v-214h347v-97h-455z" />
    <glyph glyph-name="F" unicode="F" horiz-adv-x="585" 
d="M201 615v-217h296v-97h-296v-301h-108v712h455v-97h-347z" />
    <glyph glyph-name="G" unicode="G" horiz-adv-x="649" 
d="M519 75q-40 -42 -88.5 -61.5t-107.5 -19.5q-111 0 -173 62t-72.5 118t-10.5 182q0 125 10.5 181.5t72.5 118.5t173 62q109 0 176 -61.5t83 -159.5h-109q-14 59 -52 91.5t-98 32.5q-31 0 -58.5 -12t-50 -36t-31 -68.5t-8.5 -148.5q0 -109 8 -151t41.5 -78t98.5 -36
q72 0 112 46t40 116v40h-152v92h260v-109q0 -70 -14.5 -116.5t-49.5 -84.5z" />
    <glyph glyph-name="H" unicode="H" horiz-adv-x="691" 
d="M490 0v311h-289v-311h-108v712h108v-304h289v304h108v-712h-108z" />
    <glyph glyph-name="I" unicode="I" horiz-adv-x="294" 
d="M93 0v712h108v-712h-108z" />
    <glyph glyph-name="J" unicode="J" horiz-adv-x="506" 
d="M186 -6q-54 0 -95 16t-78 53l72 71q22 -22 43 -32.5t58 -10.5q60 0 94.5 36.5t34.5 105.5v479h108v-487q0 -108 -67 -169.5t-170 -61.5z" />
    <glyph glyph-name="K" unicode="K" horiz-adv-x="658" 
d="M521 0l-200 351l-120 -144v-207h-108v712h108v-358l291 358h132l-231 -279l255 -433h-127z" />
    <glyph glyph-name="L" unicode="L" horiz-adv-x="574" 
d="M93 0v712h108v-615h343v-97h-451z" />
    <glyph glyph-name="M" unicode="M" horiz-adv-x="813" 
d="M613 0v476l-164 -347h-80l-168 347v-476h-108v712h108l208 -443l204 443h108v-712h-108z" />
    <glyph glyph-name="N" unicode="N" horiz-adv-x="722" 
d="M530 0l-329 501v-501h-108v712h99l329 -500v500h108v-712h-99z" />
    <glyph glyph-name="O" unicode="O" horiz-adv-x="646" 
d="M511 70q-76 -76 -188 -76q-111 0 -173 62t-72.5 118t-10.5 182q0 125 10.5 181.5t72.5 118.5t173 62q57 0 103.5 -19t89 -61.5t53 -99.5t10.5 -182q0 -129 -9.5 -183t-58.5 -103zM429 577q-19 21 -46.5 32.5t-59.5 11.5q-31 0 -59.5 -12t-50.5 -36t-30 -66.5t-8 -150.5
q0 -112 7.5 -151.5t30.5 -65t50.5 -37t59.5 -11.5q31 0 59.5 12t50.5 36t30 66.5t8 150.5q0 112 -7.5 151.5t-34.5 69.5z" />
    <glyph glyph-name="P" unicode="P" horiz-adv-x="629" 
d="M363 280h-162v-280h-108v712h270q103 0 165.5 -60.5t62.5 -155.5q0 -94 -63 -155t-165 -61zM357 615h-156v-237h156q57 0 91.5 31.5t34.5 86.5q0 56 -34.5 87.5t-91.5 31.5z" />
    <glyph glyph-name="Q" unicode="Q" horiz-adv-x="646" 
d="M543 -32l-71 71q-64 -45 -149 -45q-111 0 -173 62t-72.5 118t-10.5 182q0 125 10.5 181.5t72.5 118.5t173 62q57 0 103.5 -19t89 -61.5t53 -99.5t10.5 -182q0 -113 -6.5 -164t-39.5 -95l70 -69zM429 577q-19 21 -46.5 32.5t-59.5 11.5q-31 0 -59.5 -12t-50.5 -36
t-30 -66.5t-8 -150.5q0 -112 7.5 -151.5t30.5 -65t50.5 -37t59.5 -11.5q41 0 73 23l-75 75l60 60l69 -69q13 25 17 64.5t4 111.5q0 112 -7.5 151.5t-34.5 69.5z" />
    <glyph glyph-name="R" unicode="R" horiz-adv-x="655" 
d="M486 0l-150 300h-135v-300h-108v712h276q100 0 160.5 -57.5t60.5 -150.5q0 -73 -39.5 -122.5t-102.5 -66.5l164 -315h-126zM361 615h-160v-223h160q54 0 87.5 29.5t33.5 81.5t-33 82t-88 30z" />
    <glyph glyph-name="S" unicode="S" horiz-adv-x="590" 
d="M282 -6q-82 0 -142 21.5t-110 72.5l72 71q37 -37 81.5 -52.5t100.5 -15.5q70 0 108.5 28.5t38.5 80.5q0 49 -20.5 67.5t-37.5 25.5t-48 11l-84 12q-87 12 -137 59t-50 134q0 94 64 151.5t174 57.5q134 0 221 -81l-69 -68q-31 30 -69 42.5t-86 12.5q-61 0 -95.5 -31.5
t-34.5 -79.5q0 -42 27.5 -66.5t79.5 -32.5l81 -12q48 -7 78.5 -19.5t71.5 -48.5t41 -131q0 -97 -70.5 -153t-185.5 -56z" />
    <glyph glyph-name="T" unicode="T" horiz-adv-x="560" 
d="M334 615v-615h-108v615h-196v97h500v-97h-196z" />
    <glyph glyph-name="U" unicode="U" horiz-adv-x="675" 
d="M337 -6q-110 0 -182.5 68.5t-72.5 177.5v472h108v-467q0 -71 39.5 -112.5t107.5 -41.5q67 0 107.5 41.5t40.5 112.5v467h108v-472q0 -109 -72.5 -177.5t-183.5 -68.5z" />
    <glyph glyph-name="V" unicode="V" horiz-adv-x="564" 
d="M323 0h-84l-234 712h112l164 -518l164 518h114z" />
    <glyph glyph-name="W" unicode="W" horiz-adv-x="871" 
d="M674 0h-94l-145 499l-144 -499h-94l-186 712h114l124 -509l143 509h87l143 -509l124 509h114z" />
    <glyph glyph-name="X" unicode="X" horiz-adv-x="578" 
d="M443 0l-155 273l-154 -273h-124l220 365l-206 347h124l140 -255l141 255h124l-206 -347l221 -365h-125z" />
    <glyph glyph-name="Y" unicode="Y" horiz-adv-x="544" 
d="M326 293v-293h-108v293l-213 419h118l149 -313l149 313h118z" />
    <glyph glyph-name="Z" unicode="Z" horiz-adv-x="552" 
d="M48 0v93l329 522h-315v97h442v-88l-331 -527h331v-97h-456z" />
    <glyph glyph-name="bracketleft" unicode="[" horiz-adv-x="347" 
d="M86 -74v860h218v-91h-116v-678h116v-91h-218z" />
    <glyph glyph-name="backslash" unicode="\" horiz-adv-x="380" 
d="M282 -74l-282 852h98l282 -852h-98z" />
    <glyph glyph-name="bracketright" unicode="]" horiz-adv-x="347" 
d="M43 -74v90h118v680h-118v90h218v-860h-218z" />
    <glyph glyph-name="asciicircum" unicode="^" horiz-adv-x="571" 
d="M397 401l-112 207l-112 -207h-106l172 318h93l171 -318h-106z" />
    <glyph glyph-name="underscore" unicode="_" horiz-adv-x="571" 
d="M0 -172v70h571v-70h-571z" />
    <glyph glyph-name="grave" unicode="`" horiz-adv-x="500" 
d="M225 599l-111 162h113l75 -162h-77z" />
    <glyph glyph-name="a" unicode="a" horiz-adv-x="530" 
d="M354 0v46q-29 -29 -58 -40.5t-77 -11.5q-90 0 -133 44t-43 111q0 66 45 106t130 40h134v36q0 49 -26 72t-85 23q-41 0 -65.5 -10.5t-45.5 -38.5l-67 63q35 40 76.5 56.5t105.5 16.5q209 0 209 -174v-339h-100zM352 224h-119q-91 0 -91 -73q0 -72 93 -72q36 0 55.5 5
t40.5 25.5t21 73.5v41z" />
    <glyph glyph-name="b" unicode="b" horiz-adv-x="553" 
d="M439 39q-45 -45 -124 -45q-44 0 -75 13t-59 47v-54h-100v712h102v-256q26 31 58 44t75 13q78 0 117.5 -39.5t51 -95t11.5 -124.5q0 -74 -11 -127t-46 -88zM289 422q-63 0 -84.5 -44.5t-21.5 -123.5q0 -81 21.5 -125t84.5 -44t84 44t21 125q0 80 -21 124t-84 44z" />
    <glyph glyph-name="c" unicode="c" horiz-adv-x="485" 
d="M281 -6q-96 0 -161 63t-65 197q0 133 65 196t161 63q54 0 92 -16t75 -55l-70 -68q-44 48 -97 48q-60 0 -92 -41.5t-32 -126.5q0 -86 32 -127.5t92 -41.5q31 0 51 10t46 38l70 -67q-68 -72 -167 -72z" />
    <glyph glyph-name="d" unicode="d" horiz-adv-x="553" 
d="M372 0v54q-27 -33 -58.5 -46.5t-75.5 -13.5q-38 0 -70 11.5t-60 39.5t-39.5 83.5t-11.5 125.5q0 94 15 140.5t51 82.5t114 36q43 0 74.5 -12.5t58.5 -44.5v256h102v-712h-100zM265 422q-63 0 -84.5 -44.5t-21.5 -123.5q0 -81 21.5 -125t84.5 -44t84 44t21 125
q0 80 -21 124t-84 44z" />
    <glyph glyph-name="e" unicode="e" horiz-adv-x="539" 
d="M156 224q0 -67 33.5 -104.5t95.5 -37.5q42 0 68 11.5t55 40.5l65 -61q-41 -41 -83.5 -60t-106.5 -19q-105 0 -166.5 61t-61.5 199q0 122 58 190.5t157 68.5q100 0 157.5 -67.5t57.5 -176.5v-45h-329zM370 364q-12 29 -38.5 46.5t-61.5 17.5q-36 0 -62 -17t-39 -47
t-13 -69h228q0 37 -14 69z" />
    <glyph glyph-name="f" unicode="f" horiz-adv-x="328" 
d="M199 420v-420h-102v420h-58v78h58v78q0 60 35.5 100.5t103.5 40.5h64v-87h-45q-56 0 -56 -59v-73h101v-78h-101z" />
    <glyph glyph-name="g" unicode="g" horiz-adv-x="549" 
d="M251 -211q-57 0 -98 15t-81 52l65 65q26 -24 49.5 -34.5t60.5 -10.5q61 0 90 36.5t29 92.5v65q-26 -31 -58 -44.5t-73 -13.5q-37 0 -68 11.5t-59 39.5t-39.5 76.5t-11.5 123.5q0 74 11.5 123t50.5 88t117 39q43 0 74 -13t59 -47v54h99v-504q0 -94 -59 -154t-158 -60z
M263 422q-62 0 -83 -43t-21 -116q0 -74 20.5 -116.5t83.5 -42.5q62 0 82.5 42t20.5 117q0 96 -27 127.5t-76 31.5z" />
    <glyph glyph-name="h" unicode="h" horiz-adv-x="566" 
d="M388 0v311q0 55 -28 83t-74 28q-45 0 -74 -28t-29 -83v-311h-102v712h102v-256q53 57 131 57q83 0 129.5 -50.5t46.5 -135.5v-327h-102z" />
    <glyph glyph-name="i" unicode="i" horiz-adv-x="264" 
d="M78 607v108h108v-108h-108zM81 0v507h102v-507h-102z" />
    <glyph glyph-name="j" unicode="j" horiz-adv-x="264" 
d="M78 607v108h108v-108h-108zM44 -207h-63v87h45q30 0 42.5 14.5t12.5 44.5v568h102v-574q0 -60 -35 -100t-104 -40z" />
    <glyph glyph-name="k" unicode="k" horiz-adv-x="548" 
d="M400 0l-142 234l-75 -85v-149h-102v712h102v-439l197 234h124l-176 -199l198 -308h-126z" />
    <glyph glyph-name="l" unicode="l" horiz-adv-x="311" 
d="M217 0q-69 0 -104 39.5t-35 100.5v572h102v-566q0 -30 12.5 -44.5t42.5 -14.5h45v-87h-63z" />
    <glyph glyph-name="m" unicode="m" horiz-adv-x="877" 
d="M699 0v309q0 57 -28 85t-74 28q-45 0 -75 -27.5t-30 -80.5v-314h-102v309q0 57 -28 85t-74 28t-75.5 -28.5t-29.5 -84.5v-309h-102v507h100v-51q25 27 61 42t74 15q96 0 144 -74q61 74 159 74q39 0 72 -12t58 -36.5t38.5 -61t13.5 -79.5v-324h-102z" />
    <glyph glyph-name="n" unicode="n" horiz-adv-x="568" 
d="M390 0v309q0 57 -28 85t-74 28t-75.5 -28.5t-29.5 -84.5v-309h-102v507h100v-51q53 57 135 57q39 0 70.5 -11.5t57 -36.5t37 -60t11.5 -81v-324h-102z" />
    <glyph glyph-name="o" unicode="o" horiz-adv-x="537" 
d="M420 54q-27 -28 -64.5 -44t-87.5 -16q-49 0 -86.5 16t-68 48t-43.5 79t-13 117q0 68 13 116t43.5 79.5t67.5 47.5t87 16q49 0 87 -16t68.5 -48t43.5 -79t13 -116t-13 -117t-47 -83zM343 393q-29 29 -75 29q-45 0 -70 -25t-32 -59.5t-7 -83.5q0 -53 6.5 -85t32.5 -58
t70 -26q45 0 70.5 25.5t32.5 60t7 83.5q0 53 -6.5 85t-28.5 54z" />
    <glyph glyph-name="p" unicode="p" horiz-adv-x="553" 
d="M439 39q-45 -45 -123 -45q-44 0 -75 12.5t-58 45.5v-257h-102v712h100v-54q27 33 58.5 46.5t75.5 13.5q38 0 70 -11.5t60 -39.5t39.5 -83.5t11.5 -124.5q0 -74 -11 -127t-46 -88zM289 422q-63 0 -84.5 -44.5t-21.5 -123.5q0 -81 21.5 -125t84.5 -44t84 44t21 125
q0 80 -21 124t-84 44z" />
    <glyph glyph-name="q" unicode="q" horiz-adv-x="553" 
d="M370 -205v257q-26 -31 -59 -44.5t-74 -13.5q-78 0 -117.5 39.5t-51 95t-11.5 125.5q0 94 15 140.5t51 82.5t115 36q44 0 75 -13t59 -47v54h100v-712h-102zM265 422q-63 0 -84.5 -44.5t-21.5 -123.5q0 -81 21.5 -125t84.5 -44t84 44t21 125q0 80 -21 124t-84 44z" />
    <glyph glyph-name="r" unicode="r" horiz-adv-x="439" 
d="M360 388q-17 17 -34.5 25.5t-41.5 8.5q-43 0 -72 -31t-29 -83v-308h-102v507h100v-55q20 27 56.5 44t78.5 17q40 0 66.5 -10t54.5 -38z" />
    <glyph glyph-name="s" unicode="s" horiz-adv-x="499" 
d="M245 -6q-69 0 -119.5 15.5t-93.5 57.5l67 67q28 -29 66 -41t80 -12q49 0 80 17.5t31 52.5q0 28 -16 44t-52 16l-81 7q-74 6 -112 40t-38 100q0 73 53.5 114t137.5 41q59 0 106 -13.5t82 -43.5l-64 -65q-22 19 -55.5 28t-69.5 9q-45 0 -68.5 -17.5t-23.5 -47.5
q0 -25 15.5 -39.5t54.5 -18.5l80 -7q74 -6 112.5 -41t38.5 -102q0 -77 -58.5 -119t-152.5 -42z" />
    <glyph glyph-name="t" unicode="t" horiz-adv-x="342" 
d="M232 0q-67 0 -103 41t-36 100v279h-58v78h58v154h102v-154h98v-78h-98v-274q0 -59 56 -59h42v-87h-61z" />
    <glyph glyph-name="u" unicode="u" horiz-adv-x="568" 
d="M387 0v51q-53 -57 -135 -57q-39 0 -70.5 11.5t-57 36.5t-37 60t-11.5 81v324h102v-309q0 -57 28 -85t74 -28t75.5 28.5t29.5 84.5v309h102v-507h-100z" />
    <glyph glyph-name="v" unicode="v" horiz-adv-x="471" 
d="M277 0h-83l-186 507h108l120 -357l119 357h108z" />
    <glyph glyph-name="w" unicode="w" horiz-adv-x="743" 
d="M577 0h-87l-119 354l-118 -354h-88l-157 507h108l98 -357l118 357h79l117 -357l98 357h109z" />
    <glyph glyph-name="x" unicode="x" horiz-adv-x="503" 
d="M358 0l-106 173l-107 -173h-123l174 259l-167 248h123l100 -165l99 165h123l-166 -248l173 -259h-123z" />
    <glyph glyph-name="y" unicode="y" horiz-adv-x="468" 
d="M240 -101q-14 -40 -35.5 -61.5t-47.5 -30t-58 -8.5h-41v92h26q32 0 46.5 11t26.5 43l28 79l-177 483h108l121 -357l118 357h109z" />
    <glyph glyph-name="z" unicode="z" horiz-adv-x="469" 
d="M43 0v81l252 335h-238v91h364v-81l-254 -335h254v-91h-378z" />
    <glyph glyph-name="braceleft" unicode="{" horiz-adv-x="407" 
d="M291 -74q-73 0 -108 35t-35 104v167q0 42 -18.5 60.5t-47.5 18.5h-37v90h37q16 0 27 4.5t25 18.5t14 56v167q0 37 8 61t35 51t100 27h71v-91h-39q-45 0 -59 -14.5t-14 -63.5v-161q0 -44 -18 -65.5t-48 -34.5q38 -17 52 -41.5t14 -58.5v-161q0 -49 14 -63.5t59 -14.5h39
v-91h-71z" />
    <glyph glyph-name="bar" unicode="|" horiz-adv-x="338" 
d="M118 -74v860h102v-860h-102z" />
    <glyph glyph-name="braceright" unicode="}" horiz-adv-x="407" 
d="M326 311q-16 0 -28 -5t-25.5 -18.5t-13.5 -55.5v-167q0 -37 -8 -61t-35 -51t-100 -27h-71v91h39q45 0 59 14.5t14 63.5v161q0 35 13.5 58.5t53.5 41.5q-31 14 -49 35t-18 65v161q0 49 -14 63.5t-59 14.5h-39v91h71q73 0 108 -35t35 -104v-167q0 -42 18.5 -60.5
t48.5 -18.5h36v-90h-36z" />
    <glyph glyph-name="asciitilde" unicode="~" horiz-adv-x="574" 
d="M383 202q-26 0 -51.5 8t-55 22.5t-47.5 20.5t-37 6q-24 0 -40 -7.5t-45 -36.5l-64 64q44 44 76 61t71 17q27 0 51 -7.5t53 -22t48.5 -21t38.5 -6.5q24 0 40 7.5t45 36.5l65 -64q-44 -44 -76 -61t-72 -17z" />
    <glyph glyph-name="nbspace" unicode="&#xa0;" horiz-adv-x="240" 
 />
    <glyph glyph-name="exclamdown" unicode="&#xa1;" horiz-adv-x="332" 
d="M93 398v109h112v-109h-112zM87 -205l22 500h80l22 -500h-124z" />
    <glyph glyph-name="cent" unicode="&#xa2;" horiz-adv-x="498" 
d="M318 110v-110h-80v111q-83 14 -133 79.5t-50 175.5q0 109 49.5 175t133.5 80v91h80v-90q81 -10 141 -74l-68 -66q-37 41 -82 48v-328q45 7 82 48l68 -66q-60 -64 -141 -74zM247 528q-34 -7 -54 -34.5t-28 -55.5t-8 -72q0 -80 27.5 -117.5t62.5 -44.5v324z" />
    <glyph glyph-name="sterling" unicode="&#xa3;" horiz-adv-x="564" 
d="M105 0v313h-62v78h62v96q0 107 68 169t170 62q54 0 95 -16t78 -53l-72 -71q-22 22 -43 32.5t-58 10.5q-60 0 -94.5 -36.5t-34.5 -105.5v-88h129v-78h-129v-216h302v-97h-411z" />
    <glyph glyph-name="currency" unicode="&#xa4;" horiz-adv-x="665" 
d="M530 14l-74 74q-55 -38 -124 -38t-124 38l-73 -74l-67 67l73 74q-38 55 -38 124t38 124l-73 73l67 67l73 -73q54 37 124 37t124 -37l74 73l67 -67l-74 -73q38 -55 38 -124t-38 -124l74 -74zM332 414q-56 0 -96 -39t-40 -96q0 -56 40 -96t96 -40t96 40t40 96t-39.5 95.5
t-96.5 39.5z" />
    <glyph glyph-name="yen" unicode="&#xa5;" horiz-adv-x="544" 
d="M392 422h87v-78h-127l-26 -51v-52h153v-78h-153v-163h-108v163h-153v78h153v52l-26 51h-127v78h87l-147 290h118l150 -314l148 314h117z" />
    <glyph glyph-name="section" unicode="&#xa7;" horiz-adv-x="543" 
d="M375 108q41 -18 64.5 -52t23.5 -89q0 -83 -55 -130.5t-136 -47.5q-80 0 -137 43.5t-57 126.5h100q0 -36 25.5 -57.5t68.5 -21.5q91 0 91 84q0 29 -19 52.5t-59 35.5l-70 21q-70 21 -105.5 66.5t-35.5 119.5q0 55 28.5 95.5t68.5 60.5q-40 20 -62 51t-22 83q0 73 50 121
t136 48q87 0 137.5 -45.5t50.5 -119.5h-98q0 38 -25 57t-65 19q-88 0 -88 -77q0 -29 20 -49.5t55 -31.5l70 -21q70 -21 106 -67t36 -119q0 -55 -28.5 -95t-68.5 -61zM343 341q-14 13 -31 20.5t-39 7.5q-45 0 -72 -29t-27 -79q0 -27 7 -46t27 -40t65 -21q44 0 63.5 21
t27.5 39.5t8 46.5q0 52 -29 80z" />
    <glyph glyph-name="dieresis" unicode="&#xa8;" horiz-adv-x="500" 
d="M312 604v108h92v-108h-92zM96 604v108h92v-108h-92z" />
    <glyph glyph-name="copyright" unicode="&#xa9;" horiz-adv-x="862" 
d="M431 -6q-150 0 -256 106t-106 256t106 256t256 106t256 -106t106 -256t-106 -256t-256 -106zM431 650q-121 0 -205 -85t-84 -209t84 -209t205 -85t205 85t84 209t-84 209t-205 85zM437 156q-81 0 -130 54t-49 146q0 91 48.5 145.5t130.5 54.5q71 0 131 -52l-46 -47
q-40 35 -85 35q-54 0 -81 -37t-27 -99t26.5 -99t81.5 -37q27 0 44 7t41 28l46 -47q-58 -52 -131 -52z" />
    <glyph glyph-name="ordfeminine" unicode="&#xaa;" horiz-adv-x="452" 
d="M298 307v36q-22 -22 -45.5 -31t-60.5 -9q-72 0 -98 26t-34 48t-8 49q0 53 36 85t103 32h105v28q0 38 -20 56t-67 18q-33 0 -51 -8t-36 -31l-55 52q28 33 61 45.5t85 12.5q82 0 124 -35t42 -104v-270h-81zM296 485h-93q-34 0 -52 -15t-18 -42q0 -55 71 -55q29 0 45 4
t31.5 19t15.5 57v32z" />
    <glyph glyph-name="guillemotleft" unicode="&#xab;" horiz-adv-x="592" 
d="M290 272l230 229v-123l-108 -106l108 -107v-123zM37 272l230 229v-123l-107 -106l107 -107v-123z" />
    <glyph glyph-name="logicalnot" unicode="&#xac;" 
d="M389 98v141h-341v95h436v-236h-95z" />
    <glyph glyph-name="registered" unicode="&#xae;" horiz-adv-x="862" 
d="M431 -6q-150 0 -256 106t-106 256t106 256t256 106t256 -106t106 -256t-106 -256t-256 -106zM431 651q-122 0 -206 -85t-84 -210q0 -123 84 -209t206 -86t205.5 85.5t83.5 209.5t-83.5 209.5t-205.5 85.5zM507 161l-80 155h-50v-155h-72v391h147q55 0 90.5 -34.5
t35.5 -85.5q0 -40 -21 -67t-56 -39l87 -165h-81zM443 491h-66v-118h66q28 0 46 17t18 42q0 26 -17.5 42.5t-46.5 16.5z" />
    <glyph glyph-name="degree" unicode="&#xb0;" horiz-adv-x="471" 
d="M235 375q-72 0 -123 51t-51 123q0 71 51 123t123 52t123.5 -51.5t51.5 -123.5t-51 -123t-124 -51zM235 642q-38 0 -64 -27t-26 -66q0 -38 26 -65t64 -27q39 0 65 26t26 66q0 39 -26 66t-65 27z" />
    <glyph glyph-name="plusminus" unicode="&#xb1;" 
d="M314 316v-169h-95v169h-168v95h168v168h95v-168h168v-95h-168zM51 0v95h431v-95h-431z" />
    <glyph glyph-name="acute" unicode="&#xb4;" horiz-adv-x="500" 
d="M275 599h-77l75 162h113z" />
    <glyph glyph-name="mu" unicode="&#xb5;" horiz-adv-x="569" 
d="M387 0v51q-53 -57 -134 -57q-45 0 -75 25v-224h-102v712h102v-309q0 -57 28.5 -85t74.5 -28q45 0 74.5 28.5t29.5 84.5v309h102v-507h-100z" />
    <glyph glyph-name="paragraph" unicode="&#xb6;" horiz-adv-x="637" 
d="M442 -205v820h-108v-820h-102v522q-82 0 -138 58t-56 138q0 89 61.5 144t163.5 55h281v-917h-102z" />
    <glyph glyph-name="cedilla" unicode="&#xb8;" horiz-adv-x="500" 
d="M268 -211h-101l70 147h82z" />
    <glyph glyph-name="ordmasculine" unicode="&#xba;" horiz-adv-x="458" 
d="M350 351q-21 -22 -51 -35t-70 -13q-39 0 -69 13t-54 38t-34.5 63t-10.5 93q0 56 10 92.5t34.5 62t54.5 38.5t69 13q38 0 69 -13.5t55 -38t34.5 -62.5t10.5 -92q0 -56 -10 -93t-38 -66zM288 619q-23 23 -59 23q-35 0 -55 -20t-25 -45t-5 -67q0 -40 5 -66.5t25 -46.5
t55 -20q36 0 55.5 19.5t24.5 47t5 66.5q0 44 -4 67.5t-22 41.5z" />
    <glyph glyph-name="guillemotright" unicode="&#xbb;" horiz-adv-x="592" 
d="M325 42v123l107 107l-107 106v123l231 -229zM72 42v123l108 107l-108 106v123l231 -229z" />
    <glyph glyph-name="questiondown" unicode="&#xbf;" horiz-adv-x="511" 
d="M179 398v109h112v-109h-112zM240 -211q-84 0 -141.5 52.5t-57.5 139.5q0 34 12 62.5t35 60.5l78 108q18 25 18 54v30h102v-36q0 -31 -7.5 -51.5t-27.5 -47.5l-77 -105q-15 -20 -23 -38t-8 -38q0 -43 27 -71t70 -28q45 0 71.5 28.5t26.5 71.5h102q0 -84 -57 -138t-143 -54
z" />
    <glyph glyph-name="Agrave" unicode="&#xc0;" horiz-adv-x="625" 
d="M502 0l-49 143h-281l-49 -143h-115l261 712h87l261 -712h-115zM315 551l-111 -316h219zM284 781l-111 162h113l75 -162h-77z" />
    <glyph glyph-name="Aacute" unicode="&#xc1;" horiz-adv-x="625" 
d="M502 0l-49 143h-281l-49 -143h-115l261 712h87l261 -712h-115zM315 551l-111 -316h219zM335 781h-77l75 162h113z" />
    <glyph glyph-name="Acircumflex" unicode="&#xc2;" horiz-adv-x="625" 
d="M502 0l-49 143h-281l-49 -143h-115l261 712h87l261 -712h-115zM315 551l-111 -316h219zM397 781l-87 97l-87 -97h-85l129 161h86l129 -161h-85z" />
    <glyph glyph-name="Atilde" unicode="&#xc3;" horiz-adv-x="625" 
d="M502 0l-49 143h-281l-49 -143h-115l261 712h87l261 -712h-115zM315 551l-111 -316h219zM374 794q-19 0 -37 6t-44.5 21t-49.5 15q-16 0 -27 -5t-31 -25l-48 47q31 31 55 43t49 12q20 0 36.5 -5.5t36 -17t31 -16t26.5 -4.5q14 0 27 6t32 25l48 -47q-31 -31 -55 -43
t-49 -12z" />
    <glyph glyph-name="Adieresis" unicode="&#xc4;" horiz-adv-x="625" 
d="M502 0l-49 143h-281l-49 -143h-115l261 712h87l261 -712h-115zM315 551l-111 -316h219zM372 786v108h92v-108h-92zM156 786v108h92v-108h-92z" />
    <glyph glyph-name="Aring" unicode="&#xc5;" horiz-adv-x="625" 
d="M502 0l-49 143h-281l-49 -143h-115l261 712h87l261 -712h-115zM315 551l-111 -316h219zM310 750q-52 0 -88.5 36.5t-36.5 88.5t36.5 88.5t88.5 36.5t88.5 -36.5t36.5 -88.5t-36.5 -88.5t-88.5 -36.5zM310 938q-26 0 -45 -18t-19 -45q0 -26 18.5 -44.5t45.5 -18.5
q26 0 45 18t19 45q0 26 -18.5 44.5t-45.5 18.5z" />
    <glyph glyph-name="AE" unicode="&#xc6;" horiz-adv-x="952" 
d="M442 0v162h-235l-84 -162h-118l374 712h518v-97h-347v-209h296v-97h-296v-212h347v-97h-455zM442 615l-188 -361h188v361z" />
    <glyph glyph-name="Ccedilla" unicode="&#xc7;" horiz-adv-x="628" 
d="M323 -6q-111 0 -173 62t-72.5 118t-10.5 182q0 125 10.5 181.5t72.5 118.5t173 62q100 0 167.5 -57t86.5 -162h-110q-13 57 -49.5 89.5t-94.5 32.5q-65 0 -98 -35.5t-41.5 -80.5t-8.5 -149q0 -109 8 -151t41.5 -78t98.5 -36q58 0 95 33t50 89h109q-18 -105 -86 -162
t-168 -57zM323 -211h-101l70 147h82z" />
    <glyph glyph-name="Egrave" unicode="&#xc8;" horiz-adv-x="603" 
d="M93 0v712h455v-97h-347v-208h296v-96h-296v-214h347v-97h-455zM286 781l-111 162h113l75 -162h-77z" />
    <glyph glyph-name="Eacute" unicode="&#xc9;" horiz-adv-x="603" 
d="M93 0v712h455v-97h-347v-208h296v-96h-296v-214h347v-97h-455zM336 781h-77l75 162h113z" />
    <glyph glyph-name="Ecircumflex" unicode="&#xca;" horiz-adv-x="603" 
d="M93 0v712h455v-97h-347v-208h296v-96h-296v-214h347v-97h-455zM398 781l-87 97l-87 -97h-85l129 161h86l129 -161h-85z" />
    <glyph glyph-name="Edieresis" unicode="&#xcb;" horiz-adv-x="603" 
d="M93 0v712h455v-97h-347v-208h296v-96h-296v-214h347v-97h-455zM373 786v108h92v-108h-92zM157 786v108h92v-108h-92z" />
    <glyph glyph-name="Igrave" unicode="&#xcc;" horiz-adv-x="294" 
d="M93 0v712h108v-712h-108zM204 781l-111 162h113l75 -162h-77z" />
    <glyph glyph-name="Iacute" unicode="&#xcd;" horiz-adv-x="294" 
d="M93 0v712h108v-712h-108zM170 781h-77l75 162h113z" />
    <glyph glyph-name="Icircumflex" unicode="&#xce;" horiz-adv-x="294" 
d="M93 0v712h108v-712h-108zM352 781l-87 97l-87 -97h-85l129 161h86l129 -161h-85z" />
    <glyph glyph-name="Idieresis" unicode="&#xcf;" horiz-adv-x="294" 
d="M93 0v712h108v-712h-108zM309 786v108h92v-108h-92zM93 786v108h92v-108h-92z" />
    <glyph glyph-name="Ntilde" unicode="&#xd1;" horiz-adv-x="721" 
d="M530 0l-329 501v-501h-108v712h99l329 -500v500h108v-712h-99zM426 794q-19 0 -37 6t-44.5 21t-49.5 15q-16 0 -27 -5t-31 -25l-48 47q31 31 55 43t49 12q20 0 36.5 -5.5t36 -17t31 -16t26.5 -4.5q14 0 27 6t32 25l48 -47q-31 -31 -55 -43t-49 -12z" />
    <glyph glyph-name="Ograve" unicode="&#xd2;" horiz-adv-x="647" 
d="M511 70q-76 -76 -188 -76q-111 0 -173 62t-72.5 118t-10.5 182q0 125 10.5 181.5t72.5 118.5t173 62q57 0 103.5 -19t89 -61.5t53 -99.5t10.5 -182q0 -129 -9.5 -183t-58.5 -103zM429 577q-19 21 -46.5 32.5t-59.5 11.5q-31 0 -59.5 -12t-50.5 -36t-30 -66.5t-8 -150.5
q0 -112 7.5 -151.5t30.5 -65t50.5 -37t59.5 -11.5q31 0 59.5 12t50.5 36t30 66.5t8 150.5q0 112 -7.5 151.5t-34.5 69.5zM298 781l-111 162h113l75 -162h-77z" />
    <glyph glyph-name="Oacute" unicode="&#xd3;" horiz-adv-x="647" 
d="M511 70q-76 -76 -188 -76q-111 0 -173 62t-72.5 118t-10.5 182q0 125 10.5 181.5t72.5 118.5t173 62q57 0 103.5 -19t89 -61.5t53 -99.5t10.5 -182q0 -129 -9.5 -183t-58.5 -103zM429 577q-19 21 -46.5 32.5t-59.5 11.5q-31 0 -59.5 -12t-50.5 -36t-30 -66.5t-8 -150.5
q0 -112 7.5 -151.5t30.5 -65t50.5 -37t59.5 -11.5q31 0 59.5 12t50.5 36t30 66.5t8 150.5q0 112 -7.5 151.5t-34.5 69.5zM348 781h-77l75 162h113z" />
    <glyph glyph-name="Ocircumflex" unicode="&#xd4;" horiz-adv-x="647" 
d="M511 70q-76 -76 -188 -76q-111 0 -173 62t-72.5 118t-10.5 182q0 125 10.5 181.5t72.5 118.5t173 62q57 0 103.5 -19t89 -61.5t53 -99.5t10.5 -182q0 -129 -9.5 -183t-58.5 -103zM429 577q-19 21 -46.5 32.5t-59.5 11.5q-31 0 -59.5 -12t-50.5 -36t-30 -66.5t-8 -150.5
q0 -112 7.5 -151.5t30.5 -65t50.5 -37t59.5 -11.5q31 0 59.5 12t50.5 36t30 66.5t8 150.5q0 112 -7.5 151.5t-34.5 69.5zM410 781l-87 97l-87 -97h-85l129 161h86l129 -161h-85z" />
    <glyph glyph-name="Otilde" unicode="&#xd5;" horiz-adv-x="647" 
d="M511 70q-76 -76 -188 -76q-111 0 -173 62t-72.5 118t-10.5 182q0 125 10.5 181.5t72.5 118.5t173 62q57 0 103.5 -19t89 -61.5t53 -99.5t10.5 -182q0 -129 -9.5 -183t-58.5 -103zM429 577q-19 21 -46.5 32.5t-59.5 11.5q-31 0 -59.5 -12t-50.5 -36t-30 -66.5t-8 -150.5
q0 -112 7.5 -151.5t30.5 -65t50.5 -37t59.5 -11.5q31 0 59.5 12t50.5 36t30 66.5t8 150.5q0 112 -7.5 151.5t-34.5 69.5zM388 794q-19 0 -37 6t-44.5 21t-49.5 15q-16 0 -27 -5t-31 -25l-48 47q31 31 55 43t49 12q20 0 36.5 -5.5t36 -17t31 -16t26.5 -4.5q14 0 27 6t32 25
l48 -47q-31 -31 -55 -43t-49 -12z" />
    <glyph glyph-name="Odieresis" unicode="&#xd6;" horiz-adv-x="647" 
d="M511 70q-76 -76 -188 -76q-111 0 -173 62t-72.5 118t-10.5 182q0 125 10.5 181.5t72.5 118.5t173 62q57 0 103.5 -19t89 -61.5t53 -99.5t10.5 -182q0 -129 -9.5 -183t-58.5 -103zM429 577q-19 21 -46.5 32.5t-59.5 11.5q-31 0 -59.5 -12t-50.5 -36t-30 -66.5t-8 -150.5
q0 -112 7.5 -151.5t30.5 -65t50.5 -37t59.5 -11.5q31 0 59.5 12t50.5 36t30 66.5t8 150.5q0 112 -7.5 151.5t-34.5 69.5zM385 786v108h92v-108h-92zM169 786v108h92v-108h-92z" />
    <glyph glyph-name="Oslash" unicode="&#xd8;" horiz-adv-x="652" 
d="M511 70q-76 -76 -188 -76q-33 0 -62.5 7t-56.5 20l-31 -65h-82l51 108l-6 6q-48 48 -58.5 104t-10.5 182q0 125 10.5 181.5t72.5 118.5t173 62q33 0 63 -7t57 -20l30 65h83l-52 -108l7 -6q47 -47 57.5 -104t10.5 -182q0 -129 -9.5 -183t-58.5 -103zM323 621
q-31 0 -58.5 -12t-50 -36t-30.5 -66.5t-8 -150.5q0 -147 20 -190l207 433q-36 22 -80 22zM451 546l-207 -433q35 -22 79 -22q31 0 59.5 12t50.5 36t30 66.5t8 150.5q0 150 -20 190z" />
    <glyph glyph-name="Ugrave" unicode="&#xd9;" horiz-adv-x="675" 
d="M337 -6q-110 0 -182.5 68.5t-72.5 177.5v472h108v-467q0 -71 39.5 -112.5t107.5 -41.5q67 0 107.5 41.5t40.5 112.5v467h108v-472q0 -109 -72.5 -177.5t-183.5 -68.5zM313 781l-111 162h113l75 -162h-77z" />
    <glyph glyph-name="Uacute" unicode="&#xda;" horiz-adv-x="675" 
d="M337 -6q-110 0 -182.5 68.5t-72.5 177.5v472h108v-467q0 -71 39.5 -112.5t107.5 -41.5q67 0 107.5 41.5t40.5 112.5v467h108v-472q0 -109 -72.5 -177.5t-183.5 -68.5zM363 781h-77l75 162h113z" />
    <glyph glyph-name="Ucircumflex" unicode="&#xdb;" horiz-adv-x="675" 
d="M337 -6q-110 0 -182.5 68.5t-72.5 177.5v472h108v-467q0 -71 39.5 -112.5t107.5 -41.5q67 0 107.5 41.5t40.5 112.5v467h108v-472q0 -109 -72.5 -177.5t-183.5 -68.5zM425 781l-87 97l-87 -97h-85l129 161h86l129 -161h-85z" />
    <glyph glyph-name="Udieresis" unicode="&#xdc;" horiz-adv-x="675" 
d="M337 -6q-110 0 -182.5 68.5t-72.5 177.5v472h108v-467q0 -71 39.5 -112.5t107.5 -41.5q67 0 107.5 41.5t40.5 112.5v467h108v-472q0 -109 -72.5 -177.5t-183.5 -68.5zM400 786v108h92v-108h-92zM184 786v108h92v-108h-92z" />
    <glyph glyph-name="germandbls" unicode="&#xdf;" horiz-adv-x="565" 
d="M460 39q-42 -39 -114 -39h-53v87h32q32 0 52.5 17t20.5 57v156q0 36 -18.5 54t-51.5 18h-35v81h31q33 0 53.5 19.5t20.5 55.5q0 37 -25 60.5t-81 23.5q-57 0 -82.5 -29.5t-25.5 -83.5v-516h-103v522q0 97 57.5 147t156.5 50q92 0 148.5 -43t56.5 -128q0 -42 -16 -69.5
t-46 -46.5q33 -17 48 -43t15 -72v-165q0 -75 -41 -113z" />
    <glyph glyph-name="agrave" unicode="&#xe0;" horiz-adv-x="530" 
d="M354 0v46q-29 -29 -58 -40.5t-77 -11.5q-90 0 -133 44t-43 111q0 66 45 106t130 40h134v36q0 49 -26 72t-85 23q-41 0 -65.5 -10.5t-45.5 -38.5l-67 63q35 40 76.5 56.5t105.5 16.5q209 0 209 -174v-339h-100zM352 224h-119q-91 0 -91 -73q0 -72 93 -72q36 0 55.5 5
t40.5 25.5t21 73.5v41zM232 599l-111 162h113l75 -162h-77z" />
    <glyph glyph-name="aacute" unicode="&#xe1;" horiz-adv-x="530" 
d="M354 0v46q-29 -29 -58 -40.5t-77 -11.5q-90 0 -133 44t-43 111q0 66 45 106t130 40h134v36q0 49 -26 72t-85 23q-41 0 -65.5 -10.5t-45.5 -38.5l-67 63q35 40 76.5 56.5t105.5 16.5q209 0 209 -174v-339h-100zM352 224h-119q-91 0 -91 -73q0 -72 93 -72q36 0 55.5 5
t40.5 25.5t21 73.5v41zM282 599h-77l75 162h113z" />
    <glyph glyph-name="acircumflex" unicode="&#xe2;" horiz-adv-x="530" 
d="M354 0v46q-29 -29 -58 -40.5t-77 -11.5q-90 0 -133 44t-43 111q0 66 45 106t130 40h134v36q0 49 -26 72t-85 23q-41 0 -65.5 -10.5t-45.5 -38.5l-67 63q35 40 76.5 56.5t105.5 16.5q209 0 209 -174v-339h-100zM352 224h-119q-91 0 -91 -73q0 -72 93 -72q36 0 55.5 5
t40.5 25.5t21 73.5v41zM344 599l-87 97l-87 -97h-85l129 161h86l129 -161h-85z" />
    <glyph glyph-name="atilde" unicode="&#xe3;" horiz-adv-x="530" 
d="M354 0v46q-29 -29 -58 -40.5t-77 -11.5q-90 0 -133 44t-43 111q0 66 45 106t130 40h134v36q0 49 -26 72t-85 23q-41 0 -65.5 -10.5t-45.5 -38.5l-67 63q35 40 76.5 56.5t105.5 16.5q209 0 209 -174v-339h-100zM352 224h-119q-91 0 -91 -73q0 -72 93 -72q36 0 55.5 5
t40.5 25.5t21 73.5v41zM322 612q-19 0 -37 6t-44.5 21t-49.5 15q-16 0 -27 -5t-31 -25l-48 47q31 31 55 43t49 12q20 0 36.5 -5.5t36 -17t31 -16t26.5 -4.5q14 0 27 6t32 25l48 -47q-31 -31 -55 -43t-49 -12z" />
    <glyph glyph-name="adieresis" unicode="&#xe4;" horiz-adv-x="530" 
d="M354 0v46q-29 -29 -58 -40.5t-77 -11.5q-90 0 -133 44t-43 111q0 66 45 106t130 40h134v36q0 49 -26 72t-85 23q-41 0 -65.5 -10.5t-45.5 -38.5l-67 63q35 40 76.5 56.5t105.5 16.5q209 0 209 -174v-339h-100zM352 224h-119q-91 0 -91 -73q0 -72 93 -72q36 0 55.5 5
t40.5 25.5t21 73.5v41zM319 604v108h92v-108h-92zM103 604v108h92v-108h-92z" />
    <glyph glyph-name="aring" unicode="&#xe5;" horiz-adv-x="530" 
d="M354 0v46q-29 -29 -58 -40.5t-77 -11.5q-90 0 -133 44t-43 111q0 66 45 106t130 40h134v36q0 49 -26 72t-85 23q-41 0 -65.5 -10.5t-45.5 -38.5l-67 63q35 40 76.5 56.5t105.5 16.5q209 0 209 -174v-339h-100zM352 224h-119q-91 0 -91 -73q0 -72 93 -72q36 0 55.5 5
t40.5 25.5t21 73.5v41zM257 576q-52 0 -88.5 36.5t-36.5 88.5t36.5 88.5t88.5 36.5t88.5 -36.5t36.5 -88.5t-36.5 -88.5t-88.5 -36.5zM257 764q-26 0 -45 -18t-19 -45q0 -26 18.5 -44.5t45.5 -18.5q26 0 45 18t19 45q0 26 -18.5 44.5t-45.5 18.5z" />
    <glyph glyph-name="ae" unicode="&#xe6;" horiz-adv-x="837" 
d="M453 224q0 -66 33 -104t96 -38q42 0 68 11.5t55 40.5l65 -61q-41 -41 -83.5 -60t-106.5 -19q-59 0 -103.5 18.5t-75.5 60.5q-37 -45 -78 -62t-104 -17q-90 0 -122.5 33t-43 61t-10.5 61q0 66 45 106t130 40h134v36q0 49 -26 72t-85 23q-41 0 -65.5 -10.5t-45.5 -38.5
l-67 63q35 40 76.5 56.5t105.5 16.5q125 0 172 -67q55 67 150 67q100 0 157.5 -67.5t57.5 -176.5v-45h-329zM668 364q-12 29 -38.5 46.5t-62.5 17.5q-73 0 -90.5 -41.5t-20.5 -54.5t-3 -37h228q0 39 -13 69zM352 224h-119q-91 0 -91 -73q0 -72 93 -72q36 0 55.5 5t40.5 25.5
t21 73.5v41z" />
    <glyph glyph-name="ccedilla" unicode="&#xe7;" horiz-adv-x="488" 
d="M281 -6q-96 0 -161 63t-65 197q0 133 65 196t161 63q54 0 92 -16t75 -55l-70 -68q-44 48 -97 48q-60 0 -92 -41.5t-32 -126.5q0 -86 32 -127.5t92 -41.5q31 0 51 10t46 38l70 -67q-68 -72 -167 -72zM268 -211h-101l70 147h82z" />
    <glyph glyph-name="egrave" unicode="&#xe8;" horiz-adv-x="539" 
d="M156 224q0 -67 33.5 -104.5t95.5 -37.5q42 0 68 11.5t55 40.5l65 -61q-41 -41 -83.5 -60t-106.5 -19q-105 0 -166.5 61t-61.5 199q0 122 58 190.5t157 68.5q100 0 157.5 -67.5t57.5 -176.5v-45h-329zM370 364q-12 29 -38.5 46.5t-61.5 17.5q-36 0 -62 -17t-39 -47
t-13 -69h228q0 37 -14 69zM248 599l-111 162h113l75 -162h-77z" />
    <glyph glyph-name="eacute" unicode="&#xe9;" horiz-adv-x="539" 
d="M156 224q0 -67 33.5 -104.5t95.5 -37.5q42 0 68 11.5t55 40.5l65 -61q-41 -41 -83.5 -60t-106.5 -19q-105 0 -166.5 61t-61.5 199q0 122 58 190.5t157 68.5q100 0 157.5 -67.5t57.5 -176.5v-45h-329zM370 364q-12 29 -38.5 46.5t-61.5 17.5q-36 0 -62 -17t-39 -47
t-13 -69h228q0 37 -14 69zM298 599h-77l75 162h113z" />
    <glyph glyph-name="ecircumflex" unicode="&#xea;" horiz-adv-x="539" 
d="M156 224q0 -67 33.5 -104.5t95.5 -37.5q42 0 68 11.5t55 40.5l65 -61q-41 -41 -83.5 -60t-106.5 -19q-105 0 -166.5 61t-61.5 199q0 122 58 190.5t157 68.5q100 0 157.5 -67.5t57.5 -176.5v-45h-329zM370 364q-12 29 -38.5 46.5t-61.5 17.5q-36 0 -62 -17t-39 -47
t-13 -69h228q0 37 -14 69zM360 599l-87 97l-87 -97h-85l129 161h86l129 -161h-85z" />
    <glyph glyph-name="edieresis" unicode="&#xeb;" horiz-adv-x="539" 
d="M156 224q0 -67 33.5 -104.5t95.5 -37.5q42 0 68 11.5t55 40.5l65 -61q-41 -41 -83.5 -60t-106.5 -19q-105 0 -166.5 61t-61.5 199q0 122 58 190.5t157 68.5q100 0 157.5 -67.5t57.5 -176.5v-45h-329zM370 364q-12 29 -38.5 46.5t-61.5 17.5q-36 0 -62 -17t-39 -47
t-13 -69h228q0 37 -14 69zM335 604v108h92v-108h-92zM119 604v108h92v-108h-92z" />
    <glyph glyph-name="igrave" unicode="&#xec;" horiz-adv-x="264" 
d="M81 0v507h102v-507h-102zM192 599l-111 162h113l75 -162h-77z" />
    <glyph glyph-name="iacute" unicode="&#xed;" horiz-adv-x="264" 
d="M81 0v507h102v-507h-102zM158 599h-77l75 162h113z" />
    <glyph glyph-name="icircumflex" unicode="&#xee;" horiz-adv-x="264" 
d="M81 0v507h102v-507h-102zM340 599l-87 97l-87 -97h-85l129 161h86l129 -161h-85z" />
    <glyph glyph-name="idieresis" unicode="&#xef;" horiz-adv-x="264" 
d="M81 0v507h102v-507h-102zM297 604v108h92v-108h-92zM81 604v108h92v-108h-92z" />
    <glyph glyph-name="ntilde" unicode="&#xf1;" horiz-adv-x="568" 
d="M390 0v309q0 57 -28 85t-74 28t-75.5 -28.5t-29.5 -84.5v-309h-102v507h100v-51q53 57 135 57q39 0 70.5 -11.5t57 -36.5t37 -60t11.5 -81v-324h-102zM352 612q-19 0 -37 6t-44.5 21t-49.5 15q-16 0 -27 -5t-31 -25l-48 47q31 31 55 43t49 12q20 0 36.5 -5.5t36 -17
t31 -16t26.5 -4.5q14 0 27 6t32 25l48 -47q-31 -31 -55 -43t-49 -12z" />
    <glyph glyph-name="ograve" unicode="&#xf2;" horiz-adv-x="537" 
d="M420 54q-27 -28 -64.5 -44t-87.5 -16q-49 0 -86.5 16t-68 48t-43.5 79t-13 117q0 68 13 116t43.5 79.5t67.5 47.5t87 16q49 0 87 -16t68.5 -48t43.5 -79t13 -116t-13 -117t-47 -83zM343 393q-29 29 -75 29q-45 0 -70 -25t-32 -59.5t-7 -83.5q0 -53 6.5 -85t32.5 -58
t70 -26q45 0 70.5 25.5t32.5 60t7 83.5q0 53 -6.5 85t-28.5 54zM236 599l-111 162h113l75 -162h-77z" />
    <glyph glyph-name="oacute" unicode="&#xf3;" horiz-adv-x="537" 
d="M420 54q-27 -28 -64.5 -44t-87.5 -16q-49 0 -86.5 16t-68 48t-43.5 79t-13 117q0 68 13 116t43.5 79.5t67.5 47.5t87 16q49 0 87 -16t68.5 -48t43.5 -79t13 -116t-13 -117t-47 -83zM343 393q-29 29 -75 29q-45 0 -70 -25t-32 -59.5t-7 -83.5q0 -53 6.5 -85t32.5 -58
t70 -26q45 0 70.5 25.5t32.5 60t7 83.5q0 53 -6.5 85t-28.5 54zM293 599h-77l75 162h113z" />
    <glyph glyph-name="ocircumflex" unicode="&#xf4;" horiz-adv-x="537" 
d="M420 54q-27 -28 -64.5 -44t-87.5 -16q-49 0 -86.5 16t-68 48t-43.5 79t-13 117q0 68 13 116t43.5 79.5t67.5 47.5t87 16q49 0 87 -16t68.5 -48t43.5 -79t13 -116t-13 -117t-47 -83zM343 393q-29 29 -75 29q-45 0 -70 -25t-32 -59.5t-7 -83.5q0 -53 6.5 -85t32.5 -58
t70 -26q45 0 70.5 25.5t32.5 60t7 83.5q0 53 -6.5 85t-28.5 54zM355 599l-87 97l-87 -97h-85l129 161h86l129 -161h-85z" />
    <glyph glyph-name="otilde" unicode="&#xf5;" horiz-adv-x="537" 
d="M420 54q-27 -28 -64.5 -44t-87.5 -16q-49 0 -86.5 16t-68 48t-43.5 79t-13 117q0 68 13 116t43.5 79.5t67.5 47.5t87 16q49 0 87 -16t68.5 -48t43.5 -79t13 -116t-13 -117t-47 -83zM343 393q-29 29 -75 29q-45 0 -70 -25t-32 -59.5t-7 -83.5q0 -53 6.5 -85t32.5 -58
t70 -26q45 0 70.5 25.5t32.5 60t7 83.5q0 53 -6.5 85t-28.5 54zM333 612q-19 0 -37 6t-44.5 21t-49.5 15q-16 0 -27 -5t-31 -25l-48 47q31 31 55 43t49 12q20 0 36.5 -5.5t36 -17t31 -16t26.5 -4.5q14 0 27 6t32 25l48 -47q-31 -31 -55 -43t-49 -12z" />
    <glyph glyph-name="odieresis" unicode="&#xf6;" horiz-adv-x="537" 
d="M420 54q-27 -28 -64.5 -44t-87.5 -16q-49 0 -86.5 16t-68 48t-43.5 79t-13 117q0 68 13 116t43.5 79.5t67.5 47.5t87 16q49 0 87 -16t68.5 -48t43.5 -79t13 -116t-13 -117t-47 -83zM343 393q-29 29 -75 29q-45 0 -70 -25t-32 -59.5t-7 -83.5q0 -53 6.5 -85t32.5 -58
t70 -26q45 0 70.5 25.5t32.5 60t7 83.5q0 53 -6.5 85t-28.5 54zM330 604v108h92v-108h-92zM114 604v108h92v-108h-92z" />
    <glyph glyph-name="divide" unicode="&#xf7;" 
d="M212 414v109h109v-109h-109zM48 230v95h436v-95h-436zM212 33v109h109v-109h-109z" />
    <glyph glyph-name="oslash" unicode="&#xf8;" horiz-adv-x="537" 
d="M420 54q-27 -28 -64.5 -44t-87.5 -16q-29 0 -55.5 6.5t-48.5 18.5l-37 -63h-69l58 99q-33 35 -46 83t-13 116t13 116t43.5 79.5t67.5 47.5t87 16q30 0 56.5 -6.5t48.5 -18.5l37 63h69l-59 -98q34 -36 47 -83t13 -116t-13 -117t-47 -83zM268 422q-45 0 -70 -25t-32 -59.5
t-7 -83.5q0 -39 2.5 -62.5t12.5 -46.5l154 260q-26 17 -60 17zM363 363l-154 -260q26 -18 59 -18q45 0 70.5 25.5t32.5 60t7 83.5q0 39 -2.5 62.5t-12.5 46.5z" />
    <glyph glyph-name="ugrave" unicode="&#xf9;" horiz-adv-x="568" 
d="M387 0v51q-53 -57 -135 -57q-39 0 -70.5 11.5t-57 36.5t-37 60t-11.5 81v324h102v-309q0 -57 28 -85t74 -28t75.5 28.5t29.5 84.5v309h102v-507h-100zM256 599l-111 162h113l75 -162h-77z" />
    <glyph glyph-name="uacute" unicode="&#xfa;" horiz-adv-x="568" 
d="M387 0v51q-53 -57 -135 -57q-39 0 -70.5 11.5t-57 36.5t-37 60t-11.5 81v324h102v-309q0 -57 28 -85t74 -28t75.5 28.5t29.5 84.5v309h102v-507h-100zM306 599h-77l75 162h113z" />
    <glyph glyph-name="ucircumflex" unicode="&#xfb;" horiz-adv-x="568" 
d="M387 0v51q-53 -57 -135 -57q-39 0 -70.5 11.5t-57 36.5t-37 60t-11.5 81v324h102v-309q0 -57 28 -85t74 -28t75.5 28.5t29.5 84.5v309h102v-507h-100zM368 599l-87 97l-87 -97h-85l129 161h86l129 -161h-85z" />
    <glyph glyph-name="udieresis" unicode="&#xfc;" horiz-adv-x="568" 
d="M387 0v51q-53 -57 -135 -57q-39 0 -70.5 11.5t-57 36.5t-37 60t-11.5 81v324h102v-309q0 -57 28 -85t74 -28t75.5 28.5t29.5 84.5v309h102v-507h-100zM343 604v108h92v-108h-92zM127 604v108h92v-108h-92z" />
    <glyph glyph-name="ydieresis" unicode="&#xff;" horiz-adv-x="468" 
d="M240 -101q-14 -40 -35.5 -61.5t-47.5 -30t-58 -8.5h-41v92h26q32 0 46.5 11t26.5 43l28 79l-177 483h108l121 -357l118 357h109zM296 604v108h92v-108h-92zM80 604v108h92v-108h-92z" />
    <glyph glyph-name="dotlessi" unicode="&#x131;" horiz-adv-x="264" 
d="M81 0v507h102v-507h-102z" />
    <glyph glyph-name="OE" unicode="&#x152;" horiz-adv-x="977" 
d="M471 0v58q-29 -33 -68 -48.5t-82 -15.5q-111 0 -171.5 60.5t-71.5 120t-11 181.5q0 125 10.5 182.5t71.5 118.5t172 61q45 0 83 -15.5t67 -48.5v58h450v-96h-342v-210h291v-94h-291v-216h343v-96h-451zM429 577q-19 21 -46.5 32.5t-59.5 11.5q-31 0 -58.5 -12t-50 -36
t-30.5 -66.5t-8 -150.5q0 -112 7.5 -151.5t41.5 -76.5t98 -37q31 0 59.5 12t50.5 36t30 66.5t8 150.5q0 112 -7.5 151.5t-34.5 69.5z" />
    <glyph glyph-name="oe" unicode="&#x153;" horiz-adv-x="862" 
d="M478 224q0 -67 33.5 -104.5t95.5 -37.5q42 0 68 11.5t55 40.5l65 -61q-42 -42 -83 -60.5t-106 -18.5q-58 0 -102 19.5t-73 60.5q-24 -37 -66.5 -58.5t-96.5 -21.5q-49 0 -86.5 16t-68 48t-43.5 79t-13 117q0 68 13 116t43.5 79.5t67.5 47.5t87 16q56 0 97.5 -20.5
t66.5 -60.5q53 81 160 81q100 0 157.5 -67.5t57.5 -176.5v-45h-329zM693 364q-12 29 -38.5 46.5t-62.5 17.5q-73 0 -90.5 -41.5t-20.5 -54.5t-3 -37h228q0 39 -13 69zM343 393q-29 29 -75 29q-45 0 -70 -25t-32 -59.5t-7 -83.5q0 -53 6.5 -85t32.5 -58t70 -26
q45 0 70.5 25.5t32.5 60t7 83.5q0 53 -6.5 85t-28.5 54z" />
    <glyph glyph-name="Ydieresis" unicode="&#x178;" horiz-adv-x="544" 
d="M326 293v-293h-108v293l-213 419h118l149 -313l149 313h118zM334 786v108h92v-108h-92zM118 786v108h92v-108h-92z" />
    <glyph glyph-name="florin" unicode="&#x192;" horiz-adv-x="415" 
d="M326 630q-55 0 -66 -59l-32 -180h101v-78h-115l-91 -518h-102l91 518h-82v78h96l33 185q11 60 53 100.5t110 40.5h63v-87h-59z" />
    <glyph glyph-name="hungarumlaut" unicode="&#x2ba;" horiz-adv-x="500" 
d="M344 599h-76l76 162h112zM160 599h-77l75 162h113z" />
    <glyph glyph-name="caron" unicode="&#x2c7;" horiz-adv-x="500" 
d="M293 599h-86l-129 161h85l87 -97l87 97h85z" />
    <glyph glyph-name="macron" unicode="&#x2c9;" horiz-adv-x="500" 
d="M95 622v73h310v-73h-310z" />
    <glyph glyph-name="breve" unicode="&#x2d8;" horiz-adv-x="500" 
d="M251 590q-74 0 -120 36.5t-46 108.5h74q4 -34 29 -52.5t63 -18.5q37 0 62.5 18.5t29.5 52.5h72q0 -72 -44.5 -108.5t-119.5 -36.5z" />
    <glyph glyph-name="dotaccent" unicode="&#x2d9;" horiz-adv-x="500" 
d="M196 620v91h108v-91h-108z" />
    <glyph glyph-name="ring" unicode="&#x2da;" horiz-adv-x="500" 
d="M250 576q-52 0 -88.5 36.5t-36.5 88.5t36.5 88.5t88.5 36.5t88.5 -36.5t36.5 -88.5t-36.5 -88.5t-88.5 -36.5zM250 764q-26 0 -45 -18t-19 -45q0 -26 18.5 -44.5t45.5 -18.5q26 0 45 18t19 45q0 26 -18.5 44.5t-45.5 18.5z" />
    <glyph glyph-name="ogonek" unicode="&#x2db;" horiz-adv-x="500" 
d="M228 -211l-51 147h82l70 -147h-101z" />
    <glyph glyph-name="circumflex" unicode="&#x302;" horiz-adv-x="500" 
d="M337 599l-87 97l-87 -97h-85l129 161h86l129 -161h-85z" />
    <glyph glyph-name="tilde" unicode="&#x303;" horiz-adv-x="500" 
d="M315 612q-19 0 -37 6t-44.5 21t-49.5 15q-16 0 -27 -5t-31 -25l-48 47q31 31 55 43t49 12q20 0 36.5 -5.5t36 -17t31 -16t26.5 -4.5q14 0 27 6t32 25l48 -47q-31 -31 -55 -43t-49 -12z" />
    <glyph glyph-name="summation" unicode="&#x3a3;" horiz-adv-x="552" 
d="M48 -205v88l195 406l-193 383v88h455v-97h-329l161 -325v-100l-164 -346h335v-97h-460z" />
    <glyph glyph-name="Omega" unicode="&#x3a9;" horiz-adv-x="647" 
d="M372 0v87q25 12 42 25.5t31 35.5t20 69t6 134q0 113 -7.5 154t-42.5 78.5t-98 37.5q-31 0 -57.5 -12t-50 -36.5t-31.5 -68.5t-8 -153q0 -164 19.5 -194t36 -44t42.5 -26v-87h-207v96h70q-15 14 -25.5 28.5t-22.5 40.5t-17 75t-5 116q0 125 10.5 181.5t72.5 118.5t173 62
q57 0 103.5 -19t89 -61.5t53 -99.5t10.5 -182q0 -73 -4 -118.5t-16.5 -72.5t-22 -40t-27.5 -29h70v-96h-207z" />
    <glyph glyph-name="pi" unicode="&#x3c0;" horiz-adv-x="591" 
d="M403 0v412h-214v-412h-101v507h415v-507h-100z" />
    <glyph glyph-name="endash" unicode="&#x2013;" 
d="M51 230v95h431v-95h-431z" />
    <glyph glyph-name="emdash" unicode="&#x2014;" horiz-adv-x="972" 
d="M67 231v97h838v-97h-838z" />
    <glyph glyph-name="quoteleft" unicode="&#x2018;" horiz-adv-x="268" 
d="M78 608v104l112 93v-197h-112z" />
    <glyph glyph-name="quoteright" unicode="&#x2019;" horiz-adv-x="268" 
d="M78 516v196h112v-105z" />
    <glyph glyph-name="quotesinglbase" unicode="&#x201a;" horiz-adv-x="267" 
d="M78 -92v197h112v-105z" />
    <glyph glyph-name="quotedblleft" unicode="&#x201c;" horiz-adv-x="459" 
d="M269 608v104l112 93v-197h-112zM78 608v104l112 93v-197h-112z" />
    <glyph glyph-name="quotedblright" unicode="&#x201d;" horiz-adv-x="459" 
d="M269 516v196h112v-105zM78 516v196h112v-105z" />
    <glyph glyph-name="quotedblbase" unicode="&#x201e;" horiz-adv-x="460" 
d="M269 -92v197h112v-105zM78 -92v197h112v-105z" />
    <glyph glyph-name="dagger" unicode="&#x2020;" horiz-adv-x="591" 
d="M346 427v-427h-102v427h-179v91h179v194h102v-194h180v-91h-180z" />
    <glyph glyph-name="daggerdbl" unicode="&#x2021;" horiz-adv-x="591" 
d="M346 -11v-194h-102v194h-179v92h179v346h-179v91h179v194h102v-194h180v-91h-180v-346h180v-92h-180z" />
    <glyph glyph-name="bullet" unicode="&#x2022;" horiz-adv-x="512" 
d="M256 171q-68 0 -115.5 47.5t-47.5 115.5t47.5 115.5t115.5 47.5t115.5 -47.5t47.5 -115.5t-47.5 -115.5t-115.5 -47.5z" />
    <glyph glyph-name="ellipsis" unicode="&#x2026;" horiz-adv-x="803" 
d="M608 0v117h117v-117h-117zM343 0v117h117v-117h-117zM78 0v117h117v-117h-117z" />
    <glyph glyph-name="perthousand" unicode="&#x2030;" horiz-adv-x="1196" 
d="M644 -7q-60 0 -100 37t-40 100v101q0 64 39.5 100.5t100.5 36.5q60 0 100 -37t40 -100v-101q0 -64 -39.5 -100.5t-100.5 -36.5zM294 0h-82l336 712h81zM198 345q-61 0 -100.5 36t-39.5 100v101q0 64 39.5 100.5t100.5 36.5q60 0 100 -37t40 -100v-101q0 -63 -39.5 -99.5
t-100.5 -36.5zM707 228q0 72 -63 72t-63 -72v-95q0 -72 63 -72t63 72v95zM261 579q0 72 -63 72t-63 -72v-95q0 -71 63 -71t63 71v95zM998 -7q-60 0 -100 37t-40 100v101q0 64 39.5 100.5t100.5 36.5q60 0 100 -37t40 -100v-101q0 -64 -39.5 -100.5t-100.5 -36.5zM1061 228
q0 72 -63 72t-63 -72v-95q0 -72 63 -72t63 72v95z" />
    <glyph glyph-name="guilsinglleft" unicode="&#x2039;" horiz-adv-x="339" 
d="M37 272l230 229v-123l-107 -106l107 -107v-123z" />
    <glyph glyph-name="guilsinglright" unicode="&#x203a;" horiz-adv-x="339" 
d="M72 42v123l108 107l-108 106v123l231 -229z" />
    <glyph glyph-name="trademark" unicode="&#x2122;" horiz-adv-x="883" 
d="M745 285v279l-90 -179h-71l-90 179v-279h-77v427h77l125 -243l126 243h77v-427h-77zM231 643v-358h-76v358h-114v69h305v-69h-115z" />
    <glyph glyph-name="partialdiff" unicode="&#x2202;" horiz-adv-x="549" 
d="M411 53q-25 -27 -62 -43t-84 -16q-49 0 -84.5 15.5t-65.5 47t-42 77.5t-12 115q0 71 12 117.5t41 76.5t63.5 45.5t81.5 15.5q35 0 59.5 -8t47.5 -34v47q0 49 -29 85.5t-90 36.5q-38 0 -60.5 -9.5t-49.5 -34.5l-64 64q40 37 80 52t98 15q105 0 161 -62t56 -165v-242
q0 -72 -11.5 -116t-45.5 -80zM334 384q-29 29 -69 29q-22 0 -38.5 -7t-34 -25t-23.5 -50.5t-6 -81.5t6 -81.5t30.5 -57.5t65.5 -25q40 0 64.5 25t30.5 57.5t6 81.5t-6 81.5t-26 53.5z" />
    <glyph glyph-name="Delta" unicode="&#x2206;" horiz-adv-x="619" 
d="M5 0l261 712h87l260 -712h-608zM311 551l-162 -459h323z" />
    <glyph glyph-name="product" unicode="&#x220f;" horiz-adv-x="690" 
d="M489 -205v869h-288v-869h-108v965h505v-965h-109z" />
    <glyph glyph-name="fraction" unicode="&#x2215;" horiz-adv-x="197" 
d="M-28 0h-82l335 712h82z" />
    <glyph glyph-name="periodcentered" unicode="&#x2219;" horiz-adv-x="278" 
d="M78 217v122h122v-122h-122z" />
    <glyph glyph-name="radical" unicode="&#x221a;" horiz-adv-x="580" 
d="M459 615l-202 -615h-84l-168 507h111l99 -313l163 518h172v-97h-91z" />
    <glyph glyph-name="infinity" unicode="&#x221e;" horiz-adv-x="830" 
d="M594 102q-51 0 -93.5 24.5t-85.5 74.5q-42 -49 -85.5 -74.5t-93.5 -25.5q-81 0 -128 49t-47 126q0 75 47 125t128 50q50 0 93 -24.5t86 -75.5q43 50 85 75t94 25q81 0 128 -49t47 -126q0 -76 -47 -125t-128 -49zM592 352q-34 0 -59 -24t-50 -54q35 -41 58 -60t51 -19
q34 0 56.5 21.5t22.5 57.5q0 35 -22.5 56.5t-56.5 21.5zM237 353q-33 0 -55.5 -21.5t-22.5 -57.5q0 -35 22 -57t56 -22q29 0 52 18.5t58 60.5q-35 41 -58 60t-52 19z" />
    <glyph glyph-name="integral" unicode="&#x222b;" horiz-adv-x="433" 
d="M341 633q-72 0 -72 -74v-599q0 -76 -44 -119t-120 -43h-57v87h44q71 0 71 74v599q0 75 44.5 118.5t120.5 43.5h57v-87h-44z" />
    <glyph glyph-name="approxequal" unicode="&#x2248;" horiz-adv-x="574" 
d="M383 303q-29 0 -52.5 7t-53.5 22t-48 21t-37 6q-24 0 -41 -8t-44 -35l-64 64q43 43 76 60t71 17q29 0 51 -7t52 -21.5t49.5 -21t38.5 -6.5q24 0 41 8t44 35l65 -64q-43 -43 -76 -60t-72 -17zM384 100q-26 0 -51.5 8t-55 22.5t-47.5 20.5t-37 6q-24 0 -41 -8t-45 -36
l-64 64q44 44 76 61t72 17q27 0 51 -7.5t53 -22t48.5 -21t38.5 -6.5q24 0 40 7.5t45 36.5l64 -64q-44 -44 -76 -61t-71 -17z" />
    <glyph glyph-name="notequal" unicode="&#x2260;" horiz-adv-x="571" 
d="M217 133l-103 -120l-63 51l61 69h-61v95h138l88 99h-226v95h302l104 120l63 -51l-61 -69h61v-95h-138l-88 -99h226v-95h-303z" />
    <glyph glyph-name="lessequal" unicode="&#x2264;" horiz-adv-x="1027" 
d="M805 -83l-526 527v-487l-92 92v554h555l92 -92l-487 1l526 -526z" />
    <glyph glyph-name="greaterequal" unicode="&#x2265;" horiz-adv-x="1027" 
d="M747 -43l1 487l-526 -527l-69 69l527 527l-487 -2l92 92h554v-554z" />
    <glyph glyph-name="lozenge" unicode="&#x25ca;" horiz-adv-x="642" 
d="M321 -19l-260 365l260 365l261 -365zM321 553l-146 -207l146 -208l146 208z" />
    <glyph glyph-name="fi" unicode="&#xf001;" horiz-adv-x="583" 
d="M396 624v91h109v-91h-109zM399 0v498h102v-498h-102zM197 420v-420h-102v420h-58v78h58v78q0 60 35.5 100.5t103.5 40.5h63v-87h-45q-55 0 -55 -59v-73h100v-78h-100z" />
    <glyph glyph-name="fl" unicode="&#xf002;" horiz-adv-x="626" 
d="M536 0q-69 0 -104 39.5t-35 100.5v572h102v-566q0 -30 12.5 -44.5t42.5 -14.5h45v-87h-63zM197 420v-420h-102v420h-58v78h58v78q0 60 35.5 100.5t103.5 40.5h63v-87h-45q-55 0 -55 -59v-73h100v-78h-100z" />
    <glyph glyph-name="glyph225" horiz-adv-x="587" 
d="M107 0v266l-69 -44v93l69 43v354h108v-286l141 89v-91l-141 -89v-238h342v-97h-450z" />
    <glyph glyph-name="glyph226" horiz-adv-x="326" 
d="M231 0q-69 0 -104 39.5t-35 100.5v181l-59 -36v87l59 36v304h102v-242l70 43v-86l-70 -44v-237q0 -30 12.5 -44.5t42.5 -14.5h45v-87h-63z" />
    <glyph glyph-name="glyph227" horiz-adv-x="590" 
d="M282 -6q-82 0 -142 21.5t-110 72.5l72 71q37 -37 81.5 -52.5t100.5 -15.5q70 0 108.5 28.5t38.5 80.5q0 49 -20.5 67.5t-37.5 25.5t-48 11l-84 12q-87 12 -137 59t-50 134q0 94 64 151.5t174 57.5q134 0 221 -81l-69 -68q-31 30 -69 42.5t-86 12.5q-61 0 -95.5 -31.5
t-34.5 -79.5q0 -42 27.5 -66.5t79.5 -32.5l81 -12q48 -7 78.5 -19.5t71.5 -48.5t41 -131q0 -97 -70.5 -153t-185.5 -56zM335 781h-86l-129 161h85l87 -97l87 97h85z" />
    <glyph glyph-name="glyph228" horiz-adv-x="499" 
d="M245 -6q-69 0 -119.5 15.5t-93.5 57.5l67 67q28 -29 66 -41t80 -12q49 0 80 17.5t31 52.5q0 28 -16 44t-52 16l-81 7q-74 6 -112 40t-38 100q0 73 53.5 114t137.5 41q59 0 106 -13.5t82 -43.5l-64 -65q-22 19 -55.5 28t-69.5 9q-45 0 -68.5 -17.5t-23.5 -47.5
q0 -25 15.5 -39.5t54.5 -18.5l80 -7q74 -6 112.5 -41t38.5 -102q0 -77 -58.5 -119t-152.5 -42zM291 599h-86l-129 161h85l87 -97l87 97h85z" />
    <glyph glyph-name="glyph229" horiz-adv-x="552" 
d="M48 0v93l329 522h-315v97h442v-88l-331 -527h331v-97h-456zM324 781h-86l-129 161h85l87 -97l87 97h85z" />
    <glyph glyph-name="glyph230" horiz-adv-x="469" 
d="M43 0v81l252 335h-238v91h364v-81l-254 -335h254v-91h-378zM282 599h-86l-129 161h85l87 -97l87 97h85z" />
    <glyph glyph-name="glyph231" horiz-adv-x="344" 
d="M118 436v350h102v-350h-102zM118 -74v350h102v-350h-102z" />
    <glyph glyph-name="glyph232" horiz-adv-x="684" 
d="M563 94q-35 -44 -87 -69t-117 -25h-247v318h-74v83h74v311h250q127 0 182.5 -71.5t64 -119.5t8.5 -165q0 -96 -5 -152t-49 -110zM478 554q-45 62 -129 62h-129v-215h138v-83h-138v-222h129q90 0 120 44.5t35 79.5t5 133q0 99 -5.5 136t-25.5 65z" />
    <glyph glyph-name="glyph233" horiz-adv-x="537" 
d="M417 53q-25 -27 -63 -43t-86 -16q-49 0 -85 15.5t-66 46.5t-43 78t-13 115q0 70 12 115.5t49 83t78 44.5t59 7q19 0 41 -5l-45 81h-116v72h78l-39 70h108l39 -70h87v-72h-50l51 -94q37 -69 50 -116.5t13 -115.5q0 -70 -12 -115.5t-47 -80.5zM341 384q-29 29 -73 29
q-43 0 -68 -25t-31 -57t-6 -82q0 -63 8 -90.5t31 -50.5t66 -23q44 0 69 25t31 57t6 82q0 63 -8 90.5t-25 44.5z" />
    <glyph glyph-name="glyph234" horiz-adv-x="544" 
d="M326 293v-293h-108v293l-213 419h118l149 -313l149 313h118zM297 781h-77l75 162h113z" />
    <glyph glyph-name="glyph235" horiz-adv-x="468" 
d="M240 -101q-14 -40 -35.5 -61.5t-47.5 -30t-58 -8.5h-41v92h26q32 0 46.5 11t26.5 43l28 79l-177 483h108l121 -357l118 357h109zM259 599h-77l75 162h113z" />
    <glyph glyph-name="glyph236" horiz-adv-x="637" 
d="M363 144h-162v-144h-108v712h108v-137h162q103 0 165.5 -60.5t62.5 -155.5q0 -94 -62.5 -154.5t-165.5 -60.5zM356 478h-155v-237h155q57 0 91.5 31.5t34.5 86.5q0 56 -34.5 87.5t-91.5 31.5z" />
    <glyph glyph-name="glyph237" horiz-adv-x="554" 
d="M439 39q-45 -45 -123 -45q-44 0 -75 12.5t-58 45.5v-257h-102v917h102v-256q26 31 58 44t75 13q78 0 117.5 -39.5t51 -95t11.5 -124.5q0 -74 -11 -127t-46 -88zM289 422q-63 0 -84.5 -44.5t-21.5 -123.5q0 -81 21.5 -125t84.5 -44t84 44t21 125q0 80 -21 124t-84 44z" />
    <glyph glyph-name="glyph238" 
d="M51 230v95h431v-95h-431z" />
    <glyph glyph-name="glyph239" 
d="M412 69l-146 145l-145 -145l-64 63l146 146l-146 146l64 64l145 -146l146 146l64 -64l-146 -146l146 -146z" />
    <glyph glyph-name="glyph240" horiz-adv-x="277" 
d="M127 285v341l-87 -76v87l87 75h77v-427h-77z" />
    <glyph glyph-name="glyph241" horiz-adv-x="350" 
d="M45 285v69l161 186q22 26 22 52q0 55 -53 55q-24 0 -38.5 -12.5t-14.5 -42.5h-77q0 57 36.5 90.5t93.5 33.5t93.5 -33.5t36.5 -90.5q0 -28 -10.5 -48.5t-35.5 -49.5l-121 -140h167v-69h-260z" />
    <glyph glyph-name="glyph242" horiz-adv-x="362" 
d="M182 280q-59 0 -98 31t-39 95h77q0 -28 17.5 -42.5t42.5 -14.5q26 0 42 16t16 45q0 60 -61 60h-11v66h11q27 0 41.5 15.5t14.5 39.5q0 27 -15 41.5t-39 14.5q-54 0 -54 -52h-76q0 56 37 88.5t93 32.5t93 -34t37 -88q0 -33 -13.5 -55t-36.5 -34q26 -13 41 -36.5t15 -60.5
q0 -61 -38.5 -94.5t-96.5 -33.5z" />
    <glyph glyph-name="glyph243" horiz-adv-x="827" 
d="M523 0v69l160 186q22 26 22 52q0 55 -53 55q-24 0 -38.5 -12.5t-14.5 -42.5h-76q0 57 35.5 90.5t93.5 33.5q57 0 93.5 -33.5t36.5 -90.5q0 -28 -10.5 -48.5t-35.5 -49.5l-121 -140h167v-69h-259zM253 0h-81l335 712h81zM127 285v341l-87 -76v87l87 75h77v-427h-77z" />
    <glyph glyph-name="glyph244" horiz-adv-x="808" 
d="M728 61v-61h-74v61h-174v71l147 295h83l-147 -295h91v83h74v-83h40v-71h-40zM261 0h-81l335 712h81zM127 285v341l-87 -76v87l87 75h77v-427h-77z" />
    <glyph glyph-name="glyph245" horiz-adv-x="844" 
d="M764 61v-61h-73v61h-174v71l146 295h84l-147 -295h91v83h73v-83h40v-71h-40zM303 0h-81l335 712h81zM182 280q-59 0 -98 31t-39 95h77q0 -28 17.5 -42.5t42.5 -14.5q26 0 42 16t16 45q0 60 -61 60h-11v66h11q27 0 41.5 15.5t14.5 39.5q0 27 -15 41.5t-39 14.5
q-54 0 -54 -52h-76q0 56 37 88.5t93 32.5t93 -34t37 -88q0 -33 -13.5 -55t-36.5 -34q26 -13 41 -36.5t15 -60.5q0 -61 -38.5 -94.5t-96.5 -33.5z" />
  </font>
</defs>
</svg>
