<?xml version="1.0" standalone="no"?>
<!DOCTYPE svg PUBLIC "-//W3C//DTD SVG 1.1//EN" "http://www.w3.org/Graphics/SVG/1.1/DTD/svg11.dtd" >
<svg xmlns="http://www.w3.org/2000/svg" xmlns:xlink="http://www.w3.org/1999/xlink" version="1.1">
<metadata>
Created by FontForge 20170731 at Tue May 31 23:36:42 2005
 By Aleksey,,,
\251 Dutch Design: Albert-Jan Pool, 1995. Published by FontShop International FontFont release 15
</metadata>
<defs>
<font id="DIN-Bold" horiz-adv-x="543" >
  <font-face 
    font-family="DIN-Bold"
    font-weight="5"
    font-stretch="normal"
    units-per-em="1000"
    panose-1="0 0 0 0 0 0 0 0 0 0"
    ascent="800"
    descent="-200"
    x-height="521"
    cap-height="712"
    bbox="-115 -206 1158 1015"
    underline-thickness="87"
    underline-position="-264"
    unicode-range="U+0020-F002"
  />
<missing-glyph horiz-adv-x="803" 
d="M50 0v803h703v-803h-703zM703 50v703h-603v-703h603z" />
    <glyph glyph-name=".notdef" horiz-adv-x="803" 
d="M50 0v803h703v-803h-703zM703 50v703h-603v-703h603z" />
    <glyph glyph-name="glyph1" horiz-adv-x="0" 
 />
    <glyph glyph-name="glyph2" horiz-adv-x="232" 
 />
    <glyph glyph-name="space" unicode=" " horiz-adv-x="232" 
 />
    <glyph glyph-name="exclam" unicode="!" horiz-adv-x="347" 
d="M241 223h-98l-31 489h160zM123 0v133h138v-133h-138z" />
    <glyph glyph-name="quotedbl" unicode="&#x22;" horiz-adv-x="464" 
d="M274 501v211h121v-211h-121zM68 501v211h122v-211h-122z" />
    <glyph glyph-name="numbersign" unicode="#" horiz-adv-x="691" 
d="M554 420l-16 -108h69v-122h-89l-30 -190h-137l31 190h-116l-30 -190h-137l30 190h-69v122h89l16 108h-70v121h89l28 177h137l-28 -177h116l28 177h136l-27 -177h69v-121h-89zM302 420l-17 -108h116l16 108h-115z" />
    <glyph glyph-name="dollar" unicode="$" horiz-adv-x="619" 
d="M356 -2v-112h-101v108q-73 0 -130.5 22.5t-105.5 71.5l90 90q31 -31 70.5 -45.5t88.5 -14.5v181l-32 4q-46 6 -80 21t-71.5 52.5t-37.5 125.5q0 87 55.5 145.5t152.5 68.5v90h101v-89q59 0 107 -20.5t90 -61.5l-88 -87q-24 23 -57 35.5t-66 12.5v-174l38 -6
q48 -7 80 -20.5t58 -38t39.5 -61.5t13.5 -86q0 -89 -59 -144.5t-156 -67.5zM268 595q-42 -6 -64.5 -30t-22.5 -58q0 -16 4.5 -28t22 -28.5t60.5 -22.5v167zM413 266q-12 12 -29.5 17t-41.5 9v-172q93 11 93 86q0 39 -22 60z" />
    <glyph glyph-name="percent" unicode="%" horiz-adv-x="848" 
d="M651 -6q-63 0 -104 35.5t-41 101.5v99q0 64 41.5 100.5t103.5 36.5q63 0 104 -35.5t41 -101.5v-99q0 -65 -41.5 -101t-103.5 -36zM307 0h-102l337 712h102zM197 345q-63 0 -104 35.5t-41 101.5v99q0 64 41.5 100.5t103.5 36.5q63 0 104 -35.5t41 -101.5v-99
q0 -65 -41.5 -101t-103.5 -36zM702 226q0 57 -51 57t-51 -57v-91q0 -57 51 -57t51 57v91zM248 577q0 57 -51 57t-51 -57v-91q0 -57 51 -57t51 57v91z" />
    <glyph glyph-name="ampersand" unicode="&#x26;" horiz-adv-x="721" 
d="M531 0l-52 62q-50 -39 -91 -53.5t-93 -14.5q-116 0 -175.5 56.5t-59.5 159.5q0 62 35 107t93 84q-31 35 -51 70.5t-20 80.5q0 74 51 120t139 46q83 0 132.5 -46.5t49.5 -121.5q0 -38 -19 -68t-54 -56l-51 -37l120 -142q36 49 36 125h123q0 -136 -76 -221l128 -151h-165z
M307 607q-29 0 -44 -16t-15 -42q0 -18 11 -34.5t36 -45.5l30 20q20 14 30.5 28t10.5 32q0 25 -15.5 41.5t-43.5 16.5zM258 321q-37 -26 -54.5 -49.5t-17.5 -59.5q0 -44 31 -72t77 -28q58 0 106 42z" />
    <glyph glyph-name="quotesingle" unicode="'" horiz-adv-x="259" 
d="M68 501v211h123v-211h-123z" />
    <glyph glyph-name="parenleft" unicode="(" horiz-adv-x="336" 
d="M194 -94q-39 39 -55.5 57t-32 44.5t-21 60.5t-5.5 70v436q0 56 5.5 79.5t21 50t31.5 44.5t56 58l87 -87q-23 -23 -34 -35.5t-24 -35.5t-13 -80v-424q0 -57 13 -80t23.5 -35t34.5 -36z" />
    <glyph glyph-name="parenright" unicode=")" horiz-adv-x="336" 
d="M230 9q-16 -27 -32 -45t-56 -58l-88 88q21 21 33.5 35t25 36t12.5 79v424q0 57 -13.5 81t-29.5 40.5t-28 28.5l88 88q39 -39 55.5 -57t32 -44.5t21 -60.5t5.5 -70v-436q0 -56 -5.5 -79.5t-20.5 -49.5z" />
    <glyph glyph-name="asterisk" unicode="*" horiz-adv-x="494" 
d="M394 381l-105 66l4 -125h-92l5 125l-106 -66l-45 79l110 58l-110 58l45 80l106 -67l-5 125h92l-4 -125l105 67l46 -80l-111 -58l111 -58z" />
    <glyph glyph-name="plus" unicode="+" 
d="M333 216v-160h-122v160h-161v122h161v160h122v-160h160v-122h-160z" />
    <glyph glyph-name="comma" unicode="," horiz-adv-x="279" 
d="M68 -165v307h143v-197z" />
    <glyph glyph-name="hyphen" unicode="-" horiz-adv-x="426" 
d="M59 225v121h308v-121h-308z" />
    <glyph glyph-name="period" unicode="." horiz-adv-x="285" 
d="M68 0v148h149v-148h-149z" />
    <glyph glyph-name="slash" unicode="/" horiz-adv-x="403" 
d="M122 -74h-122l285 860h122z" />
    <glyph glyph-name="zero" unicode="0" 
d="M272 -6q-91 0 -154 57t-63 155v300q0 98 63 155t154 57t153.5 -57t62.5 -155v-300q0 -99 -62 -155.5t-154 -56.5zM358 504q0 44 -23.5 70.5t-62.5 26.5t-63 -26t-24 -71v-297q0 -44 24 -70t63 -26t62.5 25.5t23.5 70.5v297z" />
    <glyph glyph-name="one" unicode="1" 
d="M248 0v572l-145 -126v140l145 126h130v-712h-130z" />
    <glyph glyph-name="two" unicode="2" 
d="M59 0v117l266 309q20 24 28.5 43t8.5 43q0 40 -22.5 64.5t-63.5 24.5q-38 0 -62.5 -21t-24.5 -70h-130q0 96 61 152t156 56q96 0 156 -56t60 -151q0 -49 -16.5 -81t-59.5 -82l-199 -231h275v-117h-433z" />
    <glyph glyph-name="three" unicode="3" 
d="M269 -6q-96 0 -161.5 52.5t-65.5 157.5h130q0 -45 28 -69t69 -24q43 0 69.5 25.5t26.5 73.5q0 45 -26.5 71.5t-73.5 26.5h-19v113h19q45 0 67.5 24.5t22.5 64.5q0 43 -25 67t-62 24q-38 0 -63 -23t-25 -63h-130q0 92 62.5 147.5t155.5 55.5q95 0 156 -57t61 -147
q0 -55 -22 -90.5t-60 -55.5q43 -23 67.5 -62t24.5 -100q0 -101 -64.5 -156.5t-161.5 -55.5z" />
    <glyph glyph-name="four" unicode="4" 
d="M447 101v-101h-125v101h-291v123l244 488h142l-244 -488h149v133h125v-133h65v-123h-65z" />
    <glyph glyph-name="five" unicode="5" 
d="M431 52q-27 -27 -65.5 -42.5t-91.5 -15.5q-52 0 -93 16t-68.5 43.5t-41.5 66t-14 79.5h130q6 -44 26 -66t61 -22q39 0 58 19t25.5 46.5t6.5 63.5q0 65 -20 96.5t-67 31.5q-36 0 -57 -16.5t-29 -41.5h-119v402h406v-117h-288v-153q16 15 44 25.5t63 10.5q43 0 76.5 -12.5
t64 -43t43.5 -76.5t13 -106q0 -64 -13 -107.5t-50 -80.5z" />
    <glyph glyph-name="six" unicode="6" 
d="M270 -6q-97 0 -159.5 58.5t-62.5 161.5q0 35 10.5 73t49.5 117l150 308h142l-148 -294q12 5 26 7t27 2q75 0 131 -58t56 -153q0 -103 -62.5 -162.5t-159.5 -59.5zM270 319q-41 0 -66.5 -27.5t-25.5 -76.5t25.5 -76.5t66.5 -27.5t66.5 27.5t25.5 76.5q0 48 -25 76t-67 28z
" />
    <glyph glyph-name="seven" unicode="7" 
d="M272 0h-141l231 595h-188v-112h-124v229h453v-117z" />
    <glyph glyph-name="eight" unicode="8" 
d="M272 -6q-99 0 -163.5 56t-64.5 157q0 58 25.5 96.5t63.5 63.5q-33 23 -56.5 59.5t-23.5 88.5q0 92 63 147.5t156 55.5t155.5 -55t62.5 -148q0 -52 -23 -88t-57 -60q37 -25 63.5 -63.5t26.5 -96.5q0 -100 -64.5 -156.5t-163.5 -56.5zM272 601q-38 0 -63.5 -25.5
t-25.5 -64.5t25.5 -64.5t63.5 -25.5q39 0 63.5 25.5t24.5 64.5q0 38 -25 64t-63 26zM272 308q-41 0 -69.5 -28.5t-28.5 -70.5t28 -70t70 -28t70 28t28 70q0 41 -28 70t-70 29z" />
    <glyph glyph-name="nine" unicode="9" 
d="M436 308l-151 -308h-141l148 294q-12 -5 -26 -7t-27 -2q-76 0 -132 58t-56 153q0 103 62.5 162.5t159.5 59.5t159.5 -58.5t62.5 -161.5q0 -34 -11 -74t-48 -116zM273 601q-41 0 -66.5 -27.5t-25.5 -76.5q0 -48 25 -76t67 -28q41 0 66.5 27.5t25.5 76.5t-25.5 76.5
t-66.5 27.5z" />
    <glyph glyph-name="colon" unicode=":" horiz-adv-x="309" 
d="M93 271v148h148v-148h-148zM93 0v148h148v-148h-148z" />
    <glyph glyph-name="semicolon" unicode=";" horiz-adv-x="309" 
d="M93 271v148h148v-148h-148zM96 -165v307h142v-197z" />
    <glyph glyph-name="less" unicode="&#x3c;" horiz-adv-x="1027" 
d="M273 224l326 -324h-164l-385 385l385 385h164l-326 -323h703v-123h-703z" />
    <glyph glyph-name="equal" unicode="=" 
d="M50 333v122h443v-122h-443zM50 116v122h443v-122h-443z" />
    <glyph glyph-name="greater" unicode="&#x3e;" horiz-adv-x="1027" 
d="M592 -100h-164l326 324h-704v123h704l-326 323h164l385 -385z" />
    <glyph glyph-name="question" unicode="?" horiz-adv-x="523" 
d="M438 393l-74 -98q-18 -23 -18 -51v-21h-130v30q0 31 8.5 54t29.5 50l74 95q12 15 20.5 33.5t8.5 33.5q0 37 -21.5 59.5t-59.5 22.5t-59 -23t-21 -60h-130q0 91 60 145.5t150 54.5q89 0 150 -54t61 -146q0 -34 -12.5 -64t-36.5 -61zM212 0v133h138v-133h-138z" />
    <glyph glyph-name="at" unicode="@" horiz-adv-x="758" 
d="M579 0v46q-25 -27 -52.5 -39.5t-67.5 -12.5q-79 0 -117 40.5t-47 81t-9 115.5q0 72 9 113t46 82t117 41q73 0 118 -49v45q0 34 -7.5 58t-27 43.5t-44 27.5t-56.5 8h-124q-32 0 -56 -7.5t-44 -27.5t-27.5 -44t-7.5 -58v-289q0 -37 9 -56.5t35 -42.5l-90 -90q-45 40 -62 78
t-17 104v299q0 65 14 110t48 79t78 47.5t110 13.5h144q65 0 109 -13t78.5 -47.5t48 -79.5t13.5 -110v-469zM493 359q-46 0 -64 -32t-18 -96q0 -63 18 -96t64 -33q45 0 64 33t19 96q0 64 -18 96t-65 32z" />
    <glyph glyph-name="A" unicode="A" horiz-adv-x="638" 
d="M488 0l-42 126h-253l-43 -126h-145l259 712h109l260 -712h-145zM322 502l-90 -259h177z" />
    <glyph glyph-name="B" unicode="B" horiz-adv-x="658" 
d="M381 0h-298v712h286q103 0 161.5 -53.5t58.5 -146.5q0 -54 -27 -92.5t-61 -54.5q41 -19 69.5 -57t28.5 -103q0 -97 -60 -151t-158 -54zM358 588h-136v-164h136q44 0 68 22t24 60q0 37 -24.5 59.5t-67.5 22.5zM367 299h-145v-175h145q45 0 69 25t24 63t-23.5 62.5
t-69.5 24.5z" />
    <glyph glyph-name="C" unicode="C" horiz-adv-x="620" 
d="M321 -6q-57 0 -105.5 20t-92 63.5t-54 102t-10.5 176.5q0 117 11 176.5t54.5 103t90.5 63t106 19.5q103 0 173.5 -58t88.5 -167h-141q-11 46 -40.5 73.5t-79.5 27.5q-57 0 -83 -29.5t-33.5 -70.5t-7.5 -138q0 -101 7 -139t33.5 -68.5t83.5 -30.5q50 0 79.5 27.5
t40.5 73.5h141q-18 -108 -89 -166.5t-173 -58.5z" />
    <glyph glyph-name="D" unicode="D" horiz-adv-x="659" 
d="M528 68q-33 -33 -82.5 -50.5t-105.5 -17.5h-257v712h257q57 0 105 -16.5t89 -57.5t53.5 -95t12.5 -139v-45v-45q0 -87 -12.5 -143t-59.5 -103zM431 544q-18 22 -43 33t-61 11h-105v-464h105q68 0 95.5 33.5t33 73t5.5 128.5q0 86 -5.5 123.5t-24.5 61.5z" />
    <glyph glyph-name="E" unicode="E" horiz-adv-x="605" 
d="M83 0v712h469v-124h-330v-167h281v-124h-281v-173h330v-124h-469z" />
    <glyph glyph-name="F" unicode="F" horiz-adv-x="590" 
d="M222 588v-175h281v-124h-281v-289h-139v712h469v-124h-330z" />
    <glyph glyph-name="G" unicode="G" horiz-adv-x="648" 
d="M522 75q-41 -42 -92 -61.5t-109 -19.5q-57 0 -105.5 20t-92 63.5t-54 102t-10.5 176.5q0 117 11 176.5t54.5 103t90 63t106.5 19.5q117 0 184.5 -65t83.5 -163h-140q-25 104 -128 104q-56 0 -83 -30.5t-33.5 -68t-6.5 -139.5q0 -105 6 -141t33 -66.5t84 -30.5
q62 0 88.5 29t34.5 54t8 52v27h-131v116h269v-104q0 -78 -15.5 -128t-52.5 -89z" />
    <glyph glyph-name="H" unicode="H" horiz-adv-x="685" 
d="M463 0v298h-241v-298h-139v712h139v-291h241v291h139v-712h-139z" />
    <glyph glyph-name="I" unicode="I" horiz-adv-x="305" 
d="M83 0v712h139v-712h-139z" />
    <glyph glyph-name="J" unicode="J" horiz-adv-x="511" 
d="M186 -6q-59 0 -101 16.5t-82 56.5l92 91q22 -22 39.5 -31t51.5 -9q112 0 112 122v472h139v-478q0 -112 -73 -176t-178 -64z" />
    <glyph glyph-name="K" unicode="K" horiz-adv-x="665" 
d="M497 0l-183 324l-92 -110v-214h-139v712h139v-310l251 310h169l-236 -283l253 -429h-162z" />
    <glyph glyph-name="L" unicode="L" horiz-adv-x="575" 
d="M83 0v712h139v-588h323v-124h-462z" />
    <glyph glyph-name="M" unicode="M" horiz-adv-x="811" 
d="M589 0v415l-136 -270h-94l-137 270v-415h-139v712h137l186 -385l185 385h137v-712h-139z" />
    <glyph glyph-name="N" unicode="N" horiz-adv-x="711" 
d="M504 0l-282 437v-437h-139v712h124l282 -436v436h139v-712h-124z" />
    <glyph glyph-name="O" unicode="O" horiz-adv-x="644" 
d="M514 72q-39 -39 -85 -58.5t-107 -19.5q-60 0 -107 19.5t-91 63.5t-54.5 102.5t-10.5 176.5q0 117 11 176.5t54.5 103t90 63t107.5 19.5q59 0 106 -19.5t90.5 -63t55 -104t11.5 -175.5q0 -118 -11 -176.5t-60 -107.5zM411 556q-33 38 -89 38q-29 0 -51.5 -10t-41 -30.5
t-25 -58t-6.5 -139.5q0 -105 6 -140.5t33.5 -66.5t84.5 -31q56 0 82.5 30.5t34 70.5t7.5 137q0 102 -7 139t-28 61z" />
    <glyph glyph-name="P" unicode="P" horiz-adv-x="628" 
d="M359 268h-137v-268h-139v712h276q108 0 171.5 -63.5t63.5 -158.5q0 -94 -64 -158t-171 -64zM352 588h-130v-195h130q47 0 75 26t28 71q0 44 -28 71t-75 27z" />
    <glyph glyph-name="Q" unicode="Q" horiz-adv-x="643" 
d="M529 -30l-63 63q-60 -39 -144 -39q-60 0 -107 19.5t-91 63.5t-54.5 102.5t-10.5 176.5q0 117 11 176.5t54.5 103t90 63t107.5 19.5q59 0 106 -19.5t90.5 -63t55 -104t11.5 -175.5q0 -125 -10 -171t-34 -81l61 -61zM411 556q-33 38 -89 38q-29 0 -51.5 -10t-41 -30.5
t-25 -58t-6.5 -139.5q0 -105 6 -140.5t33.5 -66.5t84.5 -31q27 0 46 13l-62 61l74 73l53 -53q7 20 10 57t3 87q0 102 -7 139t-28 61z" />
    <glyph glyph-name="R" unicode="R" horiz-adv-x="654" 
d="M461 0l-139 284h-100v-284h-139v712h279q106 0 168.5 -62.5t62.5 -155.5q0 -70 -37 -118.5t-93 -68.5l159 -307h-161zM353 588h-131v-188h131q45 0 73 26t28 68q0 43 -27.5 68.5t-73.5 25.5z" />
    <glyph glyph-name="S" unicode="S" horiz-adv-x="591" 
d="M279 -6q-85 0 -147 21t-113 73l90 90q32 -32 75.5 -46t96.5 -14q126 0 126 88q0 39 -16 54t-31 21.5t-38 9.5l-86 12q-91 13 -140 61.5t-49 137.5q0 97 66.5 156.5t181.5 59.5q75 0 129.5 -19t100.5 -64l-88 -87q-30 28 -67.5 38.5t-78.5 10.5q-54 0 -82 -25t-28 -65
q0 -16 4.5 -28t22.5 -28.5t60 -22.5l84 -12q90 -13 127.5 -47.5t50.5 -72t13 -86.5q0 -101 -74 -158.5t-190 -57.5z" />
    <glyph glyph-name="T" unicode="T" horiz-adv-x="571" 
d="M355 588v-588h-139v588h-186v124h511v-124h-186z" />
    <glyph glyph-name="U" unicode="U" horiz-adv-x="668" 
d="M334 -6q-112 0 -187 69t-75 181v468h139v-463q0 -61 33 -96t90 -35t90.5 34.5t33.5 96.5v463h138v-468q0 -112 -74.5 -181t-187.5 -69z" />
    <glyph glyph-name="V" unicode="V" horiz-adv-x="581" 
d="M342 0h-104l-235 712h144l143 -464l143 464h145z" />
    <glyph glyph-name="W" unicode="W" horiz-adv-x="887" 
d="M690 0h-116l-131 432l-131 -432h-116l-190 712h145l110 -449l130 449h104l130 -449l111 449h145z" />
    <glyph glyph-name="X" unicode="X" horiz-adv-x="603" 
d="M439 0l-138 248l-137 -248h-159l221 365l-207 347h158l124 -230l125 230h157l-207 -347l222 -365h-159z" />
    <glyph glyph-name="Y" unicode="Y" horiz-adv-x="572" 
d="M355 292v-292h-138v292l-214 420h151l133 -287l131 287h151z" />
    <glyph glyph-name="Z" unicode="Z" horiz-adv-x="548" 
d="M40 0v112l304 476h-291v124h455v-110l-305 -478h305v-124h-468z" />
    <glyph glyph-name="bracketleft" unicode="[" horiz-adv-x="378" 
d="M80 -74v860h257v-117h-127v-626h127v-117h-257z" />
    <glyph glyph-name="backslash" unicode="\" horiz-adv-x="403" 
d="M281 -74l-281 847h122l281 -847h-122z" />
    <glyph glyph-name="bracketright" unicode="]" horiz-adv-x="378" 
d="M42 -74v116h127v628h-127v116h257v-860h-257z" />
    <glyph glyph-name="asciicircum" unicode="^" horiz-adv-x="602" 
d="M403 389l-102 188l-102 -188h-136l178 330h120l178 -330h-136z" />
    <glyph glyph-name="underscore" unicode="_" horiz-adv-x="602" 
d="M0 -178v87h602v-87h-602z" />
    <glyph glyph-name="grave" unicode="`" horiz-adv-x="500" 
d="M218 604l-114 170h137l64 -170h-87z" />
    <glyph glyph-name="a" unicode="a" horiz-adv-x="534" 
d="M340 0v45q-27 -27 -55 -38.5t-73 -11.5q-87 0 -131.5 45.5t-44.5 117.5q0 67 45 109t133 42h123v26q0 43 -22.5 62.5t-74.5 19.5q-38 0 -58 -9t-42 -34l-83 81q38 41 79 56.5t109 15.5q222 0 222 -184v-343h-127zM337 220h-103q-73 0 -73 -59q0 -60 75 -60q31 0 48 4.5
t35 21.5t18 65v28z" />
    <glyph glyph-name="b" unicode="b" horiz-adv-x="560" 
d="M456 41q-47 -47 -127 -47q-43 0 -73 12.5t-57 42.5v-49h-126v712h130v-237q25 28 55 40t71 12q80 0 116.5 -36.5t50 -83.5t13.5 -146q0 -78 -9 -131.5t-44 -88.5zM291 410q-54 0 -71 -37t-17 -112q0 -76 16.5 -113t71.5 -37q53 0 70.5 38t17.5 112q0 75 -17 112t-71 37z
" />
    <glyph glyph-name="c" unicode="c" horiz-adv-x="480" 
d="M280 -6q-94 0 -163.5 61.5t-69.5 205.5t69 205t164 61q105 0 172 -70l-88 -88q-20 22 -39.5 31.5t-44.5 9.5q-46 0 -74.5 -35t-28.5 -114q0 -80 28.5 -115t74.5 -35t84 41l88 -87q-68 -71 -172 -71z" />
    <glyph glyph-name="d" unicode="d" horiz-adv-x="561" 
d="M361 0v49q-50 -55 -129 -55q-81 0 -117.5 36.5t-50 84t-13.5 146.5q0 79 9 131.5t50 93.5t121 41q42 0 71.5 -11.5t55.5 -40.5v237h130v-712h-127zM269 410q-54 0 -71 -37t-17 -112q0 -76 16.5 -113t71.5 -37q54 0 71.5 37.5t17.5 112.5q0 74 -17.5 111.5t-71.5 37.5z
" />
    <glyph glyph-name="e" unicode="e" horiz-adv-x="548" 
d="M175 220q0 -52 30 -84t84 -32q40 0 65.5 11t52.5 38l79 -77q-43 -43 -86.5 -62.5t-111.5 -19.5q-107 0 -174 60t-67 207q0 125 62 195.5t165 70.5q106 0 166.5 -69.5t60.5 -179.5v-58h-326zM361 365q-11 25 -33 39.5t-54 14.5t-54 -14.5t-33.5 -41.5t-11.5 -54h198
q0 27 -12 56z" />
    <glyph glyph-name="f" unicode="f" horiz-adv-x="342" 
d="M219 407v-407h-130v407h-54v99h54v65q0 61 38.5 105t113.5 44h74v-110h-51q-45 0 -45 -47v-57h96v-99h-96z" />
    <glyph glyph-name="g" unicode="g" horiz-adv-x="555" 
d="M253 -197q-63 0 -106 14.5t-83 53.5l81 82q41 -40 102 -40q54 0 79.5 31t25.5 77v53q-25 -28 -54.5 -40t-69.5 -12q-78 0 -118 40t-49.5 85.5t-9.5 127.5q0 80 9.5 126t49.5 86t119 40q42 0 71 -12.5t56 -42.5v49h126v-502q0 -95 -62.5 -155.5t-166.5 -60.5zM266 410
q-52 0 -68.5 -35.5t-16.5 -99.5q0 -83 21.5 -109.5t63.5 -26.5q52 0 69 36t17 100q0 63 -17 99t-69 36z" />
    <glyph glyph-name="h" unicode="h" horiz-adv-x="569" 
d="M372 0v318q0 48 -25 70t-60 22t-59.5 -22t-24.5 -70v-318h-130v712h130v-239q53 54 125 54q84 0 129 -52t45 -138v-337h-130z" />
    <glyph glyph-name="i" unicode="i" horiz-adv-x="275" 
d="M71 610v106h133v-106h-133zM73 0v521h130v-521h-130z" />
    <glyph glyph-name="j" unicode="j" horiz-adv-x="275" 
d="M71 610v106h133v-106h-133zM51 -195h-74v110h50q46 0 46 47v559h130v-567q0 -62 -38 -105.5t-114 -43.5z" />
    <glyph glyph-name="k" unicode="k" horiz-adv-x="559" 
d="M386 0l-128 217l-55 -62v-155h-130v712h130v-404l173 213h157l-186 -210l200 -311h-161z" />
    <glyph glyph-name="l" unicode="l" horiz-adv-x="325" 
d="M220 0q-75 0 -113.5 43.5t-38.5 105.5v563h130v-555q0 -47 46 -47h50v-110h-74z" />
    <glyph glyph-name="m" unicode="m" horiz-adv-x="876" 
d="M679 0v315q0 49 -25 72t-61 23q-35 0 -61 -22.5t-26 -69.5v-318h-130v315q0 49 -25 72t-61 23q-37 0 -62 -22.5t-25 -72.5v-315h-130v521h127v-48q25 26 59 40t71 14q90 0 138 -66q63 66 156 66q39 0 72.5 -12t59.5 -38t39.5 -62.5t13.5 -81.5v-333h-130z" />
    <glyph glyph-name="n" unicode="n" horiz-adv-x="573" 
d="M376 0v315q0 49 -25 72t-61 23q-37 0 -62 -22.5t-25 -72.5v-315h-130v521h127v-48q51 54 130 54q38 0 69.5 -12t57 -37.5t37.5 -62t12 -82.5v-333h-130z" />
    <glyph glyph-name="o" unicode="o" 
d="M433 58q-27 -29 -67 -46.5t-95 -17.5q-54 0 -94 17.5t-70.5 49.5t-43 78.5t-12.5 121.5q0 77 12 121t43 77t70.5 50.5t94.5 17.5q54 0 94.5 -17.5t71 -49.5t43 -78.5t12.5 -120.5q0 -78 -12 -122t-47 -81zM332 387q-23 23 -61 23q-37 0 -57.5 -20.5t-26.5 -51t-6 -77.5
q0 -63 7 -87t26.5 -43.5t56.5 -19.5q38 0 58.5 20.5t26.5 51t6 78.5q0 51 -5 78.5t-25 47.5z" />
    <glyph glyph-name="p" unicode="p" horiz-adv-x="560" 
d="M456 41q-47 -47 -127 -47q-42 0 -71 11.5t-55 40.5v-237h-130v712h126v-49q50 55 130 55t116.5 -36.5t50 -83.5t13.5 -146q0 -78 -9 -131.5t-44 -88.5zM291 410q-54 0 -71 -37t-17 -112q0 -76 16.5 -113t71.5 -37q53 0 70.5 38t17.5 112q0 75 -17 112t-71 37z" />
    <glyph glyph-name="q" unicode="q" horiz-adv-x="561" 
d="M358 -191v237q-25 -27 -55.5 -39.5t-71.5 -12.5q-80 0 -116.5 36.5t-50 84t-13.5 146.5q0 79 9 131.5t50 93.5t122 41q42 0 72 -12.5t57 -42.5v49h127v-712h-130zM269 410q-54 0 -71 -37t-17 -112q0 -76 16.5 -113t71.5 -37q54 0 71.5 37.5t17.5 112.5q0 74 -17.5 111.5
t-71.5 37.5z" />
    <glyph glyph-name="r" unicode="r" horiz-adv-x="455" 
d="M356 379q-16 16 -31 23.5t-38 7.5q-34 0 -59 -24.5t-25 -71.5v-314h-130v521h127v-50q19 23 55 39.5t76 16.5q39 0 67.5 -11t55.5 -38z" />
    <glyph glyph-name="s" unicode="s" horiz-adv-x="501" 
d="M244 -6q-75 0 -125.5 14.5t-96.5 60.5l85 85q28 -28 65 -38.5t74 -10.5q38 0 65 13t27 41q0 20 -12.5 32.5t-42.5 15.5l-82 8q-74 7 -113 41.5t-39 104.5q0 78 58.5 122t142.5 44q68 0 115 -13t84 -48l-80 -81q-20 18 -53 26.5t-68 8.5q-36 0 -55 -14.5t-19 -35.5
q0 -18 11 -30t43 -15l82 -8q76 -7 115.5 -46.5t39.5 -106.5q0 -83 -61.5 -126.5t-159.5 -43.5z" />
    <glyph glyph-name="t" unicode="t" horiz-adv-x="352" 
d="M236 0q-75 0 -113 43.5t-38 105.5v258h-55v99h55v154h130v-154h92v-99h-92v-250q0 -47 45 -47h47v-110h-71z" />
    <glyph glyph-name="u" unicode="u" horiz-adv-x="573" 
d="M373 0v48q-51 -54 -130 -54q-38 0 -69.5 12t-57 37.5t-37.5 62t-12 82.5v333h130v-315q0 -49 25 -72t61 -23q37 0 62 22.5t25 72.5v315h130v-521h-127z" />
    <glyph glyph-name="v" unicode="v" horiz-adv-x="493" 
d="M298 0h-102l-192 521h137l106 -322l105 322h137z" />
    <glyph glyph-name="w" unicode="w" horiz-adv-x="759" 
d="M596 0h-107l-109 327l-109 -327h-107l-160 521h138l84 -322l106 322h95l107 -322l84 322h137z" />
    <glyph glyph-name="x" unicode="x" horiz-adv-x="527" 
d="M359 0l-96 156l-95 -156h-156l180 266l-173 255h156l88 -149l89 149h156l-173 -255l180 -266h-156z" />
    <glyph glyph-name="y" unicode="y" horiz-adv-x="494" 
d="M267 -84q-9 -24 -17.5 -39t-25.5 -32t-45.5 -26.5t-62.5 -9.5h-51v117h30q28 0 41.5 9.5t23.5 37.5l22 64l-178 484h137l108 -322l104 322h137z" />
    <glyph glyph-name="z" unicode="z" horiz-adv-x="478" 
d="M37 0v99l231 305h-218v117h384v-99l-234 -305h234v-117h-397z" />
    <glyph glyph-name="braceleft" unicode="{" horiz-adv-x="457" 
d="M312 -74q-75 0 -114.5 39.5t-39.5 108.5v145q0 43 -18 61t-51 18h-46v116h46q18 0 30 4.5t25.5 18t13.5 56.5v145q0 69 39.5 108.5t114.5 39.5h102v-117h-53q-43 0 -58 -15.5t-15 -62.5v-135q0 -48 -19 -68t-50 -32q30 -12 49.5 -32t19.5 -68v-135q0 -47 15 -62.5
t58 -15.5h53v-117h-102z" />
    <glyph glyph-name="bar" unicode="|" horiz-adv-x="350" 
d="M110 -74v860h130v-860h-130z" />
    <glyph glyph-name="braceright" unicode="}" horiz-adv-x="457" 
d="M368 298q-18 0 -30 -4.5t-25.5 -18t-13.5 -56.5v-145q0 -69 -39.5 -108.5t-114.5 -39.5h-102v117h53q43 0 58 15.5t15 62.5v135q0 48 19 68t50 32q-30 12 -49.5 32t-19.5 68v135q0 47 -15 62.5t-58 15.5h-53v117h102q75 0 114.5 -39.5t39.5 -108.5v-145q0 -43 18 -61
t51 -18h46v-116h-46z" />
    <glyph glyph-name="asciitilde" unicode="~" horiz-adv-x="606" 
d="M404 195q-53 0 -97.5 23.5t-62 29t-39.5 5.5q-23 0 -41.5 -8t-44.5 -34l-82 82q47 47 83 66.5t81 19.5q53 0 98 -24t61.5 -29t38.5 -5q24 0 42.5 8t44.5 34l83 -82q-46 -46 -83 -66t-82 -20z" />
    <glyph glyph-name="nbspace" unicode="&#xa0;" horiz-adv-x="232" 
 />
    <glyph glyph-name="exclamdown" unicode="&#xa1;" horiz-adv-x="347" 
d="M87 388v133h137v-133h-137zM75 -191l32 489h97l32 -489h-161z" />
    <glyph glyph-name="cent" unicode="&#xa2;" horiz-adv-x="499" 
d="M333 105v-105h-101v105q-84 17 -134.5 83t-50.5 178q0 111 51 177.5t134 83.5v85h101v-85q42 -7 74 -25t62 -50l-86 -84q-31 32 -64 41v-286q18 5 33 14.5t31 26.5l86 -84q-30 -31 -62 -49t-74 -26zM246 507q-21 -6 -37 -25.5t-24 -47t-8 -68.5q0 -40 7.5 -67.5t23 -47.5
t38.5 -26v282z" />
    <glyph glyph-name="sterling" unicode="&#xa3;" horiz-adv-x="579" 
d="M101 0v297h-61v100h61v81q0 112 73 176t178 64q59 0 100 -16t82 -57l-91 -91q-22 22 -39.5 31t-51.5 9q-52 0 -82.5 -31t-30.5 -91v-75h113v-100h-113v-173h295v-124h-433z" />
    <glyph glyph-name="currency" unicode="&#xa4;" horiz-adv-x="669" 
d="M525 10l-74 73q-54 -32 -117 -32q-62 0 -116 32l-74 -73l-86 86l74 73q-16 26 -24.5 55.5t-8.5 61.5q0 31 8.5 60.5t24.5 56.5l-74 73l86 86l74 -73q25 15 55.5 23.5t60.5 8.5q63 0 117 -32l74 73l85 -86l-73 -73q32 -54 32 -117t-32 -117l73 -73zM334 403q-49 0 -83 -34
t-34 -83t34 -83t83 -34q48 0 83 34t35 83t-34 83t-84 34z" />
    <glyph glyph-name="yen" unicode="&#xa5;" horiz-adv-x="571" 
d="M432 442h74v-100h-125l-26 -50v-51h151v-100h-151v-141h-138v141h-152v100h152v51l-26 50h-126v100h75l-137 270h151l132 -288l132 288h150z" />
    <glyph glyph-name="section" unicode="&#xa7;" horiz-adv-x="531" 
d="M383 125q38 -19 59.5 -51.5t21.5 -87.5q0 -86 -59 -134.5t-139 -48.5q-82 0 -140.5 44.5t-58.5 133.5h125q0 -28 20.5 -45.5t53.5 -17.5q35 0 54 17t19 47q0 23 -15.5 42t-54.5 32l-62 21q-75 25 -110.5 68t-35.5 120q0 50 28 90t63 59q-36 19 -56 49t-20 82
q0 73 49.5 123t142.5 50q94 0 143 -48t49 -124h-122q0 31 -19 46t-51 15q-34 0 -52 -16t-18 -43q0 -44 67 -66l62 -20q75 -24 110.5 -67.5t35.5 -120.5q0 -50 -28 -90t-62 -59zM323 337q-11 10 -24 15.5t-32 5.5q-36 0 -52 -16t-22.5 -32.5t-6.5 -40.5q0 -25 6.5 -40.5
t22.5 -31.5t52 -16q17 0 31.5 5.5t25 16t17.5 26t7 40.5q0 24 -6.5 40t-18.5 28z" />
    <glyph glyph-name="dieresis" unicode="&#xa8;" horiz-adv-x="500" 
d="M305 606v125h111v-125h-111zM84 606v125h111v-125h-111z" />
    <glyph glyph-name="copyright" unicode="&#xa9;" horiz-adv-x="844" 
d="M422 -6q-150 0 -256 106t-106 256t106 256t256 106t256 -106t106 -256t-106 -256t-256 -106zM422 637q-117 0 -196.5 -80.5t-79.5 -200.5t79.5 -200.5t196.5 -80.5t196 80t79 201t-79 201t-196 80zM429 160q-78 0 -128.5 51.5t-50.5 144.5q0 92 50.5 144.5t128.5 52.5
q40 0 70.5 -13t61.5 -40l-56 -56q-19 16 -37 24t-39 8q-46 0 -70 -32t-24 -88t23.5 -88t70.5 -32q38 0 76 32l56 -56q-29 -26 -60 -39t-72 -13z" />
    <glyph glyph-name="ordfeminine" unicode="&#xaa;" horiz-adv-x="454" 
d="M289 296v36q-21 -21 -44 -30.5t-57 -9.5q-69 0 -104.5 36.5t-35.5 93.5q0 53 36 87t106 34h97v20q0 34 -18 49.5t-59 15.5q-49 0 -79 -34l-67 65q30 33 64 45.5t87 12.5q87 0 132 -37t45 -110v-274h-103zM287 472h-81q-56 0 -56 -47q0 -46 57 -46q25 0 38.5 3.5
t27.5 16.5t14 50v23z" />
    <glyph glyph-name="guillemotleft" unicode="&#xab;" horiz-adv-x="628" 
d="M312 275l250 248v-155l-96 -93l96 -93v-155zM34 275l249 248v-155l-94 -93l94 -93v-155z" />
    <glyph glyph-name="logicalnot" unicode="&#xac;" 
d="M376 94v145h-330v121h451v-266h-121z" />
    <glyph glyph-name="registered" unicode="&#xae;" horiz-adv-x="844" 
d="M422 -6q-150 0 -256 106t-106 256t106 256t256 106t256 -106t106 -256t-106 -256t-256 -106zM422 637q-117 0 -196.5 -80.5t-79.5 -200.5q0 -121 79 -201t197 -80q117 0 196.5 80.5t79.5 200.5q0 121 -79 201t-197 80zM487 164l-70 149h-41v-149h-86v385h157
q57 0 92.5 -35.5t35.5 -85.5q0 -38 -20 -63.5t-51 -38.5l81 -162h-98zM436 478h-60v-100h60q23 0 38 15t15 35q0 21 -14.5 35.5t-38.5 14.5z" />
    <glyph glyph-name="degree" unicode="&#xb0;" horiz-adv-x="478" 
d="M239 358q-77 0 -130.5 53.5t-53.5 130.5t53 131t131 54q76 0 130 -54t54 -131t-53.5 -130.5t-130.5 -53.5zM238 622q-33 0 -55.5 -23.5t-22.5 -56.5t22.5 -56.5t56.5 -23.5q33 0 56 23t23 57t-23 57t-57 23z" />
    <glyph glyph-name="plusminus" unicode="&#xb1;" 
d="M333 341v-161h-122v161h-161v121h161v161h122v-161h160v-121h-160zM50 0v122h443v-122h-443z" />
    <glyph glyph-name="acute" unicode="&#xb4;" horiz-adv-x="500" 
d="M282 604h-87l64 170h137z" />
    <glyph glyph-name="mu" unicode="&#xb5;" horiz-adv-x="576" 
d="M376 0v48q-51 -54 -130 -54q-27 0 -46 14v-199h-130v712h130v-315q0 -49 25 -72t61 -23q37 0 62 22.5t25 72.5v315h130v-521h-127z" />
    <glyph glyph-name="paragraph" unicode="&#xb6;" horiz-adv-x="668" 
d="M455 -191v779h-100v-779h-130v499q-75 0 -132.5 59.5t-57.5 141.5q0 97 62 150t169 53h319v-903h-130z" />
    <glyph glyph-name="cedilla" unicode="&#xb8;" horiz-adv-x="500" 
d="M281 -206h-121l69 146h96z" />
    <glyph glyph-name="ordmasculine" unicode="&#xba;" horiz-adv-x="462" 
d="M359 343q-23 -24 -53 -37.5t-75 -13.5q-43 0 -74 14t-56 39.5t-35.5 62.5t-10.5 96q0 61 9.5 96.5t35.5 62.5t56 40.5t75 13.5q43 0 74 -14t56 -40t35.5 -62.5t10.5 -96.5q0 -62 -9.5 -96.5t-38.5 -64.5zM279 605q-18 18 -48 18t-46 -16t-20.5 -41t-4.5 -62q0 -41 4 -63
t20.5 -38.5t46.5 -16.5t46 16t20.5 41t4.5 61q0 40 -4 63t-19 38z" />
    <glyph glyph-name="guillemotright" unicode="&#xbb;" horiz-adv-x="628" 
d="M345 27v155l94 93l-94 93v155l250 -248zM67 27v155l95 93l-95 93v155l249 -248z" />
    <glyph glyph-name="questiondown" unicode="&#xbf;" horiz-adv-x="523" 
d="M173 388v133h138v-133h-138zM246 -197q-88 0 -149 54t-61 146q0 34 12.5 64t36.5 61l74 99q18 23 18 51v20h130v-30q0 -31 -8.5 -54t-29.5 -50l-74 -95q-12 -15 -20.5 -33.5t-8.5 -33.5q0 -36 21 -59t59 -23t59.5 23.5t21.5 60.5h130q0 -90 -60.5 -145.5t-150.5 -55.5z
" />
    <glyph glyph-name="Agrave" unicode="&#xc0;" horiz-adv-x="638" 
d="M488 0l-42 126h-253l-43 -126h-145l259 712h109l260 -712h-145zM322 502l-90 -259h177zM285 781l-114 170h137l64 -170h-87z" />
    <glyph glyph-name="Aacute" unicode="&#xc1;" horiz-adv-x="638" 
d="M488 0l-42 126h-253l-43 -126h-145l259 712h109l260 -712h-145zM322 502l-90 -259h177zM349 781h-87l64 170h137z" />
    <glyph glyph-name="Acircumflex" unicode="&#xc2;" horiz-adv-x="638" 
d="M488 0l-42 126h-253l-43 -126h-145l259 712h109l260 -712h-145zM322 502l-90 -259h177zM400 781l-83 91l-83 -91h-101l132 169h104l132 -169h-101z" />
    <glyph glyph-name="Atilde" unicode="&#xc3;" horiz-adv-x="638" 
d="M488 0l-42 126h-253l-43 -126h-145l259 712h109l260 -712h-145zM322 502l-90 -259h177zM384 792q-37 0 -72.5 20.5t-60.5 20.5q-17 0 -28.5 -5t-30.5 -24l-56 57q33 33 58 46t54 13q22 0 38.5 -5t42.5 -20.5t51 -15.5q17 0 28.5 5t30.5 24l58 -57q-32 -32 -58 -45.5
t-55 -13.5z" />
    <glyph glyph-name="Adieresis" unicode="&#xc4;" horiz-adv-x="638" 
d="M488 0l-42 126h-253l-43 -126h-145l259 712h109l260 -712h-145zM322 502l-90 -259h177zM372 783v125h111v-125h-111zM151 783v125h111v-125h-111z" />
    <glyph glyph-name="Aring" unicode="&#xc5;" horiz-adv-x="638" 
d="M488 0l-42 126h-253l-43 -126h-145l259 712h109l260 -712h-145zM322 502l-90 -259h177zM317 753q-54 0 -92.5 38.5t-38.5 92.5t38.5 92.5t92.5 38.5t92.5 -38.5t38.5 -92.5t-38.5 -92.5t-92.5 -38.5zM317 942q-24 0 -41 -17t-17 -41q0 -23 17 -41t41 -18t41 17t17 42
q0 24 -17 41t-41 17z" />
    <glyph glyph-name="AE" unicode="&#xc6;" horiz-adv-x="979" 
d="M458 0v156h-225l-81 -156h-149l372 712h551v-124h-330v-168h282v-124h-282v-172h330v-124h-468zM458 588l-165 -315h165v315z" />
    <glyph glyph-name="Ccedilla" unicode="&#xc7;" horiz-adv-x="620" 
d="M321 -6q-57 0 -105.5 20t-92 63.5t-54 102t-10.5 176.5q0 117 11 176.5t54.5 103t90.5 63t106 19.5q103 0 173.5 -58t88.5 -167h-141q-11 46 -40.5 73.5t-79.5 27.5q-57 0 -83 -29.5t-33.5 -70.5t-7.5 -138q0 -101 7 -139t33.5 -68.5t83.5 -30.5q50 0 79.5 27.5
t40.5 73.5h141q-18 -108 -89 -166.5t-173 -58.5zM335 -206h-121l69 146h96z" />
    <glyph glyph-name="Egrave" unicode="&#xc8;" horiz-adv-x="605" 
d="M83 0v712h469v-124h-330v-167h281v-124h-281v-173h330v-124h-469zM278 781l-114 170h137l64 -170h-87z" />
    <glyph glyph-name="Eacute" unicode="&#xc9;" horiz-adv-x="605" 
d="M83 0v712h469v-124h-330v-167h281v-124h-281v-173h330v-124h-469zM341 781h-87l64 170h137z" />
    <glyph glyph-name="Ecircumflex" unicode="&#xca;" horiz-adv-x="605" 
d="M83 0v712h469v-124h-330v-167h281v-124h-281v-173h330v-124h-469zM393 781l-83 91l-83 -91h-101l132 169h104l132 -169h-101z" />
    <glyph glyph-name="Edieresis" unicode="&#xcb;" horiz-adv-x="605" 
d="M83 0v712h469v-124h-330v-167h281v-124h-281v-173h330v-124h-469zM365 783v125h111v-125h-111zM144 783v125h111v-125h-111z" />
    <glyph glyph-name="Igrave" unicode="&#xcc;" horiz-adv-x="305" 
d="M83 0v712h139v-712h-139zM197 781l-114 170h137l64 -170h-87z" />
    <glyph glyph-name="Iacute" unicode="&#xcd;" horiz-adv-x="305" 
d="M83 0v712h139v-712h-139zM170 781h-87l64 170h137z" />
    <glyph glyph-name="Icircumflex" unicode="&#xce;" horiz-adv-x="305" 
d="M83 0v712h139v-712h-139zM350 781l-83 91l-83 -91h-101l132 169h104l132 -169h-101z" />
    <glyph glyph-name="Idieresis" unicode="&#xcf;" horiz-adv-x="305" 
d="M83 0v712h139v-712h-139zM304 783v125h111v-125h-111zM83 783v125h111v-125h-111z" />
    <glyph glyph-name="Ntilde" unicode="&#xd1;" horiz-adv-x="711" 
d="M504 0l-282 437v-437h-139v712h124l282 -436v436h139v-712h-124zM423 792q-37 0 -72.5 20.5t-60.5 20.5q-17 0 -28.5 -5t-30.5 -24l-56 57q33 33 58 46t54 13q22 0 38.5 -5t42.5 -20.5t51 -15.5q17 0 28.5 5t30.5 24l58 -57q-32 -32 -58 -45.5t-55 -13.5z" />
    <glyph glyph-name="Ograve" unicode="&#xd2;" horiz-adv-x="644" 
d="M514 72q-39 -39 -85 -58.5t-107 -19.5q-60 0 -107 19.5t-91 63.5t-54.5 102.5t-10.5 176.5q0 117 11 176.5t54.5 103t90 63t107.5 19.5q59 0 106 -19.5t90.5 -63t55 -104t11.5 -175.5q0 -118 -11 -176.5t-60 -107.5zM411 556q-33 38 -89 38q-29 0 -51.5 -10t-41 -30.5
t-25 -58t-6.5 -139.5q0 -105 6 -140.5t33.5 -66.5t84.5 -31q56 0 82.5 30.5t34 70.5t7.5 137q0 102 -7 139t-28 61zM290 781l-114 170h137l64 -170h-87z" />
    <glyph glyph-name="Oacute" unicode="&#xd3;" horiz-adv-x="644" 
d="M514 72q-39 -39 -85 -58.5t-107 -19.5q-60 0 -107 19.5t-91 63.5t-54.5 102.5t-10.5 176.5q0 117 11 176.5t54.5 103t90 63t107.5 19.5q59 0 106 -19.5t90.5 -63t55 -104t11.5 -175.5q0 -118 -11 -176.5t-60 -107.5zM411 556q-33 38 -89 38q-29 0 -51.5 -10t-41 -30.5
t-25 -58t-6.5 -139.5q0 -105 6 -140.5t33.5 -66.5t84.5 -31q56 0 82.5 30.5t34 70.5t7.5 137q0 102 -7 139t-28 61zM354 781h-87l64 170h137z" />
    <glyph glyph-name="Ocircumflex" unicode="&#xd4;" horiz-adv-x="644" 
d="M514 72q-39 -39 -85 -58.5t-107 -19.5q-60 0 -107 19.5t-91 63.5t-54.5 102.5t-10.5 176.5q0 117 11 176.5t54.5 103t90 63t107.5 19.5q59 0 106 -19.5t90.5 -63t55 -104t11.5 -175.5q0 -118 -11 -176.5t-60 -107.5zM411 556q-33 38 -89 38q-29 0 -51.5 -10t-41 -30.5
t-25 -58t-6.5 -139.5q0 -105 6 -140.5t33.5 -66.5t84.5 -31q56 0 82.5 30.5t34 70.5t7.5 137q0 102 -7 139t-28 61zM405 781l-83 91l-83 -91h-101l132 169h104l132 -169h-101z" />
    <glyph glyph-name="Otilde" unicode="&#xd5;" horiz-adv-x="644" 
d="M514 72q-39 -39 -85 -58.5t-107 -19.5q-60 0 -107 19.5t-91 63.5t-54.5 102.5t-10.5 176.5q0 117 11 176.5t54.5 103t90 63t107.5 19.5q59 0 106 -19.5t90.5 -63t55 -104t11.5 -175.5q0 -118 -11 -176.5t-60 -107.5zM411 556q-33 38 -89 38q-29 0 -51.5 -10t-41 -30.5
t-25 -58t-6.5 -139.5q0 -105 6 -140.5t33.5 -66.5t84.5 -31q56 0 82.5 30.5t34 70.5t7.5 137q0 102 -7 139t-28 61zM389 792q-37 0 -72.5 20.5t-60.5 20.5q-17 0 -28.5 -5t-30.5 -24l-56 57q33 33 58 46t54 13q22 0 38.5 -5t42.5 -20.5t51 -15.5q17 0 28.5 5t30.5 24l58 -57
q-32 -32 -58 -45.5t-55 -13.5z" />
    <glyph glyph-name="Odieresis" unicode="&#xd6;" horiz-adv-x="644" 
d="M514 72q-39 -39 -85 -58.5t-107 -19.5q-60 0 -107 19.5t-91 63.5t-54.5 102.5t-10.5 176.5q0 117 11 176.5t54.5 103t90 63t107.5 19.5q59 0 106 -19.5t90.5 -63t55 -104t11.5 -175.5q0 -118 -11 -176.5t-60 -107.5zM411 556q-33 38 -89 38q-29 0 -51.5 -10t-41 -30.5
t-25 -58t-6.5 -139.5q0 -105 6 -140.5t33.5 -66.5t84.5 -31q56 0 82.5 30.5t34 70.5t7.5 137q0 102 -7 139t-28 61zM377 783v125h111v-125h-111zM156 783v125h111v-125h-111z" />
    <glyph glyph-name="Oslash" unicode="&#xd8;" horiz-adv-x="652" 
d="M514 72q-39 -39 -85 -58.5t-107 -19.5q-65 0 -113 22l-29 -60h-99l53 111l-5 5q-49 49 -59.5 107.5t-10.5 176.5q0 117 11 176.5t54.5 103t90 63t107.5 19.5q65 0 113 -22l29 60h98l-53 -111l5 -5q48 -48 59.5 -108.5t11.5 -175.5q0 -118 -11 -176.5t-60 -107.5zM322 594
q-29 0 -51.5 -10t-41 -30.5t-25 -58t-6.5 -139.5q0 -114 9 -151l178 373q-26 16 -63 16zM436 507l-178 -372q28 -17 64 -17q56 0 82.5 30.5t34 70.5t7.5 137q0 110 -10 151z" />
    <glyph glyph-name="Ugrave" unicode="&#xd9;" horiz-adv-x="668" 
d="M334 -6q-112 0 -187 69t-75 181v468h139v-463q0 -61 33 -96t90 -35t90.5 34.5t33.5 96.5v463h138v-468q0 -112 -74.5 -181t-187.5 -69zM302 781l-114 170h137l64 -170h-87z" />
    <glyph glyph-name="Uacute" unicode="&#xda;" horiz-adv-x="668" 
d="M334 -6q-112 0 -187 69t-75 181v468h139v-463q0 -61 33 -96t90 -35t90.5 34.5t33.5 96.5v463h138v-468q0 -112 -74.5 -181t-187.5 -69zM366 781h-87l64 170h137z" />
    <glyph glyph-name="Ucircumflex" unicode="&#xdb;" horiz-adv-x="668" 
d="M334 -6q-112 0 -187 69t-75 181v468h139v-463q0 -61 33 -96t90 -35t90.5 34.5t33.5 96.5v463h138v-468q0 -112 -74.5 -181t-187.5 -69zM417 781l-83 91l-83 -91h-101l132 169h104l132 -169h-101z" />
    <glyph glyph-name="Udieresis" unicode="&#xdc;" horiz-adv-x="668" 
d="M334 -6q-112 0 -187 69t-75 181v468h139v-463q0 -61 33 -96t90 -35t90.5 34.5t33.5 96.5v463h138v-468q0 -112 -74.5 -181t-187.5 -69zM389 783v125h111v-125h-111zM168 783v125h111v-125h-111z" />
    <glyph glyph-name="germandbls" unicode="&#xdf;" horiz-adv-x="574" 
d="M475 42q-42 -42 -126 -42h-52v110h26q28 0 45 15t17 47v144q0 30 -15.5 45.5t-44.5 15.5h-28v102h28q26 0 43 15t17 45q0 28 -21 47t-68 19q-51 0 -72 -23.5t-21 -70.5v-511h-130v521q0 99 61.5 148t163.5 49q99 0 158 -43.5t59 -131.5q0 -41 -17 -69t-44 -44
q31 -16 46.5 -40t15.5 -69v-160q0 -79 -41 -119z" />
    <glyph glyph-name="agrave" unicode="&#xe0;" horiz-adv-x="534" 
d="M340 0v45q-27 -27 -55 -38.5t-73 -11.5q-87 0 -131.5 45.5t-44.5 117.5q0 67 45 109t133 42h123v26q0 43 -22.5 62.5t-74.5 19.5q-38 0 -58 -9t-42 -34l-83 81q38 41 79 56.5t109 15.5q222 0 222 -184v-343h-127zM337 220h-103q-73 0 -73 -59q0 -60 75 -60q31 0 48 4.5
t35 21.5t18 65v28zM229 604l-114 170h137l64 -170h-87z" />
    <glyph glyph-name="aacute" unicode="&#xe1;" horiz-adv-x="534" 
d="M340 0v45q-27 -27 -55 -38.5t-73 -11.5q-87 0 -131.5 45.5t-44.5 117.5q0 67 45 109t133 42h123v26q0 43 -22.5 62.5t-74.5 19.5q-38 0 -58 -9t-42 -34l-83 81q38 41 79 56.5t109 15.5q222 0 222 -184v-343h-127zM337 220h-103q-73 0 -73 -59q0 -60 75 -60q31 0 48 4.5
t35 21.5t18 65v28zM293 604h-87l64 170h137z" />
    <glyph glyph-name="acircumflex" unicode="&#xe2;" horiz-adv-x="534" 
d="M340 0v45q-27 -27 -55 -38.5t-73 -11.5q-87 0 -131.5 45.5t-44.5 117.5q0 67 45 109t133 42h123v26q0 43 -22.5 62.5t-74.5 19.5q-38 0 -58 -9t-42 -34l-83 81q38 41 79 56.5t109 15.5q222 0 222 -184v-343h-127zM337 220h-103q-73 0 -73 -59q0 -60 75 -60q31 0 48 4.5
t35 21.5t18 65v28zM344 604l-83 91l-83 -91h-101l132 169h104l132 -169h-101z" />
    <glyph glyph-name="atilde" unicode="&#xe3;" horiz-adv-x="534" 
d="M340 0v45q-27 -27 -55 -38.5t-73 -11.5q-87 0 -131.5 45.5t-44.5 117.5q0 67 45 109t133 42h123v26q0 43 -22.5 62.5t-74.5 19.5q-38 0 -58 -9t-42 -34l-83 81q38 41 79 56.5t109 15.5q222 0 222 -184v-343h-127zM337 220h-103q-73 0 -73 -59q0 -60 75 -60q31 0 48 4.5
t35 21.5t18 65v28zM328 615q-37 0 -72.5 20.5t-60.5 20.5q-17 0 -28.5 -5t-30.5 -24l-56 57q33 33 58 46t54 13q22 0 38.5 -5t42.5 -20.5t51 -15.5q17 0 28.5 5t30.5 24l58 -57q-32 -32 -58 -45.5t-55 -13.5z" />
    <glyph glyph-name="adieresis" unicode="&#xe4;" horiz-adv-x="534" 
d="M340 0v45q-27 -27 -55 -38.5t-73 -11.5q-87 0 -131.5 45.5t-44.5 117.5q0 67 45 109t133 42h123v26q0 43 -22.5 62.5t-74.5 19.5q-38 0 -58 -9t-42 -34l-83 81q38 41 79 56.5t109 15.5q222 0 222 -184v-343h-127zM337 220h-103q-73 0 -73 -59q0 -60 75 -60q31 0 48 4.5
t35 21.5t18 65v28zM316 606v125h111v-125h-111zM95 606v125h111v-125h-111z" />
    <glyph glyph-name="aring" unicode="&#xe5;" horiz-adv-x="534" 
d="M340 0v45q-27 -27 -55 -38.5t-73 -11.5q-87 0 -131.5 45.5t-44.5 117.5q0 67 45 109t133 42h123v26q0 43 -22.5 62.5t-74.5 19.5q-38 0 -58 -9t-42 -34l-83 81q38 41 79 56.5t109 15.5q222 0 222 -184v-343h-127zM337 220h-103q-73 0 -73 -59q0 -60 75 -60q31 0 48 4.5
t35 21.5t18 65v28zM261 584q-54 0 -92.5 38.5t-38.5 92.5t38.5 92.5t92.5 38.5t92.5 -38.5t38.5 -92.5t-38.5 -92.5t-92.5 -38.5zM261 773q-24 0 -41 -17t-17 -41q0 -23 17 -41t41 -18t41 17t17 42q0 24 -17 41t-41 17z" />
    <glyph glyph-name="ae" unicode="&#xe6;" horiz-adv-x="838" 
d="M465 220q0 -52 30 -84t84 -32q40 0 65.5 11t52.5 38l79 -77q-43 -43 -86.5 -62.5t-111.5 -19.5q-56 0 -102.5 17t-80.5 56q-41 -44 -81.5 -58.5t-101.5 -14.5q-86 0 -131 46t-45 118q0 67 45 109t133 42h123v26q0 43 -22.5 62.5t-74.5 19.5q-38 0 -58 -9t-42 -34l-83 81
q38 41 79 56.5t109 15.5q118 0 171 -57q56 57 148 57q106 0 166.5 -69.5t60.5 -179.5v-58h-326zM651 365q-11 25 -33 39.5t-54 14.5t-54 -14.5t-33.5 -41.5t-11.5 -54h198q0 27 -12 56zM337 220h-103q-73 0 -73 -59q0 -60 75 -60q31 0 48 4.5t35 21.5t18 65v28z" />
    <glyph glyph-name="ccedilla" unicode="&#xe7;" horiz-adv-x="482" 
d="M280 -6q-94 0 -163.5 61.5t-69.5 205.5t69 205t164 61q105 0 172 -70l-88 -88q-20 22 -39.5 31.5t-44.5 9.5q-46 0 -74.5 -35t-28.5 -114q0 -80 28.5 -115t74.5 -35t84 41l88 -87q-68 -71 -172 -71zM281 -206h-121l69 146h96z" />
    <glyph glyph-name="egrave" unicode="&#xe8;" horiz-adv-x="548" 
d="M175 220q0 -52 30 -84t84 -32q40 0 65.5 11t52.5 38l79 -77q-43 -43 -86.5 -62.5t-111.5 -19.5q-107 0 -174 60t-67 207q0 125 62 195.5t165 70.5q106 0 166.5 -69.5t60.5 -179.5v-58h-326zM361 365q-11 25 -33 39.5t-54 14.5t-54 -14.5t-33.5 -41.5t-11.5 -54h198
q0 27 -12 56zM245 604l-114 170h137l64 -170h-87z" />
    <glyph glyph-name="eacute" unicode="&#xe9;" horiz-adv-x="548" 
d="M175 220q0 -52 30 -84t84 -32q40 0 65.5 11t52.5 38l79 -77q-43 -43 -86.5 -62.5t-111.5 -19.5q-107 0 -174 60t-67 207q0 125 62 195.5t165 70.5q106 0 166.5 -69.5t60.5 -179.5v-58h-326zM361 365q-11 25 -33 39.5t-54 14.5t-54 -14.5t-33.5 -41.5t-11.5 -54h198
q0 27 -12 56zM309 604h-87l64 170h137z" />
    <glyph glyph-name="ecircumflex" unicode="&#xea;" horiz-adv-x="548" 
d="M175 220q0 -52 30 -84t84 -32q40 0 65.5 11t52.5 38l79 -77q-43 -43 -86.5 -62.5t-111.5 -19.5q-107 0 -174 60t-67 207q0 125 62 195.5t165 70.5q106 0 166.5 -69.5t60.5 -179.5v-58h-326zM361 365q-11 25 -33 39.5t-54 14.5t-54 -14.5t-33.5 -41.5t-11.5 -54h198
q0 27 -12 56zM360 604l-83 91l-83 -91h-101l132 169h104l132 -169h-101z" />
    <glyph glyph-name="edieresis" unicode="&#xeb;" horiz-adv-x="548" 
d="M175 220q0 -52 30 -84t84 -32q40 0 65.5 11t52.5 38l79 -77q-43 -43 -86.5 -62.5t-111.5 -19.5q-107 0 -174 60t-67 207q0 125 62 195.5t165 70.5q106 0 166.5 -69.5t60.5 -179.5v-58h-326zM361 365q-11 25 -33 39.5t-54 14.5t-54 -14.5t-33.5 -41.5t-11.5 -54h198
q0 27 -12 56zM332 606v125h111v-125h-111zM111 606v125h111v-125h-111z" />
    <glyph glyph-name="igrave" unicode="&#xec;" horiz-adv-x="275" 
d="M73 0v521h130v-521h-130zM187 604l-114 170h137l64 -170h-87z" />
    <glyph glyph-name="iacute" unicode="&#xed;" horiz-adv-x="275" 
d="M73 0v521h130v-521h-130zM160 604h-87l64 170h137z" />
    <glyph glyph-name="icircumflex" unicode="&#xee;" horiz-adv-x="275" 
d="M73 0v521h130v-521h-130zM340 604l-83 91l-83 -91h-101l132 169h104l132 -169h-101z" />
    <glyph glyph-name="idieresis" unicode="&#xef;" horiz-adv-x="275" 
d="M73 0v521h130v-521h-130zM294 606v125h111v-125h-111zM73 606v125h111v-125h-111z" />
    <glyph glyph-name="ntilde" unicode="&#xf1;" horiz-adv-x="573" 
d="M376 0v315q0 49 -25 72t-61 23q-37 0 -62 -22.5t-25 -72.5v-315h-130v521h127v-48q51 54 130 54q38 0 69.5 -12t57 -37.5t37.5 -62t12 -82.5v-333h-130zM357 615q-37 0 -72.5 20.5t-60.5 20.5q-17 0 -28.5 -5t-30.5 -24l-56 57q33 33 58 46t54 13q22 0 38.5 -5
t42.5 -20.5t51 -15.5q17 0 28.5 5t30.5 24l58 -57q-32 -32 -58 -45.5t-55 -13.5z" />
    <glyph glyph-name="ograve" unicode="&#xf2;" 
d="M433 58q-27 -29 -67 -46.5t-95 -17.5q-54 0 -94 17.5t-70.5 49.5t-43 78.5t-12.5 121.5q0 77 12 121t43 77t70.5 50.5t94.5 17.5q54 0 94.5 -17.5t71 -49.5t43 -78.5t12.5 -120.5q0 -78 -12 -122t-47 -81zM332 387q-23 23 -61 23q-37 0 -57.5 -20.5t-26.5 -51t-6 -77.5
q0 -63 7 -87t26.5 -43.5t56.5 -19.5q38 0 58.5 20.5t26.5 51t6 78.5q0 51 -5 78.5t-25 47.5zM236 604l-114 170h137l64 -170h-87z" />
    <glyph glyph-name="oacute" unicode="&#xf3;" 
d="M433 58q-27 -29 -67 -46.5t-95 -17.5q-54 0 -94 17.5t-70.5 49.5t-43 78.5t-12.5 121.5q0 77 12 121t43 77t70.5 50.5t94.5 17.5q54 0 94.5 -17.5t71 -49.5t43 -78.5t12.5 -120.5q0 -78 -12 -122t-47 -81zM332 387q-23 23 -61 23q-37 0 -57.5 -20.5t-26.5 -51t-6 -77.5
q0 -63 7 -87t26.5 -43.5t56.5 -19.5q38 0 58.5 20.5t26.5 51t6 78.5q0 51 -5 78.5t-25 47.5zM304 604h-87l64 170h137z" />
    <glyph glyph-name="ocircumflex" unicode="&#xf4;" 
d="M433 58q-27 -29 -67 -46.5t-95 -17.5q-54 0 -94 17.5t-70.5 49.5t-43 78.5t-12.5 121.5q0 77 12 121t43 77t70.5 50.5t94.5 17.5q54 0 94.5 -17.5t71 -49.5t43 -78.5t12.5 -120.5q0 -78 -12 -122t-47 -81zM332 387q-23 23 -61 23q-37 0 -57.5 -20.5t-26.5 -51t-6 -77.5
q0 -63 7 -87t26.5 -43.5t56.5 -19.5q38 0 58.5 20.5t26.5 51t6 78.5q0 51 -5 78.5t-25 47.5zM355 604l-83 91l-83 -91h-101l132 169h104l132 -169h-101z" />
    <glyph glyph-name="otilde" unicode="&#xf5;" 
d="M433 58q-27 -29 -67 -46.5t-95 -17.5q-54 0 -94 17.5t-70.5 49.5t-43 78.5t-12.5 121.5q0 77 12 121t43 77t70.5 50.5t94.5 17.5q54 0 94.5 -17.5t71 -49.5t43 -78.5t12.5 -120.5q0 -78 -12 -122t-47 -81zM332 387q-23 23 -61 23q-37 0 -57.5 -20.5t-26.5 -51t-6 -77.5
q0 -63 7 -87t26.5 -43.5t56.5 -19.5q38 0 58.5 20.5t26.5 51t6 78.5q0 51 -5 78.5t-25 47.5zM339 615q-37 0 -72.5 20.5t-60.5 20.5q-17 0 -28.5 -5t-30.5 -24l-56 57q33 33 58 46t54 13q22 0 38.5 -5t42.5 -20.5t51 -15.5q17 0 28.5 5t30.5 24l58 -57q-32 -32 -58 -45.5
t-55 -13.5z" />
    <glyph glyph-name="odieresis" unicode="&#xf6;" 
d="M433 58q-27 -29 -67 -46.5t-95 -17.5q-54 0 -94 17.5t-70.5 49.5t-43 78.5t-12.5 121.5q0 77 12 121t43 77t70.5 50.5t94.5 17.5q54 0 94.5 -17.5t71 -49.5t43 -78.5t12.5 -120.5q0 -78 -12 -122t-47 -81zM332 387q-23 23 -61 23q-37 0 -57.5 -20.5t-26.5 -51t-6 -77.5
q0 -63 7 -87t26.5 -43.5t56.5 -19.5q38 0 58.5 20.5t26.5 51t6 78.5q0 51 -5 78.5t-25 47.5zM327 606v125h111v-125h-111zM106 606v125h111v-125h-111z" />
    <glyph glyph-name="divide" unicode="&#xf7;" 
d="M207 423v130h130v-130h-130zM46 225v121h451v-121h-451zM207 18v130h130v-130h-130z" />
    <glyph glyph-name="oslash" unicode="&#xf8;" 
d="M433 58q-27 -29 -67 -46.5t-95 -17.5q-31 0 -56 6t-48 17l-36 -61h-79l59 101q-35 35 -47.5 82t-12.5 122q0 77 12 121t43 77t70.5 50.5t94.5 17.5q61 0 105 -22l35 60h80l-60 -101q35 -36 48 -82t13 -121q0 -78 -12 -122t-47 -81zM271 410q-37 0 -57.5 -20.5t-26.5 -51
t-6 -77.5q0 -31 1.5 -49.5t5.5 -36.5l132 222q-21 13 -49 13zM354 346l-131 -222q21 -13 48 -13q38 0 58.5 20.5t26.5 51t6 78.5q0 37 -1.5 51t-6.5 34z" />
    <glyph glyph-name="ugrave" unicode="&#xf9;" horiz-adv-x="573" 
d="M373 0v48q-51 -54 -130 -54q-38 0 -69.5 12t-57 37.5t-37.5 62t-12 82.5v333h130v-315q0 -49 25 -72t61 -23q37 0 62 22.5t25 72.5v315h130v-521h-127zM251 604l-114 170h137l64 -170h-87z" />
    <glyph glyph-name="uacute" unicode="&#xfa;" horiz-adv-x="573" 
d="M373 0v48q-51 -54 -130 -54q-38 0 -69.5 12t-57 37.5t-37.5 62t-12 82.5v333h130v-315q0 -49 25 -72t61 -23q37 0 62 22.5t25 72.5v315h130v-521h-127zM315 604h-87l64 170h137z" />
    <glyph glyph-name="ucircumflex" unicode="&#xfb;" horiz-adv-x="573" 
d="M373 0v48q-51 -54 -130 -54q-38 0 -69.5 12t-57 37.5t-37.5 62t-12 82.5v333h130v-315q0 -49 25 -72t61 -23q37 0 62 22.5t25 72.5v315h130v-521h-127zM366 604l-83 91l-83 -91h-101l132 169h104l132 -169h-101z" />
    <glyph glyph-name="udieresis" unicode="&#xfc;" horiz-adv-x="573" 
d="M373 0v48q-51 -54 -130 -54q-38 0 -69.5 12t-57 37.5t-37.5 62t-12 82.5v333h130v-315q0 -49 25 -72t61 -23q37 0 62 22.5t25 72.5v315h130v-521h-127zM338 606v125h111v-125h-111zM117 606v125h111v-125h-111z" />
    <glyph glyph-name="ydieresis" unicode="&#xff;" horiz-adv-x="494" 
d="M267 -84q-9 -24 -17.5 -39t-25.5 -32t-45.5 -26.5t-62.5 -9.5h-51v117h30q28 0 41.5 9.5t23.5 37.5l22 64l-178 484h137l108 -322l104 322h137zM299 606v125h111v-125h-111zM78 606v125h111v-125h-111z" />
    <glyph glyph-name="dotlessi" unicode="&#x131;" horiz-adv-x="275" 
d="M73 0v521h130v-521h-130z" />
    <glyph glyph-name="OE" unicode="&#x152;" horiz-adv-x="966" 
d="M446 0v44q-23 -25 -59 -37.5t-69 -12.5q-114 0 -175 61t-72.5 124t-11.5 177q0 118 11 178.5t72.5 122t175.5 61.5q37 0 70.5 -12t57.5 -38v44h465v-123h-327l1 -169h278v-122h-278l-1 -175h328v-123h-466zM411 556q-33 38 -89 38q-29 0 -51.5 -10t-41 -30.5t-25 -58
t-6.5 -139.5q0 -105 6 -140.5t33.5 -66.5t84.5 -31q56 0 82.5 30.5t34 70.5t7.5 137q0 102 -7 139t-28 61z" />
    <glyph glyph-name="oe" unicode="&#x153;" horiz-adv-x="863" 
d="M490 220q0 -52 30 -84t84 -32q40 0 65 11t52 38l80 -77q-43 -43 -86.5 -62.5t-111.5 -19.5q-53 0 -98 16t-76 50q-25 -31 -65 -48.5t-93 -17.5q-54 0 -94 17.5t-70.5 49.5t-43 78.5t-12.5 121.5q0 77 12 121t43 77t70.5 50.5t94.5 17.5q54 0 94.5 -18.5t66.5 -50.5
q57 69 157 69q106 0 166.5 -69.5t60.5 -179.5v-58h-326zM676 365q-11 25 -33 39.5t-54 14.5t-54.5 -14.5t-33.5 -40t-11 -55.5h197q0 30 -11 56zM332 387q-23 23 -61 23q-37 0 -57.5 -20.5t-26.5 -51t-6 -77.5q0 -63 7 -87t26.5 -43.5t56.5 -19.5q38 0 58.5 20.5t26.5 51
t6 78.5q0 51 -5 78.5t-25 47.5z" />
    <glyph glyph-name="Ydieresis" unicode="&#x178;" horiz-adv-x="572" 
d="M355 292v-292h-138v292l-214 420h151l133 -287l131 287h151zM340 783v125h111v-125h-111zM119 783v125h111v-125h-111z" />
    <glyph glyph-name="florin" unicode="&#x192;" horiz-adv-x="427" 
d="M328 610q-46 0 -54 -47l-29 -166h96v-100h-113l-87 -488h-130l87 488h-67v100h84l31 174q11 62 56.5 105.5t120.5 43.5l74 -1v-109h-69z" />
    <glyph glyph-name="hungarumlaut" unicode="&#x2ba;" horiz-adv-x="500" 
d="M350 604h-86l63 170h138zM144 604h-87l63 170h138z" />
    <glyph glyph-name="caron" unicode="&#x2c7;" horiz-adv-x="500" 
d="M302 604h-104l-132 169h101l83 -90l83 90h101z" />
    <glyph glyph-name="macron" unicode="&#x2c9;" horiz-adv-x="500" 
d="M92 630v87h316v-87h-316z" />
    <glyph glyph-name="breve" unicode="&#x2d8;" horiz-adv-x="500" 
d="M251 591q-71 0 -118 37.5t-47 113.5h88q4 -30 25 -45t52 -15t51.5 14.5t24.5 45.5h87q0 -76 -46 -113.5t-117 -37.5z" />
    <glyph glyph-name="dotaccent" unicode="&#x2d9;" horiz-adv-x="500" 
d="M183 608v106h134v-106h-134z" />
    <glyph glyph-name="ring" unicode="&#x2da;" horiz-adv-x="500" 
d="M250 584q-54 0 -92.5 38.5t-38.5 92.5t38.5 92.5t92.5 38.5t92.5 -38.5t38.5 -92.5t-38.5 -92.5t-92.5 -38.5zM250 773q-24 0 -41 -17t-17 -41q0 -23 17 -41t41 -18t41 17t17 42q0 24 -17 41t-41 17z" />
    <glyph glyph-name="ogonek" unicode="&#x2db;" horiz-adv-x="500" 
d="M213 -206l-44 146h97l68 -146h-121z" />
    <glyph glyph-name="circumflex" unicode="&#x302;" horiz-adv-x="500" 
d="M333 604l-83 91l-83 -91h-101l132 169h104l132 -169h-101z" />
    <glyph glyph-name="tilde" unicode="&#x303;" horiz-adv-x="500" 
d="M317 615q-37 0 -72.5 20.5t-60.5 20.5q-17 0 -28.5 -5t-30.5 -24l-56 57q33 33 58 46t54 13q22 0 38.5 -5t42.5 -20.5t51 -15.5q17 0 28.5 5t30.5 24l58 -57q-32 -32 -58 -45.5t-55 -13.5z" />
    <glyph glyph-name="summation" unicode="&#x3a3;" horiz-adv-x="552" 
d="M40 -191v110l189 376l-186 355v110h468v-124h-306l141 -279v-129l-146 -295h315v-124h-475z" />
    <glyph glyph-name="Omega" unicode="&#x3a9;" horiz-adv-x="644" 
d="M366 0v109q35 16 51.5 40.5t22.5 66t6 133.5q0 104 -7 143t-25.5 60t-41 31.5t-50.5 10.5q-27 0 -50.5 -10.5t-41.5 -31t-25 -60t-7 -143.5q0 -90 6 -132t22.5 -67t51.5 -41v-109h-219v123h59q-23 25 -36.5 56.5t-18 74t-4.5 102.5q0 117 11 176.5t54.5 103t90 63
t107.5 19.5q59 0 106 -19.5t90.5 -63t55 -104t11.5 -175.5q0 -57 -4.5 -100.5t-18 -75.5t-36.5 -57h59v-123h-219z" />
    <glyph glyph-name="pi" unicode="&#x3c0;" horiz-adv-x="592" 
d="M386 0v399h-180v-399h-130v521h439v-521h-129z" />
    <glyph glyph-name="endash" unicode="&#x2013;" 
d="M50 225v121h443v-121h-443z" />
    <glyph glyph-name="emdash" unicode="&#x2014;" horiz-adv-x="1027" 
d="M59 226v125h909v-125h-909z" />
    <glyph glyph-name="quoteleft" unicode="&#x2018;" horiz-adv-x="273" 
d="M68 589v123l136 105v-228h-136z" />
    <glyph glyph-name="quoteright" unicode="&#x2019;" horiz-adv-x="273" 
d="M68 485v227h136v-124z" />
    <glyph glyph-name="quotesinglbase" unicode="&#x201a;" horiz-adv-x="271" 
d="M68 -104v228h136v-124z" />
    <glyph glyph-name="quotedblleft" unicode="&#x201c;" horiz-adv-x="482" 
d="M278 589v123l136 105v-228h-136zM68 589v123l135 105v-228h-135z" />
    <glyph glyph-name="quotedblright" unicode="&#x201d;" horiz-adv-x="482" 
d="M278 485v227h136v-124zM68 485v227h135v-124z" />
    <glyph glyph-name="quotedblbase" unicode="&#x201e;" horiz-adv-x="485" 
d="M278 -104v228h136v-124zM68 -104v228h135v-124z" />
    <glyph glyph-name="dagger" unicode="&#x2020;" horiz-adv-x="579" 
d="M354 410v-410h-130v410h-167v117h167v185h130v-185h168v-117h-168z" />
    <glyph glyph-name="daggerdbl" unicode="&#x2021;" horiz-adv-x="579" 
d="M354 -6v-185h-130v185h-167v117h167v299h-167v117h167v185h130v-185h168v-117h-168v-299h168v-117h-168z" />
    <glyph glyph-name="bullet" unicode="&#x2022;" horiz-adv-x="493" 
d="M246 171q-68 0 -115.5 47.5t-47.5 115.5t47.5 115.5t115.5 47.5t115.5 -47.5t47.5 -115.5t-47.5 -115.5t-115.5 -47.5z" />
    <glyph glyph-name="ellipsis" unicode="&#x2026;" horiz-adv-x="846" 
d="M637 0v141h141v-141h-141zM352 0v141h141v-141h-141zM68 0v141h142v-141h-142z" />
    <glyph glyph-name="perthousand" unicode="&#x2030;" horiz-adv-x="1211" 
d="M1013 -6q-63 0 -104 35.5t-41 101.5v99q0 64 41.5 100.5t103.5 36.5q63 0 104 -35.5t41 -101.5v-99q0 -65 -41.5 -101t-103.5 -36zM651 -6q-63 0 -104 35.5t-41 101.5v99q0 64 41.5 100.5t103.5 36.5q63 0 104 -35.5t41 -101.5v-99q0 -65 -41.5 -101t-103.5 -36zM307 0
h-102l337 712h102zM197 345q-63 0 -104 35.5t-41 101.5v99q0 64 41.5 100.5t103.5 36.5q63 0 104 -35.5t41 -101.5v-99q0 -65 -41.5 -101t-103.5 -36zM1064 226q0 57 -51 57t-51 -57v-91q0 -57 51 -57t51 56v92zM702 226q0 57 -51 57t-51 -57v-91q0 -57 51 -57t51 57v91z
M248 577q0 57 -51 57t-51 -57v-91q0 -57 51 -57t51 57v91z" />
    <glyph glyph-name="guilsinglleft" unicode="&#x2039;" horiz-adv-x="350" 
d="M34 275l249 248v-155l-94 -93l94 -93v-155z" />
    <glyph glyph-name="guilsinglright" unicode="&#x203a;" horiz-adv-x="350" 
d="M67 27v155l95 93l-95 93v155l249 -248z" />
    <glyph glyph-name="trademark" unicode="&#x2122;" horiz-adv-x="924" 
d="M765 285v252l-80 -157h-84l-80 157v-252h-95v427h95l122 -228l122 228h95v-427h-95zM250 627v-342h-95v342h-110v85h315v-85h-110z" />
    <glyph glyph-name="partialdiff" unicode="&#x2202;" horiz-adv-x="555" 
d="M425 56q-26 -27 -65 -44.5t-91 -17.5t-90 17t-68 48.5t-42.5 76.5t-12.5 118q0 74 12.5 119t41.5 76t65.5 47.5t88.5 16.5q29 0 48.5 -5.5t38.5 -23.5v27q0 36 -24.5 66.5t-79.5 30.5q-61 0 -102 -40l-81 82q39 37 83.5 52.5t105.5 15.5q112 0 170.5 -64.5t58.5 -172.5
v-227q0 -74 -12 -118t-45 -80zM325 374q-22 22 -56 22t-53 -19.5t-24.5 -49.5t-5.5 -73q0 -44 3 -71t24.5 -49.5t55.5 -22.5t53 19.5t24.5 50t5.5 73.5q0 44 -3 70.5t-24 49.5z" />
    <glyph glyph-name="Delta" unicode="&#x2206;" horiz-adv-x="634" 
d="M3 0l260 712h108l260 -712h-628zM320 502l-134 -385h264z" />
    <glyph glyph-name="product" unicode="&#x220f;" horiz-adv-x="685" 
d="M463 -191v828h-241v-828h-139v951h519v-951h-139z" />
    <glyph glyph-name="fraction" unicode="&#x2215;" horiz-adv-x="208" 
d="M-14 0h-101l337 712h101z" />
    <glyph glyph-name="periodcentered" unicode="&#x2219;" horiz-adv-x="285" 
d="M68 212v148h149v-148h-149z" />
    <glyph glyph-name="radical" unicode="&#x221a;" horiz-adv-x="596" 
d="M474 588l-194 -588h-105l-172 521h141l84 -273l143 464h195v-124h-92z" />
    <glyph glyph-name="infinity" unicode="&#x221e;" horiz-adv-x="851" 
d="M606 96q-52 0 -96 24t-85 70q-41 -46 -84.5 -70t-95.5 -24q-90 0 -140 53t-50 135t50 136t140 54q52 0 95.5 -24t84.5 -71q40 45 85 70t96 25q90 0 140 -54t50 -136t-50 -135t-140 -53zM605 346q-24 0 -43 -15t-48 -50q28 -34 47 -49.5t44 -15.5q28 0 46.5 17.5
t18.5 47.5t-18.5 47.5t-46.5 17.5zM245 347q-27 0 -45.5 -17.5t-18.5 -48.5q0 -30 18.5 -47.5t45.5 -17.5q24 0 44 16t48 49q-27 32 -48 49t-44 17z" />
    <glyph glyph-name="integral" unicode="&#x222b;" horiz-adv-x="490" 
d="M384 615q-71 0 -71 -71v-549q0 -86 -51.5 -133.5t-139.5 -47.5h-65v110h49q71 0 71 70v549q0 87 51.5 134.5t139.5 47.5h65v-110h-49z" />
    <glyph glyph-name="approxequal" unicode="&#x2248;" horiz-adv-x="606" 
d="M404 307q-55 0 -98.5 23t-61 28.5t-39.5 5.5q-23 0 -41.5 -8t-44.5 -34l-82 82q47 47 83 66.5t81 19.5q55 0 98 -23t61 -29t39 -6q24 0 42 8t45 35l83 -82q-46 -46 -83 -66t-82 -20zM405 81q-55 0 -98 23t-61 29t-39 6q-24 0 -42 -8t-45 -35l-83 82q47 47 84 66.5
t82 19.5q54 0 97.5 -23t61 -28.5t39.5 -5.5q23 0 41.5 8t44.5 34l82 -82q-47 -47 -83 -66.5t-81 -19.5z" />
    <glyph glyph-name="notequal" unicode="&#x2260;" horiz-adv-x="602" 
d="M232 116l-103 -129l-79 62l55 67h-55v122h149l78 95h-227v122h320l103 129l79 -62l-55 -67h55v-122h-148l-78 -95h226v-122h-320z" />
    <glyph glyph-name="lessequal" unicode="&#x2264;" horiz-adv-x="1027" 
d="M797 -86l-497 498l1 -460l-116 116v545h546l116 -116l-460 2l497 -498z" />
    <glyph glyph-name="greaterequal" unicode="&#x2265;" horiz-adv-x="1027" 
d="M725 -47l2 459l-498 -498l-87 87l498 498l-460 -2l116 116h545v-544z" />
    <glyph glyph-name="lozenge" unicode="&#x25ca;" horiz-adv-x="636" 
d="M318 -26l-263 367l263 366l263 -366zM318 505l-117 -164l117 -165l117 165z" />
    <glyph glyph-name="fi" unicode="&#xf001;" horiz-adv-x="602" 
d="M398 610v106h134v-106h-134zM400 0v506h130v-506h-130zM215 407v-407h-130v407h-54v99h54v65q0 61 38.5 105t113.5 44h74v-110h-50q-46 0 -46 -47v-57h96v-99h-96z" />
    <glyph glyph-name="fl" unicode="&#xf002;" horiz-adv-x="648" 
d="M550 0q-75 0 -113.5 43.5t-38.5 105.5v563h130v-555q0 -47 46 -47h50v-110h-74zM215 407v-407h-130v407h-54v99h54v65q0 61 38.5 105t113.5 44h74v-110h-50q-46 0 -46 -47v-57h96v-99h-96z" />
    <glyph glyph-name="glyph225" horiz-adv-x="593" 
d="M101 0v244l-64 -41v116l64 41v352h139v-265l128 81v-115l-128 -81v-208h323v-124h-462z" />
    <glyph glyph-name="glyph226" horiz-adv-x="336" 
d="M235 0q-75 0 -113 43.5t-38 105.5v153l-54 -33v109l54 34v300h130v-222l60 37v-109l-60 -38v-223q0 -24 10.5 -35.5t34.5 -11.5h50v-110h-74z" />
    <glyph glyph-name="glyph227" horiz-adv-x="591" 
d="M279 -6q-85 0 -147 21t-113 73l90 90q32 -32 75.5 -46t96.5 -14q126 0 126 88q0 39 -16 54t-31 21.5t-38 9.5l-86 12q-91 13 -140 61.5t-49 137.5q0 97 66.5 156.5t181.5 59.5q75 0 129.5 -19t100.5 -64l-88 -87q-30 28 -67.5 38.5t-78.5 10.5q-54 0 -82 -25t-28 -65
q0 -16 4.5 -28t22.5 -28.5t60 -22.5l84 -12q90 -13 127.5 -47.5t50.5 -72t13 -86.5q0 -101 -74 -158.5t-190 -57.5zM346 781h-104l-132 169h101l83 -90l83 90h101z" />
    <glyph glyph-name="glyph228" horiz-adv-x="501" 
d="M244 -6q-75 0 -125.5 14.5t-96.5 60.5l85 85q28 -28 65 -38.5t74 -10.5q38 0 65 13t27 41q0 20 -12.5 32.5t-42.5 15.5l-82 8q-74 7 -113 41.5t-39 104.5q0 78 58.5 122t142.5 44q68 0 115 -13t84 -48l-80 -81q-20 18 -53 26.5t-68 8.5q-36 0 -55 -14.5t-19 -35.5
q0 -18 11 -30t43 -15l82 -8q76 -7 115.5 -46.5t39.5 -106.5q0 -83 -61.5 -126.5t-159.5 -43.5zM302 604h-104l-132 169h101l83 -90l83 90h101z" />
    <glyph glyph-name="glyph229" horiz-adv-x="548" 
d="M40 0v112l304 476h-291v124h455v-110l-305 -478h305v-124h-468zM329 781h-104l-132 169h101l83 -90l83 90h101z" />
    <glyph glyph-name="glyph230" horiz-adv-x="478" 
d="M37 0v99l231 305h-218v117h384v-99l-234 -305h234v-117h-397zM294 604h-104l-132 169h101l83 -90l83 90h101z" />
    <glyph glyph-name="glyph231" horiz-adv-x="353" 
d="M110 436v350h130v-350h-130zM110 -74v350h130v-350h-130z" />
    <glyph glyph-name="glyph232" horiz-adv-x="682" 
d="M560 83q-36 -39 -86.5 -61t-112.5 -22h-255v307h-69v106h69v299h257q123 0 182.5 -67.5t68.5 -120.5t9 -168q0 -124 -8.5 -173t-54.5 -100zM459 537q-19 26 -44.5 39t-64.5 13h-105v-176h116v-106h-116v-184h105q76 0 101 37.5t29 67.5t4 126q0 97 -4 128t-21 55z" />
    <glyph glyph-name="glyph233" 
d="M428 56q-26 -27 -65.5 -44.5t-91.5 -17.5q-53 0 -91 17t-68.5 48t-43 76.5t-12.5 118.5q0 74 12 117.5t45 78.5t76.5 46.5t72.5 11.5q11 0 17 -1l-34 62h-114v91h68l-31 60h139l31 -60h92v-91h-46l40 -77q37 -71 49.5 -119t12.5 -119q0 -74 -12 -118t-46 -80zM329 374
q-22 22 -58 22q-35 0 -54.5 -20t-25 -49.5t-5.5 -72.5q0 -61 6.5 -83t25 -41t53.5 -19q36 0 55.5 20t24.5 48t5 75q0 62 -5.5 83t-21.5 37z" />
    <glyph glyph-name="glyph234" horiz-adv-x="572" 
d="M355 292v-292h-138v292l-214 420h151l133 -287l131 287h151zM317 781h-87l64 170h137z" />
    <glyph glyph-name="glyph235" horiz-adv-x="494" 
d="M267 -84q-9 -24 -17.5 -39t-25.5 -32t-45.5 -26.5t-62.5 -9.5h-51v117h30q28 0 41.5 9.5t23.5 37.5l22 64l-178 484h137l108 -322l104 322h137zM276 604h-87l64 170h137z" />
    <glyph glyph-name="glyph236" horiz-adv-x="633" 
d="M359 138h-137v-138h-139v712h139v-131h137q107 0 171 -63t64 -158q0 -94 -64 -158t-171 -64zM352 457h-130v-195h130q47 0 75 27t28 71q0 43 -28 70t-75 27z" />
    <glyph glyph-name="glyph237" horiz-adv-x="562" 
d="M456 41q-47 -47 -127 -47q-42 0 -71 11.5t-55 40.5v-237h-130v903h130v-237q25 28 55 40t71 12q80 0 116.5 -36.5t50 -83.5t13.5 -146q0 -78 -9 -131.5t-44 -88.5zM291 410q-54 0 -71 -37t-17 -112q0 -76 16.5 -113t71.5 -37q53 0 70.5 38t17.5 112q0 75 -17 112t-71 37z
" />
    <glyph glyph-name="glyph238" 
d="M50 225v121h443v-121h-443z" />
    <glyph glyph-name="glyph239" 
d="M412 63l-141 141l-140 -141l-82 82l141 141l-141 141l82 82l140 -141l141 141l82 -82l-141 -141l141 -141z" />
    <glyph glyph-name="glyph240" horiz-adv-x="292" 
d="M128 285v321l-90 -78v106l90 78h95v-427h-95z" />
    <glyph glyph-name="glyph241" horiz-adv-x="358" 
d="M43 285v85l156 171q22 23 22 47q0 43 -42 43q-18 0 -30 -9.5t-12 -34.5h-94q0 60 38.5 94.5t97.5 34.5t97.5 -34.5t38.5 -93.5q0 -37 -14 -57.5t-38 -46.5l-105 -114h157v-85h-272z" />
    <glyph glyph-name="glyph242" horiz-adv-x="368" 
d="M184 281q-59 0 -100 32.5t-41 99.5h94q0 -48 47 -48t47 50q0 21 -13.5 34.5t-35.5 13.5h-13v81h13q22 0 33 13t11 30q0 21 -11.5 32.5t-30.5 11.5q-18 0 -30 -11t-12 -31h-94q0 57 39 92t97 35q59 0 97.5 -35.5t38.5 -90.5q0 -32 -12.5 -52t-32.5 -32q22 -14 36 -36
t14 -58q0 -64 -40 -97.5t-101 -33.5z" />
    <glyph glyph-name="glyph243" horiz-adv-x="862" 
d="M547 0v85l156 171q23 24 23 47q0 43 -43 43q-18 0 -29.5 -9.5t-11.5 -34.5h-95q0 60 38.5 94.5t97.5 34.5t97.5 -34.5t38.5 -93.5q0 -37 -14 -57.5t-38 -46.5l-105 -114h157v-85h-272zM283 0h-101l337 712h101zM128 285v321l-90 -78v106l90 78h95v-427h-95z" />
    <glyph glyph-name="glyph244" horiz-adv-x="836" 
d="M763 57v-57h-90v57h-176v89l143 281h103l-144 -281h74v62h90v-62h33v-89h-33zM288 0h-102l337 712h102zM128 285v321l-90 -78v106l90 78h95v-427h-95z" />
    <glyph glyph-name="glyph245" horiz-adv-x="865" 
d="M792 57v-57h-90v57h-176v89l143 281h103l-144 -281h74v62h90v-62h33v-89h-33zM320 0h-102l337 712h102zM184 281q-59 0 -100 32.5t-41 99.5h94q0 -48 47 -48t47 50q0 21 -13.5 34.5t-35.5 13.5h-13v81h13q22 0 33 13t11 30q0 21 -11.5 32.5t-30.5 11.5q-18 0 -30 -11
t-12 -31h-94q0 57 39 92t97 35q59 0 97.5 -35.5t38.5 -90.5q0 -32 -12.5 -52t-32.5 -32q22 -14 36 -36t14 -58q0 -64 -40 -97.5t-101 -33.5z" />
  </font>
</defs>
</svg>
