<?xml version="1.0" standalone="no"?>
<!DOCTYPE svg PUBLIC "-//W3C//DTD SVG 1.1//EN" "http://www.w3.org/Graphics/SVG/1.1/DTD/svg11.dtd" >
<svg xmlns="http://www.w3.org/2000/svg">
<metadata>
This is a custom SVG webfont generated by Font Squirrel.
Foundry     : ZURB
</metadata>
<defs>
<font id="zurbfaceRegular" horiz-adv-x="1024" >
<font-face units-per-em="2048" ascent="1536" descent="-512" />
<missing-glyph horiz-adv-x="500" />
<glyph unicode="B" d="M68 0v606q0 18 10 32.5t35 14.5h528q35 0 71 -10t58 -33q29 -25 40 -54.5t11 -61.5v-82q12 0 30.5 -1t27.5 -5q43 -18 60 -58.5t22 -91.5v-90q0 -35 -12.5 -61.5t-41.5 -55.5q-23 -23 -56.5 -36t-66.5 -13h-716zM250 166h399h117q6 0 12 2t6 14v21q0 23 -15 38t-32 15 h-487v-90zM250 412h219h158q10 0 12 5t2 11v21q0 16 -10 30.5t-29 14.5h-133h-219v-82z" />
<glyph unicode="R" d="M66 0v606q0 18 15 32.5t34 14.5h667q80 0 129 -47q53 -43 54 -112v-82q0 -37 -17.5 -67t-46.5 -52q29 -29 46.5 -60.5t17.5 -66.5v-117q0 -20 -15.5 -32.5t-29.5 -16.5h-138v37v12v154q0 23 -14 32t-31 9h-491v-195q-10 -41 -45 -49h-135zM246 412h450h70q16 0 16 16v21 q0 16 -10 30.5t-27 14.5h-499v-82z" />
<glyph unicode="U" d="M63 166v450q8 16 17.5 26.5t30.5 10.5h133v-440q0 -18 13 -32.5t30 -14.5h442q16 0 31.5 14.5t15.5 32.5v393q6 25 18.5 36t36.5 11h127v-487q0 -70 -47 -117q-33 -23 -63.5 -36t-71.5 -13h-532q-35 0 -70 13.5t-57 35.5q-31 23 -42.5 52.5t-11.5 64.5z" />
<glyph unicode="Z" d="M68 166q0 59 31.5 101t93.5 57l587 170h-712v112q0 18 10 32.5t26 14.5h676q33 0 66 -11t58.5 -31.5t41 -50.5t15.5 -66q0 -53 -37 -96.5t-90 -57.5l-586 -174h713v-117q0 -20 -14.5 -32.5t-31.5 -16.5h-667q-41 0 -74 13.5t-61 35.5q-23 29 -34 55.5t-11 61.5z" />
<glyph unicode="b" d="M68 0v606q0 18 10 32.5t35 14.5h528q35 0 71 -10t58 -33q29 -25 40 -54.5t11 -61.5v-82q12 0 30.5 -1t27.5 -5q43 -18 60 -58.5t22 -91.5v-90q0 -35 -12.5 -61.5t-41.5 -55.5q-23 -23 -56.5 -36t-66.5 -13h-716zM250 166h399h117q6 0 12 2t6 14v21q0 23 -15 38t-32 15 h-487v-90zM250 412h219h158q10 0 12 5t2 11v21q0 16 -10 30.5t-29 14.5h-133h-219v-82z" />
<glyph unicode="r" d="M66 0v606q0 18 15 32.5t34 14.5h667q80 0 129 -47q53 -43 54 -112v-82q0 -37 -17.5 -67t-46.5 -52q29 -29 46.5 -60.5t17.5 -66.5v-117q0 -20 -15.5 -32.5t-29.5 -16.5h-138v37v12v154q0 23 -14 32t-31 9h-491v-195q-10 -41 -45 -49h-135zM246 412h450h70q16 0 16 16v21 q0 16 -10 30.5t-27 14.5h-499v-82z" />
<glyph unicode="u" d="M63 166v450q8 16 17.5 26.5t30.5 10.5h133v-440q0 -18 13 -32.5t30 -14.5h442q16 0 31.5 14.5t15.5 32.5v393q6 25 18.5 36t36.5 11h127v-487q0 -70 -47 -117q-33 -23 -63.5 -36t-71.5 -13h-532q-35 0 -70 13.5t-57 35.5q-31 23 -42.5 52.5t-11.5 64.5z" />
<glyph unicode="z" d="M68 166q0 59 31.5 101t93.5 57l587 170h-712v112q0 18 10 32.5t26 14.5h676q33 0 66 -11t58.5 -31.5t41 -50.5t15.5 -66q0 -53 -37 -96.5t-90 -57.5l-586 -174h713v-117q0 -20 -14.5 -32.5t-31.5 -16.5h-667q-41 0 -74 13.5t-61 35.5q-23 29 -34 55.5t-11 61.5z" />
<glyph unicode="&#x2000;" horiz-adv-x="358" />
<glyph unicode="&#x2001;" horiz-adv-x="716" />
<glyph unicode="&#x2002;" horiz-adv-x="358" />
<glyph unicode="&#x2003;" horiz-adv-x="716" />
<glyph unicode="&#x2004;" horiz-adv-x="237" />
<glyph unicode="&#x2005;" horiz-adv-x="178" />
<glyph unicode="&#x2006;" horiz-adv-x="118" />
<glyph unicode="&#x2007;" horiz-adv-x="118" />
<glyph unicode="&#x2008;" horiz-adv-x="88" />
<glyph unicode="&#x2009;" horiz-adv-x="143" />
<glyph unicode="&#x200a;" horiz-adv-x="38" />
<glyph unicode="&#x2013;" d="M205 512v205h614v-205h-614z" />
<glyph unicode="&#x2014;" horiz-adv-x="2048" d="M205 512v205h1638v-205h-1638z" />
<glyph unicode="&#x202f;" horiz-adv-x="143" />
<glyph unicode="&#x205f;" horiz-adv-x="178" />
<glyph unicode="&#xe000;" horiz-adv-x="500" d="M0 0v0v0v0v0z" />
</font>
</defs>
</svg>
